#TITLE:AO-∞;
#ARTIST:青龍;
#TITLETRANSLIT:AO-INFINITY;
#ARTISTTRANSLIT:Seiryu;
#GENRE:DANCE SPEED;
#BANNER:AO-INFINITY.png;
#BACKGROUND:AO-INFINITY-bg.png;
#CDTITLE:./CDTitles/AO-INFINITY.png;
#MUSIC:AO-INFINITY.ogg;
#SAMPLESTART:101.781;
#SAMPLELENGTH:15;
#BPMS:0=191;
#BGSTAGE:15;

//--------------- dance-single - Fred-104 ----------------
#NOTES:
     dance-single:
     Fred-104:
     Beginner:
     3:
     :
0000
0000
0000
0000
,
0000
0000
0000
0000
,
0000
0000
0000
0000
,
0000
0000
0000
0000
,
0000
0000
0000
0000
,
0000
0000
0000
0000
,
0000
0000
0000
0000
,
0000
0000
0000
0000
,
0000
0000
0000
0000
,
1000
0000
0000
0000
,
0000
0000
0000
0000
,
0001
0000
0000
0000
,
0000
0000
0000
0000
,
1000
0000
1000
0000
,
0001
0000
0001
0000
,
1000
0000
0001
0000
,
1001
0000
0000
0000
,
1000
0000
0000
0000
,
0100
0000
0000
0000
,
0001
0000
0000
0000
,
0001
0000
0000
0000
,
0001
0000
0000
0000
,
0100
0000
0000
0000
,
1000
0000
0000
0000
,
1000
0000
0000
0000
,
0001
0000
0000
0000
,
0100
0000
0000
0000
,
1000
0000
0000
0000
,
1000
0000
0000
0000
,
1000
0000
0000
0000
,
0100
0000
0000
0000
,
0001
0000
0000
0000
,
0001
0000
0000
0000
,
1000
0000
0000
0000
,
0010
0000
0000
0000
,
1000
0000
0000
0000
,
0001
0000
0001
0000
,
0010
0000
0000
0000
,
0001
0000
0000
0000
,
1000
0000
0000
0000
,
0010
0000
0010
0000
,
0010
0000
0000
0000
,
0100
0000
0100
0000
,
0001
0000
0000
0000
,
1000
0000
1000
0000
,
0001
0000
0000
0000
,
0001
0000
0001
0000
,
1000
0000
0000
0000
,
0001
0000
0000
0000
,
1001
0000
0000
0000
,
0000
0000
0000
0000
,
0000
0000
0000
0000
,
0000
0000
0000
0000
,
0001
0000
0000
0000
,
0000
0000
0000
0000
,
0000
0000
0000
0000
,
0000
0000
0000
0000
,
1000
0000
1000
0000
,
0100
0000
0100
0000
,
0010
0000
0010
0000
,
0001
0000
0001
0000
,
1000
0000
1000
0000
,
0001
0000
0001
0000
,
1000
0000
0001
0000
,
1001
0000
0000
0000
,
2000
0000
0000
3000
,
0002
0000
0000
0003
,
2000
0000
0000
3000
,
0002
0000
0000
0003
,
0200
0000
0000
0300
,
0020
0000
0000
0030
,
0200
0000
0000
0300
,
0020
0000
0000
0030
,
1000
1000
0000
0000
,
0001
0001
0000
0000
,
1000
1000
0000
0000
,
0001
0000
1000
0000
,
0001
0000
0001
0000
,
1000
0000
1000
0000
,
0001
0000
0001
0000
,
1001
0000
0000
0000
,
1000
0000
1000
0000
,
0100
0000
0100
0000
,
1000
0000
0001
0000
,
2000
0000
3000
0000
,
0001
0000
0001
0000
,
1000
0000
0001
0000
,
0010
0000
0010
0000
,
0200
0000
0300
0000
,
1000
0000
0001
0000
,
1000
0000
0010
0000
,
0100
0000
0001
0000
,
2000
0000
3000
0000
,
0001
0000
0010
0000
,
0001
0000
1000
0000
,
0010
0000
1000
0000
,
0002
0000
0000
0003
,
1001
0000
0000
0000
;

//--------------- dance-single - Fred-104 ----------------
#NOTES:
     dance-single:
     Fred-104:
     Easy:
     9:
     :
0000
0000
0000
0000
,
0000
0000
0000
0000
,
0000
0000
0000
0000
,
0000
0000
0000
0000
,
0000
0000
0000
0000
,
0000
0000
0000
0000
,
0000
0000
0000
0000
,
0000
0000
0000
0000
,
0000
0000
0000
0000
,
0001
0001
1000
1000
,
0010
0010
0100
0100
,
0001
0001
1000
1000
,
0100
0000
0100
0000
0010
0001
0010
0000
,
0001
1000
0010
0100
,
0001
1000
0100
0010
,
0001
0000
0000
1000
0000
0000
0001
0000
0001
0000
0001
0000
,
1000
0001
2002
3003
,
0001
0010
0100
1000
,
0010
0100
0010
1000
,
0100
0010
0001
1000
,
0010
0100
0110
0000
,
0001
0010
0100
1000
,
0010
1000
0001
0010
,
0100
1000
0010
1000
,
0001
0100
0220
0330
,
1000
0001
0010
0100
,
1000
0010
1000
0001
,
1000
0100
0001
0100
,
0001
0100
1000
0001
,
0100
0010
1000
0010
,
0100
0001
1000
0010
,
0001
0010
1000
0001
,
1001
0000
0000
0110
0000
0000
1001
0000
,
1001
0000
0001
0010
,
0100
0000
0000
1000
0000
0001
0000
1000
,
0020
0000
0130
0100
,
0001
1000
0001
0010
,
0100
0000
0000
1000
0000
0000
0010
0000
,
1000
0000
0000
0100
0000
0000
0010
0000
,
0100
0000
1000
0001
,
0100
0000
0100
0000
0010
1000
0010
0000
,
0100
0000
0001
0000
1000
0000
0100
1000
,
0100
0010
0010
0001
,
1000
1000
0001
0100
,
0010
0010
0010
0010
,
0110
0000
0000
0001
0000
1000
0001
0000
,
1000
0010
0001
0100
,
1000
0001
1000
0001
,
1001
0000
0000
0000
0001
0100
0001
0000
,
2000
0000
3200
0000
,
0320
0000
0032
0000
,
2003
0000
3002
0000
,
0203
0000
0000
0300
,
0020
0000
2030
0000
,
3200
0000
0320
0000
,
0032
0000
0000
0000
,
0003
0000
0000
0000
,
1000
1000
0100
0100
,
0001
0001
0010
0010
,
1000
1000
0001
0001
,
0010
1000
0100
0001
,
1000
0100
1000
0100
,
0001
0100
0001
0100
,
1000
0000
0000
0001
0000
0000
1000
0000
0000
0000
0000
0000
0001
0000
0000
0000
0001
0000
0000
0000
0001
0000
0000
0000
,
1000
0001
1001
0000
,
0001
0010
0200
0300
,
1000
0010
0200
0300
,
0001
0010
0200
0300
,
1000
0000
0001
0000
,
1000
0100
0020
0030
,
0001
0100
0020
0030
,
1000
0010
0200
0300
,
0001
0000
1000
0000
,
0001
0001
0000
0010
,
1000
1000
0000
0100
,
0001
0001
0000
1000
,
0001
0000
1000
0000
,
0001
0001
0100
0100
,
1000
1000
0010
0010
,
0001
0000
0000
1000
0000
0000
0001
0000
0001
0000
0001
0000
,
1000
0001
2002
3003
,
1000
0000
0000
0100
0000
0000
0010
0000
0010
0000
0010
0000
,
0001
0000
0000
1000
0000
0000
0001
0000
0001
0000
0001
0000
,
0100
0000
0000
0010
0000
0000
0100
0000
0100
0000
0100
0000
,
0001
0000
0001
0000
0001
0000
1000
0000
1000
0000
1000
0000
,
0100
0000
0000
0010
0000
0000
0001
0000
0001
0000
0001
0000
,
1000
0000
0000
0010
0000
0000
0100
0000
0100
0000
0100
0000
,
0010
0000
0000
1000
0000
0000
0001
0000
0001
0000
0001
0000
,
1000
0000
1000
0000
1000
0000
0001
0000
0001
0000
0001
0000
,
1000
0000
0000
0100
0000
0000
0010
0000
0010
0000
0010
0000
,
0100
0000
0000
1000
0000
0000
0001
0000
0001
0000
0001
0000
,
0100
0000
0000
0010
0000
0000
0100
0000
0100
0000
0100
0000
,
0001
0000
0001
0000
0001
0000
1000
0000
1000
0000
1000
0000
,
0010
0000
0000
1000
0000
0000
0100
0000
0100
0000
0100
0000
,
0010
0000
0000
0001
0000
0000
0100
0000
0100
0000
0100
0000
,
0010
0000
0000
1000
0000
0000
0001
0000
0001
0000
0001
0000
,
1000
0000
1000
0000
1000
0000
0001
0000
0001
0000
0001
0000
,
1001
0000
0000
0000
;

//--------------- dance-single - Fred-104 ----------------
#NOTES:
     dance-single:
     Fred-104:
     Medium:
     14:
     :
0000
0000
0000
0000
,
0000
0000
0000
0000
,
0000
0000
0000
0000
,
0000
0000
0000
0000
,
0000
0000
0000
0000
,
0000
0000
0000
0000
,
0000
0000
0000
0000
,
0000
0000
0000
0000
,
0000
0000
0000
0000
,
1001
1000
1000
1000
,
0100
0100
0100
0100
,
0011
0010
0010
0010
,
0001
0000
0001
0000
1000
0001
1000
0000
,
0001
0010
0100
1000
0001
0100
0010
1000
,
0100
0010
0001
0100
0010
1000
0001
0010
,
0001
0000
0000
0100
0000
0000
1000
0000
0000
0100
0000
0000
0001
0000
0000
0000
0010
0000
0000
0000
0100
0000
0000
0000
,
1000
0000
1000
0000
0001
1000
1001
0000
,
0001
0001
0001
0010
0100
1000
0001
0100
,
0010
0010
0010
1000
0010
0100
0001
1000
,
0001
0000
0000
0001
0000
0000
0001
0000
0010
0000
0000
0010
0000
0000
0010
0000
,
0100
0000
0000
0100
0000
0000
0100
0000
1000
0000
0000
1000
0000
0000
1000
0000
,
0010
0010
0010
0100
0010
1000
0001
0010
,
0100
0100
0100
1000
0010
0100
0001
1000
,
0100
0000
0000
0100
0000
0000
0100
0000
0001
0000
0000
0001
0000
0000
0001
0000
,
0100
0000
0000
0100
0000
0000
0100
0000
0110
0000
0000
0000
1001
0000
0000
0000
,
0001
0001
0001
0010
1000
0010
0001
1000
,
0100
0100
0100
0001
0100
0010
0100
1000
,
0001
0000
0000
0010
0000
0000
1000
0000
0001
0000
0000
0100
0000
0000
1000
0000
,
0010
0000
0000
0001
0000
0000
1000
0000
0100
0000
0000
0001
0000
0000
0010
0000
,
0100
0100
0100
1000
0001
0100
1000
0100
,
0010
0010
0010
1000
0100
0010
0001
1000
,
0001
0000
0000
0010
0000
0000
0100
0000
1000
0000
0000
0010
0000
0000
0100
0000
,
0101
0000
0000
1001
0000
0001
1000
0000
,
0001
0100
0010
1000
0002
0000
0023
0000
,
0130
1000
0001
2000
0000
3010
0100
0010
,
2000
0000
3100
0010
0001
1000
0010
0100
,
0001
0100
1000
0100
0001
1000
0001
0000
,
1001
0000
1000
0200
0000
0301
0100
0010
,
0002
0000
1003
0010
0001
0010
2000
0000
,
3002
0000
0103
0001
1000
0001
0010
0001
,
0100
1000
0100
0001
1000
0100
0110
0000
,
0001
0010
0001
1000
0010
1000
0001
1000
,
0100
0010
0001
0010
0100
1000
0001
0000
,
1000
0100
1000
0100
0010
0100
1000
0001
,
0101
1010
0011
1100
,
0001
0010
0100
1000
0001
0100
0010
1000
,
0100
0010
0100
1000
0001
1000
0010
0100
,
0010
1000
0100
1000
0001
0100
0010
1000
,
1001
0000
0001
0010
0100
0100
1000
0000
,
2001
0000
0000
0000
,
3002
0000
0000
0000
,
0203
0000
0320
0000
,
0230
0000
0302
0000
,
2003
0000
0000
0000
,
3200
0000
0000
0000
,
0320
0000
0032
0000
,
1003
0000
1000
0000
0001
1000
0001
0000
,
0110
0100
0100
0100
,
0110
0010
0010
0010
,
1001
1000
1000
1000
,
0001
0001
0001
0001
,
1000
0100
1000
0100
0001
0100
0001
0100
,
1000
0010
1000
0010
0001
0010
0001
0010
,
1000
0000
0000
0100
0000
0000
0010
0000
0000
0001
0000
0000
1000
0000
0000
0000
1000
0000
0000
0000
1000
0000
0000
0000
,
0001
0000
0001
0000
1000
0001
1001
0000
,
0011
0000
0000
0000
0000
0000
0010
0000
0000
0010
0000
0000
0100
0000
0000
0000
1000
0000
0000
0000
0001
0000
0000
0000
,
0100
0000
0000
0000
0000
0000
0001
0000
0000
0001
0000
0000
0010
0000
0000
0000
0100
0000
0000
0000
1000
0000
0000
0000
,
0001
0000
0000
0000
0000
0000
1000
0000
0000
1000
0000
0000
0010
0000
0000
0000
1000
0000
0000
0000
0100
0000
0000
0000
,
1000
0000
0100
0000
0101
0000
0001
0000
0100
0000
1100
0000
,
1001
0000
0000
0000
0000
0000
1000
0000
0000
0100
0000
0000
0001
0000
0000
0000
1000
0000
0000
0000
0010
0000
0000
0000
,
0001
0000
0000
0000
0000
0000
1000
0000
0000
0010
0000
0000
0100
0000
0000
0000
1000
0000
0000
0000
0100
0000
0000
0000
,
0010
0000
0000
0000
0000
0000
1000
0000
0000
0100
0000
0000
0001
0000
0000
0000
0100
0000
0000
0000
0010
0000
0000
0000
,
0001
0000
0010
0000
1010
0000
1000
0000
0010
0000
0011
0000
,
0001
0000
0000
0000
0001
0000
0000
0000
0000
0000
0000
0000
1000
0100
1000
0100
,
1000
0000
0000
0000
1000
0000
0000
0000
0000
0000
0000
0000
0001
0100
0001
0100
,
0001
0000
0000
0000
0001
0000
0000
0000
0000
0000
0000
0000
1000
0001
1000
0001
,
1000
0000
0010
0000
0001
0000
1000
0000
0100
0000
0001
0000
,
1000
0010
1000
0010
0001
0010
0001
0010
,
0100
1000
0100
1000
0100
0001
0100
0001
,
1000
0000
0000
0100
0000
0000
0010
0000
0000
0001
0000
0000
1000
0000
0000
0000
1000
0000
0000
0000
1000
0000
0000
0000
,
0001
0000
0001
0000
1000
0001
1001
0000
,
0001
0000
0000
0010
0000
0000
0100
0000
0000
1000
0000
0000
0001
0000
0000
0000
1000
0000
0000
0000
0010
0000
0000
0000
,
0100
0000
0000
0010
0000
0000
1000
0000
0000
0100
0000
0000
0010
0000
0000
0000
0001
0000
0000
0000
1000
0000
0000
0000
,
0010
0000
0000
1000
0000
0000
0100
0000
0000
1000
0000
0000
0001
0000
0000
0000
0100
0000
0000
0000
0010
0000
0000
0000
,
1000
0000
0100
0000
0001
0000
0001
0000
0100
0000
1000
0000
,
1000
0000
0000
0001
0000
0000
0100
0000
0000
0010
0000
0000
0100
0000
0000
0000
0001
0000
0000
0000
0010
0000
0000
0000
,
0100
0000
0000
1000
0000
0000
0010
0000
0000
1000
0000
0000
0001
0000
0000
0000
1000
0000
0000
0000
0010
0000
0000
0000
,
1000
0000
0000
0100
0000
0000
0010
0000
0000
0001
0000
0000
1000
0000
0000
0000
0001
0000
0000
0000
0100
0000
0000
0000
,
0001
0000
0010
0000
1000
0000
1000
0000
0010
0000
0001
0000
,
0001
0000
0000
1000
0000
0000
0010
0000
0000
0100
0000
0000
0001
0000
0000
0000
0100
0000
0000
0000
1000
0000
0000
0000
,
0100
0000
0000
0001
0000
0000
1000
0000
0000
0100
0000
0000
0010
0000
0000
0000
0001
0000
0000
0000
1000
0000
0000
0000
,
0001
0000
0000
0010
0000
0000
1000
0000
0000
0010
0000
0000
0100
0000
0000
0000
0010
0000
0000
0000
0001
0000
0000
0000
,
1000
0000
0100
0000
0001
0000
1000
0000
0010
0000
0100
0000
,
1000
0000
0000
0001
0000
0000
1000
0000
0000
0010
0000
0000
0100
0000
0000
0000
1000
0000
0000
0000
0100
0000
0000
0000
,
0001
0000
0000
1000
0000
0000
0100
0000
0000
0010
0000
0000
0001
0000
0000
0000
1000
0000
0000
0000
0010
0000
0000
0000
,
0001
0000
0000
0010
0000
0000
0100
0000
0000
0010
0000
0000
1000
0000
0000
0000
0001
0000
0000
0000
0010
0000
0000
0000
,
0001
0000
0100
0000
1000
0000
0001
0000
0010
0000
1000
0000
,
1001
0000
0000
0000
;

//--------------- dance-single - Fred-104 ----------------
#NOTES:
     dance-single:
     Fred-104:
     Hard:
     16:
     :
0000
0000
0000
0000
,
0000
0000
0000
0000
,
0000
0000
0000
0000
,
0000
0000
0000
0000
,
0000
0000
0000
0000
,
0000
0000
0000
0000
,
0000
0000
0000
0000
,
0000
0000
0000
0000
,
0000
0000
0000
0000
,
1001
0001
0001
0001
,
1000
1000
1000
1000
,
0110
0010
0010
0010
,
0100
0000
0000
0000
0100
0000
0000
0000
0100
0001
0100
0001
1000
0000
0001
0000
,
0010
0100
1000
0010
0100
0001
1000
0100
,
1000
0001
0100
1000
0100
0001
0100
0010
,
0100
0000
0000
0010
0000
0000
0100
0000
0000
0010
0000
0000
0100
0000
0000
0010
0000
0000
0100
0000
0000
0010
0000
0000
0100
0000
0000
0000
0000
0000
0000
0000
0100
0000
0000
0000
0000
0000
0000
0000
0100
0000
0000
0000
0000
0000
0000
0000
,
0100
0000
0100
0000
0010
0100
0110
0000
,
0001
1000
0001
1000
0001
0000
1000
0000
0010
0000
0100
0000
0001
0000
1000
0000
,
0100
0010
0100
0010
0100
0000
0010
0000
0001
0000
1000
0000
0010
0000
1000
0000
,
0001
0000
0000
0010
0000
0000
0100
0000
1000
0000
0000
0010
0000
0000
0100
0000
,
0010
0000
0000
1000
0000
0000
0100
0000
0010
0000
0000
0001
0000
0000
1000
0000
,
0010
0100
0010
0100
0010
0000
1000
0000
0100
0000
0010
0000
0001
0000
1000
0000
,
0001
0100
0001
0100
0001
0000
0010
0000
0100
0000
1000
0000
0010
0000
0100
0000
,
0001
0000
0000
1000
0000
0000
0010
0000
1000
0000
0000
0100
0000
0000
0001
0000
,
0100
0000
0000
0010
0000
0000
0100
0000
1100
0000
0000
0000
1001
0000
0000
0000
,
1000
0100
0010
0001
1000
0000
0001
0000
0100
0000
0010
0000
1000
0000
0001
0000
,
0010
0100
1000
0100
0010
0000
0001
0000
1000
0000
0010
0000
0100
0000
0001
0000
,
0010
0000
0000
0100
0000
0000
0001
0000
1000
0000
0000
0010
0000
0000
0001
0000
,
1000
0000
0000
0010
0000
0000
0001
0000
1000
0000
0000
0100
0000
0000
0001
0000
,
0010
0100
1000
0100
0010
0000
0001
0000
1000
0000
0010
0000
0100
0000
0001
0000
,
1000
0100
1000
0001
0100
0000
0010
0000
1000
0000
0001
0000
0010
0000
0100
0000
,
0001
0000
0000
1000
0000
0000
0010
0000
0100
0000
0000
1000
0000
0000
0001
0000
,
1001
0000
0000
0110
0000
1000
0001
0000
,
1000
0010
1000
0001
0010
0100
1000
0001
,
0100
0010
0001
1000
0100
0010
1000
0100
,
0010
0001
1000
0001
0100
0001
1000
0001
,
0010
1000
0010
0100
0010
1000
0010
0001
,
1000
0010
0001
1000
0100
0010
1000
0001
,
0010
1000
0001
0100
0010
0100
1000
0001
,
0100
0010
1000
0001
1000
0001
0010
1000
,
0010
0000
0100
0000
0010
0000
0001
0000
1000
0001
1000
0001
1000
0001
1000
0000
,
0001
0000
0100
0000
0010
0000
1000
0000
0001
0000
0010
0100
1000
0000
0001
0000
,
1000
0000
0001
0100
0010
0000
1000
0001
0010
0000
0100
1000
0001
0000
0100
0000
,
0010
0000
1000
0000
0001
0000
0010
0000
0100
0000
1000
0001
0010
0000
0001
0000
,
0011
0001
0101
0000
1010
1000
1100
0000
,
1001
0000
0001
0000
0100
0000
1000
0000
0100
0000
0010
0100
0010
0000
1000
0000
,
0001
0000
0010
0100
1000
0000
0001
1000
0010
0000
0100
0001
1000
0000
0100
0000
,
0010
0000
0001
1000
0010
0000
0100
0000
0010
0000
1000
0001
0010
0000
0100
0000
,
1100
0000
0000
0000
0001
0000
0100
0000
0010
1000
0010
1000
0001
1000
0100
0000
,
0120
0032
2003
3020
,
0031
1000
0200
0000
0302
0000
2003
0000
,
3010
1000
0001
0010
0100
1000
0001
2000
,
0000
3010
0200
0000
0320
0000
2030
0000
,
3001
0010
2000
0000
3002
0000
0203
0000
,
2300
0000
3002
0000
0203
0000
0310
1000
,
0002
0000
0000
0000
,
0000
0000
0000
0000
0000
0000
0000
0000
1003
0001
1000
0001
0100
0010
0100
0010
,
1000
1000
1000
1000
,
1001
0001
1000
1000
,
0011
0010
0100
0100
,
1000
0000
0001
0000
1000
0001
1000
0000
,
0001
0100
0001
0000
1000
0100
1000
0000
0001
0010
0001
0000
1000
0010
1000
0000
,
0001
0010
0001
0010
0001
0010
0001
0000
1000
0100
1000
0100
1000
0100
1000
0000
,
0001
0000
0000
1000
0000
0000
0001
0000
0000
1000
0000
0000
0001
0000
0000
1000
0000
0000
0001
0000
0000
1000
0000
0000
0001
0000
0000
0000
0000
0000
0000
0000
0001
0000
0000
0000
0000
0000
0000
0000
0001
0000
0000
0000
0000
0000
0000
0000
,
0010
0000
0010
0000
0010
0100
0110
0000
,
1000
0000
0000
0000
0000
0000
0001
0000
0000
0000
0000
0000
0100
0000
0000
0001
0000
0000
0100
0000
0000
0010
0000
0000
1000
0000
0000
0000
0000
0000
0000
0000
1000
0000
0000
0000
0000
0000
0000
0000
1000
0000
0000
0000
0000
0000
0000
0000
,
0100
0000
0000
0000
0000
0000
1000
0000
0000
0000
0000
0000
0001
0000
0000
1000
0000
0000
0010
0000
0000
0100
0000
0000
0010
0000
0000
0000
0000
0000
0000
0000
0010
0000
0000
0000
0000
0000
0000
0000
0010
0000
0000
0000
0000
0000
0000
0000
,
1000
0000
0000
0000
0000
0000
0001
0000
0000
0000
0000
0000
0010
0000
0000
0100
0000
0000
1000
0000
0000
0001
0000
0000
0100
0000
0000
0000
0000
0000
0000
0000
0100
0000
0000
0000
0000
0000
0000
0000
0100
0000
0000
0000
0000
0000
0000
0000
,
0001
0000
0010
0000
1010
0000
1000
0000
0010
0000
0011
0000
,
1001
0000
0000
0000
0000
0000
0001
0000
0000
0000
0000
0000
1000
0000
0000
0010
0000
0000
0100
0000
0000
0001
0000
0000
1000
0000
0000
0000
0000
0000
0000
0000
1000
0000
0000
0000
0000
0000
0000
0000
1000
0000
0000
0000
0000
0000
0000
0000
,
0010
0000
0000
0000
0000
0000
1000
0000
0000
0000
0000
0000
0001
0000
0000
0010
0000
0000
0100
0000
0000
0010
0000
0000
0001
0000
0000
0000
0000
0000
0000
0000
0001
0000
0000
0000
0000
0000
0000
0000
0001
0000
0000
0000
0000
0000
0000
0000
,
0100
0000
0000
0000
0000
0000
0010
0000
0000
0000
0000
0000
1000
0000
0000
0001
0000
0000
0010
0000
0000
0001
0000
0000
1000
0000
0000
0000
0000
0000
0000
0000
1000
0000
0000
0000
0000
0000
0000
0000
1000
0000
0000
0000
0000
0000
0000
0000
,
0001
0000
0100
0000
1100
0000
1000
0000
0100
0000
0101
0000
,
0001
0000
0000
0000
0001
0000
0000
0000
0000
0000
0000
0000
1000
0100
0010
0001
,
1000
0000
0000
0000
1000
0000
0000
0000
0000
0000
0000
0000
0001
0100
0010
1000
,
0001
0000
0000
0000
0001
0000
0000
0000
0000
0000
0000
0000
1000
0010
0100
0001
,
1000
0000
0100
0000
0101
0000
0001
0000
0100
0000
1100
0000
,
1000
0000
0100
0000
0010
0000
0001
0000
1000
0000
0001
0000
0100
0010
1000
0010
,
0100
0000
0001
0000
1000
0000
0100
0000
0010
0000
0001
0000
1000
0001
1000
0010
,
0100
0000
0000
0010
0000
0000
1000
0000
0000
0001
0000
0000
0010
0000
0000
0100
0000
0000
1000
0000
0000
0001
0000
0000
1000
0000
0000
0000
0000
0000
0000
0000
1000
0000
0000
0000
0000
0000
0000
0000
1000
0000
0000
0000
0000
0000
0000
0000
,
0001
0000
0001
0000
1000
0001
1001
0000
,
0001
0000
0000
0000
0000
0000
1000
0000
0000
0000
0000
0000
0010
0000
0000
0100
0000
0000
0001
0000
0000
1000
0000
0000
0100
0000
0000
0000
0000
0000
0000
0000
0010
0000
0000
0000
0000
0000
0000
0000
0001
0000
0000
0000
0000
0000
0000
0000
,
1000
0000
0000
0000
0000
0000
0010
0000
0000
0000
0000
0000
0100
0000
0000
0001
0000
0000
1000
0000
0000
0100
0000
0000
0010
0000
0000
0000
0000
0000
0000
0000
0100
0000
0000
0000
0000
0000
0000
0000
1000
0000
0000
0000
0000
0000
0000
0000
,
0001
0000
0000
0000
0000
0000
0100
0000
0000
0000
0000
0000
0010
0000
0000
1000
0000
0000
0010
0000
0000
0100
0000
0000
0001
0000
0000
0000
0000
0000
0000
0000
1000
0000
0000
0000
0000
0000
0000
0000
0100
0000
0000
0000
0000
0000
0000
0000
,
1100
0000
0110
0000
0011
0000
0101
0000
0110
0000
1010
0000
,
1001
0000
0000
0000
0000
0000
0001
0000
0000
0000
0000
0000
0100
0000
0000
0001
0000
0000
1000
0000
0000
0001
0000
0000
0010
0000
0000
0000
0000
0000
0000
0000
0100
0000
0000
0000
0000
0000
0000
0000
0010
0000
0000
0000
0000
0000
0000
0000
,
1000
0000
0000
0000
0000
0000
0010
0000
0000
0000
0000
0000
0001
0000
0000
1000
0000
0000
0010
0000
0000
1000
0000
0000
0001
0000
0000
0000
0000
0000
0000
0000
0010
0000
0000
0000
0000
0000
0000
0000
0100
0000
0000
0000
0000
0000
0000
0000
,
1000
0000
0000
0000
0000
0000
0001
0000
0000
0000
0000
0000
1000
0000
0000
0010
0000
0000
1000
0000
0000
0001
0000
0000
0010
0000
0000
0000
0000
0000
0000
0000
1000
0000
0000
0000
0000
0000
0000
0000
0010
0000
0000
0000
0000
0000
0000
0000
,
0011
0000
0110
0000
1100
0000
1010
0000
0110
0000
0101
0000
,
1001
0000
0000
0000
0000
0000
1000
0000
0000
0000
0000
0000
0010
0000
0000
1000
0000
0000
0001
0000
0000
0010
0000
0000
0001
0000
0000
0000
0000
0000
0000
0000
0100
0000
0000
0000
0000
0000
0000
0000
0010
0000
0000
0000
0000
0000
0000
0000
,
0001
0000
0000
0000
0000
0000
0010
0000
0000
0000
0000
0000
0100
0000
0000
0001
0000
0000
1000
0000
0000
0001
0000
0000
0010
0000
0000
0000
0000
0000
0000
0000
0100
0000
0000
0000
0000
0000
0000
0000
1000
0000
0000
0000
0000
0000
0000
0000
,
0001
0000
0000
0000
0000
0000
1000
0000
0000
0000
0000
0000
0010
0000
0000
0100
0000
0000
0010
0000
0000
0100
0000
0000
1000
0000
0000
0000
0000
0000
0000
0000
0100
0000
0000
0000
0000
0000
0000
0000
0001
0000
0000
0000
0000
0000
0000
0000
,
0011
0000
1010
0000
0011
0000
1100
0000
0101
0000
1100
0000
,
1001
0000
0000
0000
0000
0000
1000
0000
0000
0000
0000
0000
0010
0000
0000
1000
0000
0000
0100
0000
0000
0010
0000
0000
0001
0000
0000
0000
0000
0000
0000
0000
0100
0000
0000
0000
0000
0000
0000
0000
1000
0000
0000
0000
0000
0000
0000
0000
,
0001
0000
0000
0000
0000
0000
0010
0000
0000
0000
0000
0000
1000
0000
0000
0001
0000
0000
1000
0000
0000
0100
0000
0000
0010
0000
0000
0000
0000
0000
0000
0000
0001
0000
0000
0000
0000
0000
0000
0000
1000
0000
0000
0000
0000
0000
0000
0000
,
0010
0000
0000
0100
0000
0000
0010
0000
0000
1000
0000
0000
0001
0000
0000
0010
0000
0000
0100
0000
0000
1000
0000
0000
0001
0000
0000
0000
0000
0000
0000
0000
0100
0000
0000
0000
0000
0000
0000
0000
0010
0000
0000
0000
0000
0000
0000
0000
,
1010
0000
0101
0000
1100
0000
0011
0000
1010
0000
0101
0000
,
1001
0000
0000
0000
;

//--------------- dance-double - Fred-104 ----------------
#NOTES:
     dance-double:
     Fred-104:
     Easy:
     8:
     :
00000000
00000000
00000000
00000000
,
00000000
00000000
00000000
00000000
,
00000000
00000000
00000000
00000000
,
00000000
00000000
00000000
00000000
,
00000000
00000000
00000000
00000000
,
00000000
00000000
00000000
00000000
,
00000000
00000000
00000000
00000000
,
00000000
00000000
00000000
00000000
,
00000000
00000000
00000000
00000000
,
00010000
00000000
00001000
00010000
,
00001000
00000000
00100000
00010000
,
10000000
00000000
00100000
00010000
,
00001000
00001000
00010000
00010000
,
00001000
00000000
00000100
00000000
,
00000001
00001000
00000100
00000010
,
00001000
00000000
00000000
00010000
00000000
00000000
00001000
00000000
00001000
00000000
00001000
00000000
,
00010000
00001000
00022000
00033000
,
00001000
00010000
00100000
01000000
,
00100000
10000000
00100000
00000000
,
10000000
00000000
01000000
00000000
,
00010000
00000000
00001000
00001000
,
00010000
00001000
00000010
00000100
,
00000010
00000001
00001000
00000000
,
00000001
00000000
00000100
00000000
,
00001000
00010000
00022000
00033000
,
00001000
00010000
00001000
01000000
,
00010000
00100000
00001000
00000000
,
00010000
00000000
00001000
00000000
,
00000010
00000000
00001000
00000000
,
00010000
00001000
00000100
00000010
,
00000100
00000001
00001000
00000000
,
00000010
00010000
00001000
01000000
,
01100000
00000000
00000000
01100000
00000000
00000000
01100000
00000000
,
10010000
00000000
10000000
01000000
,
10000000
00000000
00000000
00010000
00000000
01000000
00000000
00001000
,
00020000
00000000
00031000
00001000
,
00010000
00001000
00000100
00000001
,
00001000
00000000
00000000
00000100
00000000
00000000
00000010
00000000
,
00000001
00000000
00000000
00001000
00000000
00000000
00000010
00000000
,
00002000
00000000
00003010
00000010
,
00010000
00000000
00010000
00000000
00001000
00010000
00001000
00000000
,
00010000
00001000
00000010
00000100
,
00001000
00000001
00001000
00000000
,
00000010
00010000
00001000
00010000
,
01000000
00100000
00010000
00000000
,
10000000
00000000
00100000
00000000
,
00010000
00001000
00010000
00000000
,
00001000
00000010
00000001
00001000
,
00000001
00000100
00001000
00010000
,
00002000
00000000
00023000
00000000
,
02030000
00000000
23000000
00000000
,
30020000
00000000
02030000
00000000
,
03200000
00000000
00000000
00000000
,
20300000
00000000
32000000
00000000
,
03020000
00000000
00032000
00000000
,
00003200
00000000
00000000
00000000
,
00000300
00000000
00000001
00000001
,
00001001
00001000
00000001
00000001
,
00000100
00000100
00001000
00001000
,
00010000
00010000
00100000
00100000
,
10000000
10000000
01000000
01000000
,
00010000
00010000
00001000
00001000
,
00000010
00000010
00000001
00000001
,
00001000
00000000
00000000
00000010
00000000
00000000
00010000
00000000
00010000
00000000
00010000
00000000
,
00001000
00010000
00022000
00033000
,
00001000
00010000
00002000
00003000
,
01000000
00010000
02000000
03000000
,
00100000
10000000
02000000
03000000
,
00100000
00000000
00001000
00000000
,
00010000
00001000
00000200
00000300
,
00000001
00001000
00000200
00000300
,
00000001
00000100
00002000
00003000
,
00000001
00000000
00000100
00000000
,
00001000
00001000
00000000
00010000
,
00100000
00100000
00000000
10000000
,
00010000
00010000
00000000
01000000
,
00001000
00000000
00010000
00000000
,
00001000
00001000
00010000
00010000
,
00001000
00001000
01000000
01000000
,
00001000
00000000
00000000
00010000
00000000
00000000
00000100
00000000
00000100
00000000
00000100
00000000
,
00010000
00001000
00022000
00033000
,
00001000
00000000
00000000
00010000
00000000
00000000
00001000
00000000
00001000
00000000
00001000
00000000
,
01000000
00000000
00000000
00010000
00000000
00000000
10000000
00000000
10000000
00000000
10000000
00000000
,
01000000
00000000
00000000
00100000
00000000
00000000
00010000
00000000
00010000
00000000
00010000
00000000
,
00200000
00000000
00302000
00000000
,
00013000
00000000
00000000
00001000
00000000
00000000
00000010
00000000
00000010
00000000
00000010
00000000
,
00000100
00000000
00000000
00001000
00000000
00000000
00000001
00000000
00000001
00000000
00000001
00000000
,
00000100
00000000
00000000
00001000
00000000
00000000
00010000
00000000
00010000
00000000
00010000
00000000
,
00002000
00000000
00023000
00000000
,
00031000
00000000
00000000
00010000
00000000
00000000
00001000
00000000
00001000
00000000
00001000
00000000
,
01000000
00000000
00000000
00010000
00000000
00000000
10000000
00000000
10000000
00000000
10000000
00000000
,
01000000
00000000
00000000
00100000
00000000
00000000
00001000
00000000
00001000
00000000
00001000
00000000
,
00020000
00000000
00032000
00000000
,
00003100
00000000
00000000
00000010
00000000
00000000
00001000
00000000
00001000
00000000
00001000
00000000
,
00000001
00000000
00000000
00000100
00000000
00000000
00001000
00000000
00001000
00000000
00001000
00000000
,
00010000
00000000
00000000
00000010
00000000
00000000
00001000
00000000
00001000
00000000
00001000
00000000
,
00000100
00000000
00000100
00000000
00000100
00000000
00000010
00000000
00000010
00000000
00000010
00000000
,
00001001
00000000
00000000
00000000
;

//--------------- dance-double - Fred-104 ----------------
#NOTES:
     dance-double:
     Fred-104:
     Medium:
     13:
     :
00000000
00000000
00000000
00000000
,
00000000
00000000
00000000
00000000
,
00000000
00000000
00000000
00000000
,
00000000
00000000
00000000
00000000
,
00000000
00000000
00000000
00000000
,
00000000
00000000
00000000
00000000
,
00000000
00000000
00000000
00000000
,
00000000
00000000
00000000
00000000
,
00000000
00000000
00000000
00000000
,
00001001
00000001
00000100
00000100
,
00001000
00001000
00010000
00010000
,
00011000
00001000
01000000
01000000
,
00010000
00010000
10000000
10000000
,
01000000
00100000
00010000
00000000
00100000
00001000
00010000
00000000
,
00000100
00001000
00000001
00000000
00000010
00000100
00001000
00000000
,
00000001
00000000
00000000
00000100
00000000
00000000
00001000
00000000
00000000
00010000
00000000
00000000
00001000
00000000
00000000
00000000
00001000
00000000
00000000
00000000
00001000
00000000
00000000
00000000
,
00011000
00000000
00000000
00000000
,
00001000
00010000
00001000
00010000
00100000
01000000
00010000
00000000
,
10000000
01000000
10000000
01000000
00010000
00001000
00010000
00000000
,
00001000
00000000
00000000
00001000
00000000
00000000
00010000
00000000
01000000
00000000
00000000
01000000
00000000
00000000
00100000
00000000
,
00010000
00000000
00000000
01000000
00000000
00000000
00100000
00000000
00010000
00000000
00000000
00001000
00000000
00000000
00000010
00000000
,
00000100
00001000
00000001
00000100
00000001
00000100
00001000
00000000
,
00010000
00001000
00010000
00001000
01000000
00001000
00010000
00000000
,
00001000
00000000
00000000
00001000
00000000
00000000
00000100
00000000
00000001
00000000
00000000
00000001
00000000
00000000
00000010
00000000
,
00000100
00000000
00000000
00000100
00000000
00000000
00010000
00000000
00011000
00000000
00000000
00000000
00011000
00000000
00000000
00000000
,
00001000
00010000
00001000
00010000
00100000
10000000
00100000
00000000
,
01000000
00010000
10000000
01000000
00100000
00001000
00010000
00000000
,
00001000
00000000
00000000
00010000
00000000
00000000
00100000
00000000
01000000
00000000
00000000
00010000
00000000
00000000
10000000
00000000
,
01000000
00000000
00000000
00010000
00000000
00000000
00001000
00000000
00000010
00000000
00000000
00000001
00000000
00000000
00001000
00000000
,
00000100
00000010
00000100
00000010
00000001
00001000
00000010
00000000
,
00000100
00001000
00010000
00001000
01000000
00010000
00100000
00000000
,
00001000
00000000
00000000
00010000
00000000
00000000
00100000
00000000
00010000
00000000
00000000
00001000
00000000
00000000
01000000
00000000
,
01010000
00000000
00000000
10010000
00000000
10000000
01000000
00000000
,
10000000
00100000
00020000
00032000
,
00013000
00001000
01000000
00001000
00000000
00010000
00001000
00000100
,
00000001
00000000
00001000
00000000
00000100
00000000
00000001
00000100
,
00001000
00000001
00000100
00000001
00000100
00001000
00010000
00000000
,
00011000
00000000
00001000
00100000
00000000
00010000
01000000
00001000
,
00010000
00000000
00001000
00000100
00000000
00000010
00001000
00000000
,
00010000
00000000
00100000
00000000
01000000
00000000
10000000
00010000
,
10000000
00100000
10000000
00100000
00010000
00001000
00010000
00000000
,
00011000
00000000
00010000
00001000
00000100
00000000
00000001
00001000
,
00000100
00000000
00000010
00000000
00001000
00000000
00010000
00001000
,
00010000
00100000
01000000
00010000
,
10010000
11000000
01010000
00011000
,
00001000
00010000
00001000
01000000
00000000
00001000
00010000
00000000
,
00001000
00100000
00010000
00000000
00100000
01000000
10000000
00000000
,
00100000
00010000
00001000
00000000
00000100
00000010
00001000
00000000
,
00000100
00000010
00000001
00001000
00000010
00010000
00001000
00000000
,
00021000
00000000
00000000
00000000
,
00032000
00000000
00000000
00000000
,
02003000
00000000
00000000
00000000
,
03020000
00000000
20030000
00000000
,
32000000
00000000
00000000
00000000
,
03200000
00000000
00000000
00000000
,
00302000
00000000
00000000
00000000
,
00000000
00000000
00003000
00000000
,
00011000
00001000
01000000
01000000
,
10010000
10000000
00100000
00100000
,
01100000
01000000
00010000
00010000
,
00100000
01000000
00010000
00001000
,
00010000
00001000
00010000
00000000
00000010
00001000
00000010
00000000
,
00010000
00001000
00010000
00000000
00000100
00001000
00000100
00000000
,
00010000
00000000
00000000
00001000
00000000
00000000
00000100
00000000
00000000
00000001
00000000
00000000
00000010
00000000
00000000
00000000
00000010
00000000
00000000
00000000
00000100
00000000
00000000
00000000
,
00001100
00000000
00000000
00000000
,
00000001
00000000
00000000
00000000
00000000
00000000
00000100
00000000
00000000
00001000
00000000
00000000
00010000
00000000
00000000
00000000
00010000
00000000
00000000
00000000
00010000
00000000
00000000
00000000
,
00001000
00000000
00000000
00000000
00000000
00000000
00010000
00000000
00000000
00100000
00000000
00000000
01000000
00000000
00000000
00000000
01000000
00000000
00000000
00000000
01000000
00000000
00000000
00000000
,
00100000
00000000
00000000
00000000
00000000
00000000
10000000
00000000
00000000
01000000
00000000
00000000
00010000
00000000
00000000
00000000
00010000
00000000
00000000
00000000
00010000
00000000
00000000
00000000
,
00001000
00000000
00010000
00000000
00100000
00000000
10000000
00000000
01000000
00000000
00010000
00000000
,
00001000
00000000
00000000
00000000
00000000
00000000
00010000
00000000
00000000
00001000
00000000
00000000
00000100
00000000
00000000
00000000
00000100
00000000
00000000
00000000
00000100
00000000
00000000
00000000
,
00000001
00000000
00000000
00000000
00000000
00000000
00000010
00000000
00000000
00000100
00000000
00000000
00001000
00000000
00000000
00000000
00001000
00000000
00000000
00000000
00001000
00000000
00000000
00000000
,
00000010
00000000
00000000
00000000
00000000
00000000
00010000
00000000
00000000
00001000
00000000
00000000
00010000
00000000
00000000
00000000
00010000
00000000
00000000
00000000
00010000
00000000
00000000
00000000
,
00001000
00000000
00010000
00000000
01000000
00000000
10000000
00000000
00100000
00000000
00010000
00000000
,
00001000
00000000
00001000
00000000
00000000
00000000
00010000
00001000
,
00000100
00000000
00000100
00000000
00000000
00000000
00000001
00000100
,
00001000
00000000
00001000
00000000
00000000
00000000
00010000
00001000
,
00010000
00000000
00001000
00000000
00000010
00000000
00000001
00000000
00000100
00000000
00001000
00000000
,
00010000
00001000
00010000
00001000
00100000
01000000
10000000
00000000
,
00010000
01000000
00100000
00010000
00001000
00100000
00001000
00000000
,
00010000
00000000
00000000
00001000
00000000
00000000
00000100
00000000
00000000
00001000
00000000
00000000
00010000
00000000
00000000
00000000
00010000
00000000
00000000
00000000
00001000
00000000
00000000
00000000
,
00011000
00000000
00000000
00000000
,
00001000
00000000
00000000
00010000
00000000
00000000
00100000
00000000
00000000
10000000
00000000
00000000
00010000
00000000
00000000
00000000
00010000
00000000
00000000
00000000
00010000
00000000
00000000
00000000
,
01000000
00000000
00000000
00100000
00000000
00000000
10000000
00000000
00000000
01000000
00000000
00000000
00100000
00000000
00000000
00000000
00100000
00000000
00000000
00000000
00100000
00000000
00000000
00000000
,
00001000
00000000
00000000
00010000
00000000
00000000
00000010
00000000
00000000
00001000
00000000
00000000
00000010
00000000
00000000
00000000
00000010
00000000
00000000
00000000
00000010
00000000
00000000
00000000
,
00000100
00000000
00000001
00000000
00000010
00000000
00001000
00000000
00010000
00000000
00001000
00000000
,
00100000
00000000
00000000
01000000
00000000
00000000
10000000
00000000
00000000
00010000
00000000
00000000
01000000
00000000
00000000
00000000
01000000
00000000
00000000
00000000
01000000
00000000
00000000
00000000
,
00100000
00000000
00000000
00010000
00000000
00000000
00001000
00000000
00000000
00010000
00000000
00000000
00000010
00000000
00000000
00000000
00000010
00000000
00000000
00000000
00000010
00000000
00000000
00000000
,
00010000
00000000
00000000
00001000
00000000
00000000
00000100
00000000
00000000
00000010
00000000
00000000
00001000
00000000
00000000
00000000
00001000
00000000
00000000
00000000
00001000
00000000
00000000
00000000
,
00000001
00000000
00000100
00000000
00001000
00000000
00010000
00000000
01000000
00000000
10000000
00000000
,
00010000
00000000
00000000
01000000
00000000
00000000
10000000
00000000
00000000
01000000
00000000
00000000
00010000
00000000
00000000
00000000
10000000
00000000
00000000
00000000
01000000
00000000
00000000
00000000
,
00100000
00000000
00000000
00001000
00000000
00000000
00010000
00000000
00000000
00001000
00000000
00000000
00000100
00000000
00000000
00000000
00000001
00000000
00000000
00000000
00001000
00000000
00000000
00000000
,
00000100
00000000
00000000
00000010
00000000
00000000
00000001
00000000
00000000
00001000
00000000
00000000
00000010
00000000
00000000
00000000
00000100
00000000
00000000
00000000
00001000
00000000
00000000
00000000
,
00010000
00000000
00100000
00000000
01000000
00000000
00010000
00000000
00100000
00000000
01000000
00000000
,
10000000
00000000
00000000
00100000
00000000
00000000
10000000
00000000
00000000
01000000
00000000
00000000
00010000
00000000
00000000
00000000
01000000
00000000
00000000
00000000
10000000
00000000
00000000
00000000
,
00010000
00000000
00000000
10000000
00000000
00000000
00100000
00000000
00000000
00010000
00000000
00000000
00001000
00000000
00000000
00000000
00010000
00000000
00000000
00000000
00100000
00000000
00000000
00000000
,
00010000
00000000
00000000
00001000
00000000
00000000
00010000
00000000
00000000
00000100
00000000
00000000
00000010
00000000
00000000
00000000
00000001
00000000
00000000
00000000
00001000
00000000
00000000
00000000
,
00000001
00000000
00000100
00000000
00001000
00000000
00010000
00000000
00100000
00000000
10000000
00000000
,
10010000
00000000
00000000
00000000
;

//--------------- dance-double - Fred-104 ----------------
#NOTES:
     dance-double:
     Fred-104:
     Hard:
     16:
     :
00000000
00000000
00000000
00000000
,
00000000
00000000
00000000
00000000
,
00000000
00000000
00000000
00000000
,
00000000
00000000
00000000
00000000
,
00000000
00000000
00000000
00000000
,
00000000
00000000
00000000
00000000
,
00000000
00000000
00000000
00000000
,
00000000
00000000
00000000
00000000
,
00000000
00000000
00000000
00000000
,
00011000
00010000
00001000
00001000
,
00000100
00000010
00001000
00000100
,
00000110
00001000
00000010
00000100
,
00001000
00000000
00000000
00000000
00010000
00000000
00000000
00000000
00010000
00001000
00010000
00001000
00010000
00000000
00100000
00000000
,
01000000
00010000
00100000
01000000
00010000
00001000
00010000
00100000
,
00001000
00000010
00010000
00000100
00001000
01000000
00010000
00001000
,
00010000
00000000
00000000
00001000
00000000
00000000
00010000
00000000
00000000
00001000
00000000
00000000
00010000
00000000
00000000
00001000
00000000
00000000
00010000
00000000
00000000
00001000
00000000
00000000
00010000
00000000
00000000
00000000
00000000
00000000
00000000
00000000
00010000
00000000
00000000
00000000
00000000
00000000
00000000
00000000
00010000
00000000
00000000
00000000
00000000
00000000
00000000
00000000
,
00001000
00000000
00001000
00000000
00010000
00001000
00011000
00000000
,
00001000
01000000
00001000
01000000
00001000
00000000
00100000
00000000
01000000
00000000
00010000
00000000
00001000
00000000
00010000
00000000
,
00000010
00010000
00000010
00010000
00001000
00000000
00010000
00000000
01000000
00000000
00100000
00000000
00010000
00000000
01000000
00000000
,
00001000
00000000
00000000
00000010
00000000
00000000
00010000
00000000
00100000
00000000
00000000
01000000
00000000
00000000
00010000
00000000
,
00001000
00000000
00000000
01000000
00000000
00000000
00010000
00000000
00000100
00000000
00000000
00000010
00000000
00000000
00010000
00000000
,
00001000
01000000
00001000
01000000
00010000
00000000
00001000
00000000
00000010
00000000
00001000
00000000
00010000
00000000
01000000
00000000
,
00001000
00100000
00001000
00100000
00010000
00000000
00001000
00000000
00000100
00000000
00010000
00000000
01000000
00000000
00010000
00000000
,
00001000
00000000
00000000
00100000
00000000
00000000
00001000
00000000
00000010
00000000
00000000
00000100
00000000
00000000
00001000
00000000
,
00000010
00000000
00000000
00010000
00000000
00000000
00001000
00000000
00101000
00000000
00000000
00000000
00011000
00000000
00000000
00000000
,
00001000
00010000
00001000
00010000
00100000
00000000
01000000
00000000
00010000
00000000
00100000
00000000
01000000
00000000
00100000
00000000
,
00010000
01000000
00100000
01000000
00100000
00000000
00010000
00000000
00001000
00000000
00000100
00000000
00000010
00000000
00001000
00000000
,
00000100
00000000
00000000
00000010
00000000
00000000
00001000
00000000
00010000
00000000
00000000
00100000
00000000
00000000
01000000
00000000
,
00001000
00000000
00000000
00010000
00000000
00000000
01000000
00000000
00100000
00000000
00000000
00010000
00000000
00000000
01000000
00000000
,
00001000
00010000
00001000
00010000
00001000
00000000
00000100
00000000
00000010
00000000
00001000
00000000
00000100
00000000
00000010
00000000
,
00001000
00010000
00001000
00010000
00001000
00000000
01000000
00000000
00001000
00000000
00010000
00000000
00100000
00000000
01000000
00000000
,
00010000
00000000
00000000
00001000
00000000
00000000
00000010
00000000
00001000
00000000
00000000
00010000
00000000
00000000
00100000
00000000
,
00101000
00000000
00000000
00010100
00000000
00010000
00001000
00000000
,
00010000
00001000
00000100
00000010
00001000
00000100
00000010
00000000
,
00000100
00001000
00000010
00000100
00001000
00010000
00100000
01000000
,
00010000
00000000
00100000
01000000
00010000
01000000
00100000
00010000
,
01000000
00100000
00010000
00001000
00000100
00000010
00001000
00000100
,
00000010
00000000
00000100
00001000
00000010
00000100
00001000
00010000
,
00001000
01000000
00001000
00000100
00001000
00010000
01000000
00100000
,
00001000
00000000
00010000
00001000
00000010
00000100
00001000
00010000
,
00100000
00000000
01000000
00000000
00100000
00000000
00001000
00000000
00010000
00001000
00010000
00001000
00010000
00001000
00010000
00000000
,
00001000
00010000
00100000
01000000
00001000
01000000
00100000
00010000
,
00001000
00100000
00001000
00000010
00000100
00010000
00001000
00000100
,
00000010
00001000
00100000
01000000
00010000
00100000
01000000
00010000
,
00011000
01001000
00010100
00011000
,
00010000
00001000
00000010
00000100
00001000
00000010
00000100
00001000
,
00010000
01000000
00100000
00010000
00100000
01000000
00010000
00000100
,
00001000
00000010
00000100
00001000
00010000
01000000
00100000
00001000
,
01001000
00000000
00000000
00000000
00001000
00000000
00010000
00000000
00000010
00010000
00000010
00010000
00001000
00010000
00001000
00000000
,
00011000
00001000
00000100
00000010
,
00001000
00000100
00000010
00000000
00000100
00000000
00000010
00000000
,
00001000
00010000
01000000
00100000
00010000
01000000
00100000
00010000
,
00000000
00001000
00000010
00000000
00001000
00000000
00010000
00000000
,
00001000
00000100
00000010
00000000
00001000
00000000
00000100
00000000
,
00000010
00000000
00001000
00000000
00010000
00000000
00001000
01000000
,
00020000
00000000
00000000
00000000
,
00000000
00000000
00000000
00000000
00000000
00000000
00000000
00000000
10030000
00010000
00100000
01000000
10000000
00010000
10000000
00000000
,
10100000
00100000
00010000
00010000
,
00011000
00001000
00000100
00000100
,
00000101
00000001
00000010
00000010
,
00000100
00000000
00000100
00000000
00010000
00001000
00010000
00000000
,
00001000
00010000
00001000
00000000
00100000
00010000
00100000
00000000
00001000
00010000
00001000
00000000
01000000
00010000
01000000
00000000
,
00001000
00010000
00001000
00010000
00001000
00010000
00001000
00000000
00010000
00000010
00010000
00000010
00010000
00000010
00010000
00000000
,
00001000
00000000
00000000
00010000
00000000
00000000
00001000
00000000
00000000
00010000
00000000
00000000
00001000
00000000
00000000
00010000
00000000
00000000
00001000
00000000
00000000
00010000
00000000
00000000
00001000
00000000
00000000
00000000
00000000
00000000
00000000
00000000
00001000
00000000
00000000
00000000
00000000
00000000
00000000
00000000
00001000
00000000
00000000
00000000
00000000
00000000
00000000
00000000
,
00010000
00000000
00010000
00000000
00001000
00010000
00011000
00000000
,
00001000
00000000
00000000
00000000
00000000
00000000
00010000
00000000
00000000
00000000
00000000
00000000
00100000
00000000
00000000
01000000
00000000
00000000
00100000
00000000
00000000
01000000
00000000
00000000
00100000
00000000
00000000
00000000
00000000
00000000
00000000
00000000
00010000
00000000
00000000
00000000
00000000
00000000
00000000
00000000
00001000
00000000
00000000
00000000
00000000
00000000
00000000
00000000
,
00010000
00000000
00000000
00000000
00000000
00000000
00001000
00000000
00000000
00000000
00000000
00000000
00000010
00000000
00000000
00000100
00000000
00000000
00000010
00000000
00000000
00000100
00000000
00000000
00000010
00000000
00000000
00000000
00000000
00000000
00000000
00000000
00001000
00000000
00000000
00000000
00000000
00000000
00000000
00000000
00010000
00000000
00000000
00000000
00000000
00000000
00000000
00000000
,
00001000
00000000
00000000
00000000
00000000
00000000
00010000
00000000
00000000
00000000
00000000
00000000
01000000
00000000
00000000
00100000
00000000
00000000
01000000
00000000
00000000
00100000
00000000
00000000
00010000
00000000
00000000
00000000
00000000
00000000
00000000
00000000
01000000
00000000
00000000
00000000
00000000
00000000
00000000
00000000
00001000
00000000
00000000
00000000
00000000
00000000
00000000
00000000
,
00000010
00000000
00010000
00000000
00100000
00000000
00001000
00000000
00000100
00000000
00001000
00000000
,
00100000
00000000
00000000
00000000
00000000
00000000
01000000
00000000
00000000
00000000
00000000
00000000
00010000
00000000
00000000
00001000
00000000
00000000
00010000
00000000
00000000
00001000
00000000
00000000
00010000
00000000
00000000
00000000
00000000
00000000
00000000
00000000
00000010
00000000
00000000
00000000
00000000
00000000
00000000
00000000
00000100
00000000
00000000
00000000
00000000
00000000
00000000
00000000
,
00001000
00000000
00000000
00000000
00000000
00000000
00010000
00000000
00000000
00000000
00000000
00000000
00001000
00000000
00000000
01000000
00000000
00000000
00001000
00000000
00000000
01000000
00000000
00000000
00001000
00000000
00000000
00000000
00000000
00000000
00000000
00000000
00000100
00000000
00000000
00000000
00000000
00000000
00000000
00000000
00001000
00000000
00000000
00000000
00000000
00000000
00000000
00000000
,
00010000
00000000
00000000
00000000
00000000
00000000
00001000
00000000
00000000
00000000
00000000
00000000
01000000
00000000
00000000
00001000
00000000
00000000
01000000
00000000
00000000
00001000
00000000
00000000
00010000
00000000
00000000
00000000
00000000
00000000
00000000
00000000
00001000
00000000
00000000
00000000
00000000
00000000
00000000
00000000
00000100
00000000
00000000
00000000
00000000
00000000
00000000
00000000
,
00000010
00000000
00010000
00000000
01000000
00000000
00100000
00000000
00001000
00000000
00000100
00000000
,
00000010
00000000
00000000
00000000
00000010
00000000
00000000
00000000
00000000
00000000
00000000
00000000
00001000
00000001
00000010
00000100
,
00001000
00000000
00000000
00000000
00001000
00000000
00000000
00000000
00000000
00000000
00000000
00000000
00000010
00010000
00001000
00100000
,
00010000
00000000
00000000
00000000
00010000
00000000
00000000
00000000
00000000
00000000
00000000
00000000
10000000
00010000
01000000
00001000
,
00010000
00000000
00011000
00000000
00010010
00000000
00001000
00000000
00011000
00000000
00101000
00000000
,
00001000
00000000
00010000
00000000
00100000
00000000
01000000
00000000
00100000
00000000
10000000
00000000
00010000
00100000
00010000
00100000
,
00001000
00000000
00010000
00000000
00001000
00000000
00000100
00000000
00000001
00000000
00001000
00000000
00000100
00000010
00000100
00000010
,
00000001
00000000
00000000
00001000
00000000
00000000
00000010
00000000
00000000
00001000
00000000
00000000
00000010
00000000
00000000
00010000
00000000
00000000
00001000
00000000
00000000
00100000
00000000
00000000
00001000
00000000
00000000
00000000
00000000
00000000
00000000
00000000
00001000
00000000
00000000
00000000
00000000
00000000
00000000
00000000
00001000
00000000
00000000
00000000
00000000
00000000
00000000
00000000
,
00010000
00000000
00010000
00000000
00001000
00010000
00011000
00000000
,
00001000
00000000
00000000
00000000
00000000
00000000
00010000
00000000
00000000
00000000
00000000
00000000
00100000
00000000
00000000
10000000
00000000
00000000
00010000
00000000
00000000
10000000
00000000
00000000
01000000
00000000
00000000
00000000
00000000
00000000
00000000
00000000
00100000
00000000
00000000
00000000
00000000
00000000
00000000
00000000
00001000
00000000
00000000
00000000
00000000
00000000
00000000
00000000
,
00010000
00000000
00000000
00000000
00000000
00000000
00001000
00000000
00000000
00000000
00000000
00000000
00000100
00000000
00000000
00000001
00000000
00000000
00001000
00000000
00000000
00000001
00000000
00000000
00000010
00000000
00000000
00000000
00000000
00000000
00000000
00000000
00000100
00000000
00000000
00000000
00000000
00000000
00000000
00000000
00001000
00000000
00000000
00000000
00000000
00000000
00000000
00000000
,
00000001
00000000
00000000
00000000
00000000
00000000
00000100
00000000
00000000
00000000
00000000
00000000
00001000
00000000
00000000
00010000
00000000
00000000
00001000
00000000
00000000
00010000
00000000
00000000
00001000
00000000
00000000
00000000
00000000
00000000
00000000
00000000
01000000
00000000
00000000
00000000
00000000
00000000
00000000
00000000
00001000
00000000
00000000
00000000
00000000
00000000
00000000
00000000
,
00011000
00000000
00001000
00000000
00010000
00000000
00110000
00000000
00100000
00000000
10000000
00000000
,
10010000
00000000
00000000
00000000
00000000
00000000
10000000
00000000
00000000
00000000
00000000
00000000
00010000
00000000
00000000
00100000
00000000
00000000
00001000
00000000
00000000
00010000
00000000
00000000
00001000
00000000
00000000
00000000
00000000
00000000
00000000
00000000
00000100
00000000
00000000
00000000
00000000
00000000
00000000
00000000
00000001
00000000
00000000
00000000
00000000
00000000
00000000
00000000
,
00001000
00000000
00000000
00000000
00000000
00000000
00000010
00000000
00000000
00000000
00000000
00000000
00000100
00000000
00000000
00001000
00000000
00000000
00000100
00000000
00000000
00001000
00000000
00000000
00010000
00000000
00000000
00000000
00000000
00000000
00000000
00000000
00100000
00000000
00000000
00000000
00000000
00000000
00000000
00000000
01000000
00000000
00000000
00000000
00000000
00000000
00000000
00000000
,
00100000
00000000
00000000
00000000
00000000
00000000
10000000
00000000
00000000
00000000
00000000
00000000
00010000
00000000
00000000
00100000
00000000
00000000
00010000
00000000
00000000
00100000
00000000
00000000
01000000
00000000
00000000
00000000
00000000
00000000
00000000
00000000
10000000
00000000
00000000
00000000
00000000
00000000
00000000
00000000
00010000
00000000
00000000
00000000
00000000
00000000
00000000
00000000
,
11000000
00000000
01000000
00000000
00010000
00000000
00011000
00000000
00001000
00000000
00000010
00000000
,
00000011
00000000
00000000
00000000
00000000
00000000
00001000
00000000
00000000
00000000
00000000
00000000
00000001
00000000
00000000
00000100
00000000
00000000
00000010
00000000
00000000
00001000
00000000
00000000
00000010
00000000
00000000
00000000
00000000
00000000
00000000
00000000
00001000
00000000
00000000
00000000
00000000
00000000
00000000
00000000
00100000
00000000
00000000
00000000
00000000
00000000
00000000
00000000
,
00010000
00000000
00000000
00000000
00000000
00000000
00001000
00000000
00000000
00000000
00000000
00000000
00100000
00000000
00000000
00010000
00000000
00000000
10000000
00000000
00000000
00100000
00000000
00000000
01000000
00000000
00000000
00000000
00000000
00000000
00000000
00000000
00100000
00000000
00000000
00000000
00000000
00000000
00000000
00000000
00010000
00000000
00000000
00000000
00000000
00000000
00000000
00000000
,
00001000
00000000
00000000
00000000
00000000
00000000
01000000
00000000
00000000
00000000
00000000
00000000
00001000
00000000
00000000
00010000
00000000
00000000
00001000
00000000
00000000
00100000
00000000
00000000
00010000
00000000
00000000
00000000
00000000
00000000
00000000
00000000
10000000
00000000
00000000
00000000
00000000
00000000
00000000
00000000
00010000
00000000
00000000
00000000
00000000
00000000
00000000
00000000
,
11000000
00000000
01000000
00000000
00010000
00000000
00011000
00000000
00001000
00000000
00000100
00000000
,
00000101
00000000
00000000
00000000
00000000
00000000
00000001
00000000
00000000
00000000
00000000
00000000
00001000
00000000
00000000
00000001
00000000
00000000
00000100
00000000
00000000
00000010
00000000
00000000
00000100
00000000
00000000
00000000
00000000
00000000
00000000
00000000
00001000
00000000
00000000
00000000
00000000
00000000
00000000
00000000
00010000
00000000
00000000
00000000
00000000
00000000
00000000
00000000
,
00001000
00000000
00000000
00000000
00000000
00000000
01000000
00000000
00000000
00000000
00000000
00000000
00010000
00000000
00000000
10000000
00000000
00000000
00100000
00000000
00000000
01000000
00000000
00000000
00010000
00000000
00000000
00000000
00000000
00000000
00000000
00000000
00100000
00000000
00000000
00000000
00000000
00000000
00000000
00000000
01000000
00000000
00000000
00000000
00000000
00000000
00000000
00000000
,
00010000
00000000
00000000
00001000
00000000
00000000
00010000
00000000
00000000
00001000
00000000
00000000
00000100
00000000
00000000
00000010
00000000
00000000
00000100
00000000
00000000
00000010
00000000
00000000
00001000
00000000
00000000
00000000
00000000
00000000
00000000
00000000
00000001
00000000
00000000
00000000
00000000
00000000
00000000
00000000
00000010
00000000
00000000
00000000
00000000
00000000
00000000
00000000
,
00001000
00000000
00010000
00000000
01000000
00000000
10000000
00000000
00100000
00000000
00010000
00000000
,
00011000
00000000
00000000
00000000
;
