#VERSION:0.83;
#TITLE:ANCHOR;
#ARTIST:BEMANI Sound Team "HuΣeR Vs. SYUNN";
#ARTISTTRANSLIT:HuMeR Vs. SYUNN;
#GENRE:STYLISH CROSSOVER;
#BANNER:ANCHOR.png;
#BACKGROUND:ANCHOR-bg.png;
#CDTITLE:./CDTitles/bm IIDX 25 CANNON BALLERS.png;
#MUSIC:ANCHOR.ogg;
#SAMPLESTART:98.654;
#SAMPLELENGTH:15;
#DISPLAYBPM:90:360;
#BPMS:0=90,4=180,64=90,66=180,94=90,95.5=180,96=90,110=180,114=360,178=180,238=90,239=360,241=180,270=90,271.5=180,272=720,274=360,275=180,276=360,400=180;
#STOPS:95.5=0.042,95.625=0.042,95.75=0.041,95.875=0.042,271.5=0.041,271.625=0.042,271.75=0.042,271.875=0.042;
#TIMESIGNATURES:0=4=4,64=2=4,66=4=4,94=2=4,96=4=4,108=6=4,114=4=4,270=2=4,272=8=4,280=4=4;
#BGSTAGE:33;

//--------------- dance-single - Fred-104 ----------------
#NOTEDATA:;
#STEPSTYPE:dance-single;
#DESCRIPTION:Fred-104;
#DIFFICULTY:Beginner;
#METER:8;
#CREDIT:Fred-104;
#NOTES:
0000
0000
0000
0000
,
0000
0000
0000
0000
,
0000
0000
0000
0000
,
1000
0000
0000
1001
0000
0000
0000
0000
,
0001
0000
0000
1001
0000
0000
0000
0000
,
1000
0000
0000
1100
0000
0000
0000
0000
,
0001
0000
0000
0101
0000
0000
0000
0000
,
1000
0000
0000
1010
0000
0000
0000
0000
,
0001
0000
0000
0011
0000
0000
0000
0000
,
1000
1000
0100
0000
,
0001
0001
0100
0000
,
1000
0001
1000
0000
,
0001
1000
1001
0000
,
0001
0001
0100
0100
,
1000
1000
0010
0010
,
0001
0000
1000
0000
,
0002
0000
2000
3003
0001
0000
0001
0000
,
0010
0010
1000
1000
,
0100
0100
0001
0001
,
1000
1000
0100
0100
,
0010
0001
0010
0000
0001
0000
0100
0000
,
0010
1000
0001
0010
,
0100
1000
0001
0000
,
1000
0000
2002
0000
,
3003
2000
3020
2030
,
3001
0000
0010
0000
0100
0100
1000
0000
,
1001
0000
0001
0000
1000
1000
0001
0001
,
0100
0010
1000
0010
0110
0000
0000
0000
,
0110
0000
1001
0000
,
0001
0000
1000
0000
,
1000
0000
0100
0010
,
0100
0000
0010
0000
,
0001
0000
1000
0000
,
0010
0000
1000
0000
,
1000
0000
0001
0000
,
0001
0000
1000
0000
,
1000
0000
1001
0000
,
0000
0000
0001
0000
,
0010
0000
0100
0000
,
0001
0000
0100
0000
,
1000
0000
0001
0000
,
0010
0000
0100
0000
,
1000
0000
0001
0000
,
1000
0000
0010
1000
,
0010
1000
0002
0000
,
1003
0000
0000
2000
0000
0000
0000
0000
,
3010
0001
0020
0000
,
0000
1030
0000
0000
2000
0000
0002
0000
,
0000
3003
1000
0100
,
0001
0100
1000
0000
,
0001
1000
0020
0000
,
2030
3200
0310
0010
,
0011
0000
0001
0100
,
1000
0100
1000
0100
,
0001
0000
1000
0100
,
0001
0100
1000
0001
,
1000
0000
0000
0000
0010
0000
0000
0010
,
0000
1000
0001
0000
,
0010
0100
1000
1000
,
0001
0001
2002
0000
,
0000
3003
0001
0010
,
1000
0010
0001
1000
,
0001
0000
1000
0010
,
0001
0010
1000
0001
,
1000
0000
0001
0001
,
0100
0100
0010
0010
,
1000
1000
0100
0010
,
0001
1000
2002
0000
,
3003
0000
0000
0000
,
1001
0000
1000
0000
,
0010
0000
1000
0000
,
0001
0000
0010
0000
,
0100
0000
0100
0000
,
1000
0000
0001
0000
,
0100
0000
0100
0000
,
0010
0000
0010
0000
,
1001
0000
0000
0000
,
1000
0000
1000
0000
,
0001
0000
0010
0000
,
1000
0000
1000
0000
,
0010
0000
0001
0000
,
0001
0000
1000
0000
,
1001
0000
0000
0000
,
0110
0000
0000
0000
,
0001
0000
0000
1000
,
0000
0000
0010
0000
,
1000
0000
0100
0000
,
0010
0000
0001
0000
,
1000
1000
0100
0000
,
0001
0001
0100
0000
,
1000
0000
1000
0000
,
0001
0000
0001
0000
,
1001
0000
0000
0000
,
1000
0000
0010
0000
,
1000
0000
0001
0000
,
0010
0000
0100
0000
,
1000
0000
0000
1000
,
0000
0000
1000
0000
,
0001
0100
0001
0000
,
1000
0100
1000
0000
,
0001
0000
0000
0011
0000
0000
0000
0000
,
1000
0000
0000
1010
0000
0000
0000
0000
,
0001
0000
0000
0101
0000
0000
0000
0000
,
1000
0000
0000
1100
0000
0000
0000
0000
,
0001
0000
0000
1001
0000
0000
1000
0000
,
0100
0000
0000
0110
0000
0000
0010
0000
,
0001
0000
0000
1001
0000
0000
1000
0000
,
0001
0000
0000
1001
0000
0000
2002
0000
,
3003
0000
0000
0000
;

//--------------- dance-single - Fred-104 ----------------
#NOTEDATA:;
#STEPSTYPE:dance-single;
#DESCRIPTION:Fred-104;
#DIFFICULTY:Easy;
#METER:12;
#CREDIT:Fred-104;
#NOTES:
0000
0000
0000
0000
,
0000
0000
0000
0000
,
0000
0000
0000
0000
,
0000
0000
0000
0000
,
0000
0000
0000
0000
,
1001
0000
0000
0110
0000
1000
0001
0000
,
1001
0000
0000
0110
0000
0001
1000
0000
,
0110
0000
0000
1001
0000
0100
0010
0000
,
0001
1000
0010
0000
1000
0001
0010
0000
,
0100
0000
1000
0001
0000
0100
0001
0000
,
1000
0000
0100
0010
0000
0001
1000
0000
,
0010
0000
0100
0001
0000
0010
0100
0000
,
0010
0001
0100
0000
0010
0000
1001
0000
,
1000
0100
1000
0000
0100
0001
0100
0000
,
1000
0010
1000
0000
0010
0001
0010
0000
,
1000
0100
0010
0000
0001
0100
0010
0000
,
2000
0000
0002
3003
1000
0000
0001
0000
,
0100
1000
0100
0010
,
0100
1000
0100
0010
,
0001
0010
1000
0001
,
0010
0100
1000
0000
0001
0100
1000
0000
,
0100
0010
0001
0000
0010
1000
0001
0000
,
0010
0100
1000
0000
0001
0100
0001
0100
,
0010
0000
1000
0000
0010
0000
1000
0000
0002
0000
0000
0000
2000
0000
0000
3003
,
1001
0000
1000
0000
0001
0000
0010
0100
0010
0100
0010
0000
0001
0000
1000
0000
,
0010
0000
0100
0100
0001
0100
0010
1000
0100
0010
0001
0010
0100
1000
0001
1000
,
0001
0000
0011
0000
0010
0100
1000
0001
1000
0010
1000
0000
0001
0010
0100
0010
,
0100
1100
0001
1000
0200
0000
0010
0000
,
0310
0110
1001
0000
,
0001
0000
1000
0010
,
0001
0010
0100
0000
,
1000
0000
0100
0001
,
1000
0000
0100
0000
,
0100
0000
0010
0001
,
1000
0000
0010
1000
,
0001
0000
0010
0100
,
1000
0000
1001
0000
,
0001
0000
0100
0001
,
0010
0000
0100
0001
,
0100
0000
0010
0001
,
1000
0000
0010
0000
,
1000
0010
0100
0001
,
1000
0000
0100
0010
,
0001
0000
1000
0001
,
1000
0000
1002
0000
,
1003
0000
0010
0200
0000
0000
0000
0000
,
0301
1000
0200
0000
,
0000
0000
0010
0000
0000
0010
0000
0000
0310
0000
0001
0000
2000
0000
0000
0000
,
0000
3000
1001
0002
,
0203
2300
3200
0000
,
0301
0000
0000
1000
0000
0000
0100
0000
0010
0000
0000
0000
0001
0000
0000
0000
,
2000
0000
3020
0000
0130
0010
0100
0000
,
0110
1001
0001
0100
,
1000
0100
0010
0001
,
0010
1000
0100
0010
,
0001
1000
0002
0000
,
0103
0010
0100
0000
0001
0000
0000
1000
,
0000
0000
0100
0010
0001
0000
1000
0000
,
0010
1000
0001
0000
0010
0100
0010
0100
,
1000
0001
1000
0000
2002
0000
0003
0000
,
0000
3000
0001
0010
,
1000
0010
0100
0001
,
0100
1000
0001
0000
1000
0000
0010
0000
,
0001
0010
0100
1000
,
0100
0001
1000
0000
0100
0000
0010
0000
,
0001
1000
0001
0000
0100
0000
0010
0000
,
1000
0001
1000
0000
0001
0010
0001
0010
,
0100
0000
1000
0000
0100
0000
1000
0000
0002
0000
0000
0000
2000
0000
0000
3003
,
2002
0000
0000
3003
,
0001
0000
1000
0000
,
0010
0000
0010
0000
,
1000
0001
1000
0000
,
0100
0000
0100
0000
,
0010
0000
0001
0000
,
1000
0100
1000
0000
,
0001
0100
0001
0000
,
1000
0000
1000
0000
,
0001
0000
0010
0000
,
0100
0000
0001
0000
,
0100
0000
0010
0000
,
0001
0000
1000
0000
,
0010
1000
0010
0000
,
0200
0000
0010
0000
,
0310
0000
0110
0000
,
1001
0000
0000
0001
,
0000
0000
1000
0010
,
0100
0000
0001
0000
,
1000
0100
0010
0000
,
0001
1000
0001
0000
,
0100
0010
0100
0000
,
0001
0000
0010
0000
,
0100
0000
1000
0000
,
1001
0000
0000
0000
,
0001
1000
0010
0000
,
1000
0001
0010
0000
,
0100
1000
0001
0000
,
1000
0100
1000
0010
,
0100
0001
0010
0001
,
1000
0010
0100
0001
,
1000
0001
1000
0000
,
1001
0000
0000
0110
0000
1000
0100
0000
,
1001
0000
0000
0110
0000
0001
0100
0000
,
0110
0000
0000
1010
0000
0001
1000
0000
,
0110
0000
0000
0011
0000
0001
1000
0000
,
1001
0000
0001
0010
0000
0100
1000
0000
,
0110
0000
1000
0010
0000
0100
0001
1000
,
1001
0000
0001
0100
0010
1000
0001
0000
,
0110
0000
1000
0100
0010
0001
2000
0000
,
3000
0000
0000
0000
;

//--------------- dance-single - Fred-104 ----------------
#NOTEDATA:;
#STEPSTYPE:dance-single;
#DESCRIPTION:Fred-104;
#DIFFICULTY:Medium;
#METER:16;
#CREDIT:Fred-104;
#NOTES:
0000
0000
0000
0000
,
0000
0000
0000
0000
,
0000
0000
0000
0000
,
0000
0000
0000
0000
,
0000
0000
0000
0000
,
1010
0000
0000
0101
0000
1000
0100
0000
,
0011
0000
0000
1010
0000
0001
0010
0000
,
1100
0000
0000
1001
0000
0100
0010
0000
,
0110
0100
0001
1001
1000
0001
0010
0000
,
0001
1000
1000
0100
0010
0001
1000
0001
,
1000
0010
0010
0100
0001
0100
1000
0100
,
0001
0010
0100
0100
0010
0001
0100
0010
,
1000
0010
0001
0010
1000
0001
1000
0000
,
0001
1000
0100
0001
0100
0010
1000
0010
,
0100
0001
0100
0010
1000
0010
0001
1000
,
0010
0100
0010
0000
0100
0001
0100
0000
0001
1000
0001
1000
0001
1000
0001
1000
,
0001
0010
0100
0110
1001
0000
1000
0100
,
0010
1000
0010
0001
0100
0010
0001
0010
,
0100
0001
0010
0100
1000
0001
0100
1000
,
0100
0010
0100
0001
1000
0100
0010
0100
,
0001
0100
1000
0000
0001
0100
1000
0100
,
0010
0100
1000
0100
0001
0010
1000
0010
,
0100
0000
0010
0000
1000
0000
0010
0000
0001
0010
0001
0000
1000
0010
1000
0000
,
0001
0100
0001
0100
0001
0100
0001
0100
0001
0000
1001
0000
1000
1000
0002
2003
,
3001
0000
0000
0000
1001
0000
0000
0000
0001
0000
0010
0000
1000
0000
0010
0000
0100
0000
0010
0000
1000
0000
0010
0000
0001
0000
1000
0000
0010
0100
0010
0100
,
0002
0000
0000
0000
1003
0000
1000
0000
0001
0000
0100
0000
1000
0000
0100
0000
0001
0010
0001
0000
1000
0100
1000
0000
0001
1000
0001
1000
0001
1000
0001
1000
,
0001
0010
0100
1000
1001
0000
1000
0001
0010
1000
0010
0100
0010
1000
0010
0001
,
1000
0000
0010
0000
0100
0000
0001
0000
1000
0001
1000
0001
1000
0001
1000
0001
1000
0000
0000
0000
0200
0000
0000
0000
0000
0000
0000
0000
0301
0000
0000
0000
,
0100
0110
1001
0000
,
0001
1000
0100
0010
,
1000
0010
0100
0010
,
1000
0010
0001
0100
,
0010
1000
0001
0000
,
1001
0000
1000
0010
,
0001
0010
0100
1000
,
0100
0010
0001
0010
,
1000
0100
0020
0030
,
0011
0000
0001
0100
,
1000
0100
0020
0030
,
1010
0000
1000
0000
0001
0010
0000
0000
,
0200
0320
0031
0000
,
1001
0000
0010
0000
1000
0000
0001
0010
,
0001
0000
1000
0000
0100
0010
0001
0000
,
0100
0010
1000
0000
0010
0100
0001
0000
,
0010
0100
1000
0000
1002
0000
0000
0000
,
0203
0000
0320
0230
0000
0000
0000
0000
,
0301
1000
0100
1000
0100
0010
0200
0000
0000
0000
0000
0000
,
0000
0000
0320
0000
0000
0032
0000
0000
1003
0000
0010
0100
0020
0000
0000
0000
,
0000
0000
0030
0000
1001
0000
1000
0100
,
1000
0000
0010
0000
0100
0000
0001
0000
2000
0000
0000
0000
0000
0000
3010
1000
,
0001
0000
0000
0010
0000
0000
0100
0000
0020
0000
0000
0000
0000
0000
0000
0000
,
0031
0000
1000
0000
0001
0100
1000
0100
,
0001
1000
1001
0000
0001
0010
1000
0010
,
0100
0000
0000
0010
0000
0000
1000
0000
0000
0010
0000
0000
0001
0000
0010
0000
0100
0000
1000
0000
0001
0000
0010
0000
,
0001
0000
0100
0000
0010
0000
1000
0000
0001
0000
0100
0000
0001
0000
0000
1000
0000
0000
0100
0000
0000
0001
0000
0000
,
0100
0000
0010
0000
0100
0000
1000
0000
0002
0000
0000
0000
0000
0000
1003
0001
,
1000
0010
0100
0001
1000
0100
0010
0012
,
0000
0000
1003
0000
1000
0001
0100
0001
1000
0000
0001
0000
0010
0000
0100
0010
,
0100
0000
0001
0000
0100
0000
1000
0000
0001
0010
0001
0000
1000
0010
1000
0000
,
0001
1000
0001
1000
0001
1000
0001
1000
0001
0000
0000
0000
2002
0000
0000
0000
,
0000
0000
0000
0000
3003
0000
0000
0000
1000
0100
1000
0000
0010
0000
0100
0000
,
0001
0010
0001
0000
0100
0000
0010
0000
1000
0010
1000
0000
0100
0000
0010
0000
,
0001
0100
0001
0000
0010
0000
0100
0000
1000
0001
1000
0000
0010
0000
0100
0000
,
0001
1000
0001
0000
0010
0000
0100
0000
1000
0001
1000
0000
0100
0000
0010
0000
,
0001
1000
0001
0000
0100
0000
0010
0000
1000
0000
0100
0000
0001
0000
0100
0000
,
0010
1000
0010
0001
1000
0010
0001
0010
,
0100
0000
1000
0000
0100
0000
0001
0000
0010
0100
0010
0000
0100
1000
0100
0000
,
1000
0001
1000
0001
1000
0001
1000
0001
0100
0000
0110
0000
1000
1000
0002
2003
,
3002
0000
0000
0003
,
1001
0001
1000
0010
,
0001
0010
0100
0010
,
0001
0010
1000
0100
,
0010
0000
0011
0001
,
1000
0000
0100
0000
0010
0000
0001
0000
0000
1000
0000
0000
,
0002
0203
0320
0230
,
2300
3002
0023
1030
,
1100
0000
0001
0010
,
1000
0010
0100
0010
,
0001
1000
0001
1000
0010
0000
0100
0000
,
0020
2030
3200
0320
,
0031
1000
0010
0001
,
1000
0000
0100
0000
0010
1000
0010
0000
,
0200
0010
0000
0010
,
0310
0000
1001
0000
,
0001
0010
1000
0001
,
0100
1000
0010
1000
,
0100
0000
0010
0000
0001
0000
1000
0010
,
0100
0010
1000
0000
0001
0100
0010
0000
,
0002
0023
0230
2300
,
3200
0320
0032
0023
,
1030
0000
0001
0000
0010
0000
0100
0000
1000
0000
0010
0000
,
0100
0000
0001
0000
1000
0000
0100
0000
0010
0000
0001
0000
,
0100
0010
1000
0001
,
0010
0100
1000
0000
0010
0100
0001
0000
,
1000
0100
1000
0100
0010
0001
0010
0001
,
1000
0010
1000
0010
0100
0000
0001
0000
,
1000
0100
1000
0100
1000
0000
0001
0100
,
0001
0100
0001
0000
1000
0001
1000
0001
,
1000
0000
0001
0010
0100
0000
1000
0010
,
0100
0001
0010
0100
1000
0001
1000
0000
,
1001
0000
0000
0110
0000
0001
1000
0010
,
1010
0000
0000
0101
0000
1000
0100
0010
,
0011
0000
0000
1100
0000
0001
0100
0010
,
0110
0000
0000
0000
0000
0000
1001
0000
0001
1000
0001
1000
0001
0000
0000
0000
,
1100
0100
0010
0101
0100
0010
1001
0000
,
0011
0010
0100
1010
0010
0100
1001
0000
,
1100
0010
0001
0101
0010
1000
1001
0000
,
1001
0000
1000
0100
1000
0000
0001
0100
0001
0000
0000
0000
2002
0000
0000
0000
,
3003
0000
0000
0000
;

//--------------- dance-single - Fred-104 ----------------
#NOTEDATA:;
#STEPSTYPE:dance-single;
#DESCRIPTION:Fred-104;
#DIFFICULTY:Hard;
#METER:18;
#CREDIT:Fred-104;
#NOTES:
0000
0000
0000
0000
,
0000
0000
0000
0000
,
0000
0000
0000
0000
,
0000
0000
0000
0000
,
0000
0000
0000
0000
,
0110
0000
0000
0000
0000
0001
1000
0000
0100
0000
0010
0100
1000
0000
0001
0000
,
0101
0000
0000
1001
1000
0010
0110
0100
,
0101
0000
0000
0000
0000
1000
0100
0000
0010
0000
0001
1000
0010
0000
1000
0000
,
0001
0000
0010
0000
0100
1000
0100
1000
0100
0000
1000
0000
1001
0000
0001
1000
,
0001
0000
0000
0000
1000
0010
1000
0000
0001
0000
0010
0100
1000
0000
0001
0000
,
0100
0000
0010
0000
0100
0000
0001
0000
0010
0000
0100
1000
0001
0000
1000
0000
,
0010
0000
1000
0000
0100
0010
0001
0000
1000
0000
0010
0100
0001
0000
1000
0000
,
0001
0000
0010
0000
0100
0000
0001
0100
0010
0000
1000
0010
0001
0000
1000
0000
,
0001
0100
1000
0100
0010
0100
1000
0100
,
0010
0001
0010
0100
0010
0001
0010
1000
,
0001
0010
0001
0010
0100
1000
0100
1000
0001
0100
0010
1000
0010
0100
0001
1000
,
0001
0000
1000
0000
0010
0000
1001
0000
0110
0000
0000
0000
0001
0010
0100
0000
,
0010
0100
1000
0000
0100
1000
0001
0000
1000
0010
0100
0000
0001
0100
0010
0000
,
1000
0001
0010
0000
0100
1000
0001
0000
1000
0100
0010
0000
1000
0010
0001
0000
,
1000
0010
0001
0000
0010
0100
0001
0000
0010
0100
0001
0000
0100
1000
0001
0000
,
0100
1000
0100
0000
0001
1000
0001
0000
1000
0010
0100
0000
0010
1000
0100
0000
,
0010
0001
0100
0000
0001
0100
0010
0000
0100
0001
0010
0000
0100
1000
0010
0000
,
1000
0001
0100
0000
0010
1000
0001
0000
1000
0100
1000
0100
0010
0001
0010
0001
,
1000
0000
0010
0000
0100
0000
0001
0000
1000
0000
0001
0000
0010
0000
0100
0000
0010
0000
0000
0000
1001
0000
0000
0000
0100
0000
0100
0000
0010
0100
0010
0100
,
0010
0000
0000
0000
1001
0000
0001
0000
1000
0100
1000
0100
0010
0100
0010
0100
1000
0001
1000
0001
1000
0000
0001
0100
0010
0000
1000
0001
0020
0000
0230
0000
,
0320
0000
0000
0000
0001
0000
0031
0000
1000
0010
0100
0001
1000
0010
0100
0001
1000
0100
0010
0001
1000
0100
0010
0001
1000
0001
0100
0010
1000
0001
0100
0010
,
2000
0000
0000
0000
3001
1000
0001
0000
0101
0000
0000
0000
1000
0100
1000
0100
0001
0100
0001
0100
1000
0000
0001
0100
1000
0000
0100
0010
0100
0010
0100
0000
,
0002
0000
2003
0000
3200
0000
0320
0000
0031
1000
0010
0100
0001
0100
0010
1000
0002
0000
0000
0000
1000
0000
0000
0000
0000
0000
0000
0000
1000
0000
0000
0000
,
1003
1001
0110
0000
,
0001
0000
0000
1000
0000
0000
0001
0000
0100
0000
0001
0000
,
1000
0001
0010
0100
2000
0000
3000
0000
,
1001
0000
0001
0000
0100
0010
0001
0000
,
0010
0100
0010
0000
2000
0000
3000
0000
,
0011
0000
1000
0000
0010
0100
0001
0000
,
0010
0100
0001
0100
0010
0001
1000
0001
,
0100
0000
0010
0000
0100
0010
0001
0010
,
0100
0010
1000
0000
2002
0000
3003
0000
,
1000
0000
0100
0000
0010
1000
0010
0100
,
0010
1000
0010
0001
0200
0000
0300
0000
,
1001
0000
0010
0000
0001
1000
0000
0000
,
0020
2030
3002
0003
,
0110
0000
1000
0000
0001
0100
0010
0100
,
0001
0100
0010
0000
1000
0001
0010
0100
,
0001
0100
0010
0100
0001
0100
0010
0100
,
1000
0001
0100
0000
0202
0000
0000
0300
,
2003
0000
3002
0023
0000
0000
0000
0000
,
1030
0010
0100
1000
0001
0100
0020
0000
0000
0000
0000
0000
,
0000
0000
2030
0000
0000
3002
0000
0000
0013
0000
0100
1000
0002
0000
0000
0000
,
0000
0000
0003
0000
1001
0000
0002
2003
,
3020
0000
0032
0000
2003
0000
3200
0000
0320
0000
0000
0000
1030
0000
1000
0100
,
0020
0000
0000
0032
0000
0000
2003
0000
3002
0000
0000
0000
0000
0000
0000
0000
,
0203
0000
0000
0000
0320
0000
0000
0000
0130
0000
0001
1000
0001
0000
0010
0000
,
0100
0000
1100
0000
1000
0010
0100
1000
,
0100
0000
0000
0010
0000
0000
0001
0000
0000
0010
0000
0000
1000
0000
0001
0000
0010
0000
0100
0000
0001
0000
0100
0000
,
0010
0000
0001
0000
1000
0000
0010
0000
0100
0000
0001
0000
1000
0000
0000
0100
0000
0000
0001
0000
0000
0100
0000
0000
,
0010
0000
0100
0000
0001
0000
0100
0000
2000
0000
0000
0000
0000
0000
3001
1000
,
0010
0000
0100
0001
0010
0000
0001
0000
0100
0000
0010
0000
1000
0000
0001
0010
,
0100
0000
1000
0000
0001
1000
0010
1000
0001
0000
0100
0000
0010
0000
1000
0001
,
0020
0000
2030
0000
3020
0000
0032
0000
1003
0100
1000
0010
0100
0001
0010
0001
,
0100
0010
1000
0100
0010
0001
0100
0000
0110
0000
0000
0000
2002
0000
0000
0000
,
0000
0000
0000
0000
3003
0000
0000
0000
0001
0010
0100
0000
1000
0001
1000
0000
,
0010
0100
0001
0000
1000
0100
1000
0100
0010
0000
0001
0000
1000
0010
0100
0000
,
0010
1000
0001
0000
0010
0100
0010
0100
0010
0001
1000
0000
0001
0000
0100
0000
,
0010
1000
0001
0000
0010
0100
1000
0001
0100
0000
0010
0000
1000
0001
0010
0000
,
0100
0010
0001
0000
1000
0000
0001
0000
1000
0100
0010
0000
1000
0010
0001
0000
,
1000
0010
0001
0000
0010
0100
0001
0000
0010
0100
0001
0000
0100
1000
0001
0000
,
0100
0010
1000
0000
0001
0010
0100
0000
1000
0010
1000
0010
0001
0010
0001
0010
,
0100
0000
0001
0000
0100
0000
0001
0000
1000
0000
0100
0000
0010
0000
0001
0000
1000
0000
0000
0000
1001
0000
0000
0000
0100
0000
0100
0000
0010
0100
0010
0100
,
0020
0000
0000
0030
,
1001
0000
1000
0000
0001
1000
0010
0000
,
1000
0000
0001
0010
0100
1000
0001
1000
,
0020
2030
3200
0320
,
0031
0000
0100
0010
0100
0000
1000
0000
,
0001
0000
0010
0000
0100
0000
0010
0000
0000
1000
0000
0000
,
0001
1000
0010
0000
0100
0000
0001
0000
,
2000
0000
3200
0000
0320
0000
0032
0003
,
1001
0000
0000
0000
1000
0010
0100
0000
,
1000
0100
0010
0100
1000
0100
0010
0000
,
1000
0001
0010
0001
1000
0000
0001
0100
,
0020
0032
0023
2030
,
3001
0010
0100
1000
,
0001
0000
0100
0000
0001
1000
0001
0000
,
2000
0001
0000
0001
,
3001
0000
1001
0000
,
1000
0100
0010
1000
,
0010
0001
1000
0001
,
0010
0000
0100
0000
1000
0000
0001
0100
,
0010
0001
0010
0100
0010
0001
0010
0100
,
0020
2030
3002
0023
,
2030
3002
0203
0320
,
0031
0000
1000
0000
0100
0000
0010
0000
0001
0000
0100
0000
,
0010
0000
0100
0000
0001
0000
1000
0000
0100
0000
1000
0000
,
0001
0000
0100
0000
0010
0000
1000
0001
,
0010
0100
0010
1000
0010
0100
0010
0000
,
0001
1000
0100
0000
0001
0100
0010
0000
,
0100
0001
0100
0000
1000
0001
1000
0000
,
0001
0100
0010
0100
1000
0000
0001
0010
,
0100
0010
1000
0000
0001
0010
0100
1000
,
0001
0100
0010
0001
0010
0100
1000
0100
,
0010
0100
1000
0100
0001
0000
1000
0000
,
1001
0000
0000
0000
0000
1000
0100
0000
0010
0000
0010
0100
1000
0000
0001
0000
,
0101
0000
0000
0000
0000
0000
1010
0000
0001
0000
0010
0100
1000
0000
0001
0000
,
0110
0000
0000
0000
0000
1000
0100
0000
0010
0000
0001
1000
0010
0000
0100
0000
,
0101
0000
0000
0000
0000
0000
1001
0000
0001
0010
0100
1000
0001
0000
0000
0000
,
2100
0000
3100
0000
0010
0001
0010
0000
0001
0000
1010
0000
0011
0000
1000
0000
,
1002
0000
0103
0000
0010
1000
0001
0000
0010
0100
0010
0001
0100
0000
0010
0000
,
2010
0000
3001
0000
0010
0100
1000
0000
0001
0000
0100
0010
1000
0000
0001
0000
,
2100
0000
3100
0010
0001
1000
0010
0100
0001
0000
0000
0000
2002
0000
0000
0000
,
3003
0000
0000
0000
;

//--------------- dance-single - Fred-104† ----------------
#NOTEDATA:;
#STEPSTYPE:dance-single;
#DESCRIPTION:Fred-104†;
#DIFFICULTY:Challenge;
#METER:19;
#CREDIT:Fred-104†;
#NOTES:
0000
0000
0000
0000
,
0000
0000
0000
0000
,
0000
0000
0000
0000
,
0000
0000
0000
0000
,
0000
0000
0000
0000
,
0110
0000
0000
0000
0001
1000
1001
0000
0000
0000
1000
0100
0010
0000
0001
0000
,
0011
0000
0000
0000
0001
0000
1001
0000
1000
0000
0010
0100
1000
0000
0100
0000
,
0101
0000
0000
0000
0001
0010
0011
0000
0000
0000
0001
1000
0010
0100
0001
0000
,
1001
0000
0000
0000
0000
0000
0000
0000
1000
0000
0000
0000
0000
0000
0000
0000
0001
0000
0000
0000
0010
0000
0000
0000
0100
0000
0000
0000
1000
0000
0000
0000
0001
0000
0000
0000
0000
0000
0000
0000
1000
0000
0000
0000
0000
0000
0000
0000
0020
0030
0000
0000
0000
0000
0000
0000
0020
0030
0000
0000
0001
0000
0000
0000
,
1000
0000
0001
0000
1000
0000
0100
0000
0001
0100
0010
0100
1000
0000
0001
0000
,
0100
0000
1000
0000
0100
0000
0010
0000
0100
1000
0100
0001
0010
0000
0100
0000
,
1000
0000
0001
0000
0010
1000
0010
0000
0100
0000
0010
1000
0010
0001
0100
0000
,
0001
0000
1000
0000
0010
0000
0100
0001
1000
0100
0001
0100
0010
1000
0010
0001
,
0100
0000
0010
1000
0010
0100
0001
0000
1000
0100
0010
0000
0001
0010
0100
0000
,
1000
0001
0100
0000
0010
1000
0001
0000
0010
0100
1000
0010
0100
0001
1000
0000
,
0001
0100
0010
0100
1000
0100
0010
0100
0001
0010
0100
0010
1000
0010
0100
0010
,
0002
0000
0000
0000
2000
0000
3003
0000
1001
0000
0000
0000
1000
0100
0001
0000
,
1000
0010
0001
0000
1000
0010
0001
0000
1000
0100
0001
0000
0010
0100
1000
0000
,
0010
0100
1000
0000
0001
0010
0100
0000
0001
0010
1000
0010
0100
0010
0002
0000
,
1003
0010
0100
0010
0001
0010
2000
0000
3001
0100
0010
0001
1000
0100
0020
0000
,
1030
0100
0010
1000
0001
0100
0020
0000
0031
1000
0010
0001
0010
0100
1000
0100
,
0010
0100
1000
0100
0010
0001
0010
1000
0001
0010
0100
0001
0100
0010
0100
0001
,
0100
0010
1000
0010
0100
0001
0100
1000
0001
0100
1000
0100
0010
0100
1000
0100
,
0001
0000
0010
0000
1000
0000
0010
0000
0100
0000
0010
0000
1000
0000
0010
0000
0001
0000
0000
0000
1001
0000
0000
0000
1000
0000
1000
0000
0001
1000
0001
1000
,
0001
0000
0100
0000
0010
1000
0001
0000
1000
0100
0010
0100
1000
0100
0010
0100
1000
0001
0100
0001
2000
0000
3100
0010
0001
1000
0001
0010
0001
1000
0010
1000
,
0002
0000
0000
0000
0000
0000
0010
0000
0000
0000
0000
0000
2003
0000
0000
0000
0000
0000
3002
0000
0000
0000
0000
0000
1003
0000
0000
0010
0000
0000
0100
0000
0000
0010
0000
0000
1000
0000
0000
0010
0000
0000
0100
0000
0000
0010
0000
0000
1000
0000
0000
0001
0000
0000
0010
0000
0000
0100
0000
0000
1000
0000
0000
0100
0000
0000
0010
0000
0000
0001
0000
0000
1000
0000
0000
0010
0000
0000
0100
0000
0000
0001
0000
0000
1000
0000
0100
0000
1000
0000
0100
0000
0010
0000
0001
0000
,
2000
0000
3001
0100
0010
1000
0010
0100
0001
1000
0001
0000
1000
0010
0100
0001
1000
0100
0010
1000
0020
0000
0130
0001
0100
1000
0001
0100
0001
1000
0100
0010
,
0002
0000
2003
0000
3020
0000
2030
0000
3001
0010
0100
1000
0001
0010
0100
1000
0002
0000
0000
0000
0100
0000
0000
0000
0000
0000
0000
0000
1003
0000
0000
0000
,
0110
0001
1001
0000
0002
0000
0010
0000
,
1003
0001
0010
0000
0100
1000
0001
1000
,
0100
1000
0010
0100
0020
0000
0001
0000
,
0100
0000
1030
0000
0001
0010
0100
0000
,
1000
0001
0100
0001
2000
0000
3000
0000
,
1001
0000
0101
0000
0100
0010
0001
0010
,
0100
1000
0100
0010
0001
0010
0100
0010
,
0001
0010
1000
0001
1000
0100
0010
0100
,
0001
0100
1000
0001
0200
0000
0300
0000
,
1001
0000
1010
0000
0010
0100
1000
0100
,
0010
0100
1000
0100
0002
0000
0003
0000
,
0110
0000
1001
0000
0001
0010
0100
0000
,
1100
0101
2002
3003
,
1001
0000
1100
0000
0100
0010
1000
0010
,
0100
0010
1000
0010
0001
1000
0010
0001
,
0010
0100
1000
0100
0010
1000
0001
0010
,
0100
0001
0100
0010
0002
0000
0000
0000
,
2003
0000
0001
3002
0000
0000
0000
0003
,
0001
0100
0010
1000
0010
0100
0002
0000
0000
0000
0000
0000
,
0000
0000
2003
0000
0000
0001
0000
0000
3001
0010
1000
0010
0002
0000
0000
0000
,
0000
0000
0003
0000
2001
0000
3002
0203
,
2300
0000
3002
0000
0023
0000
2030
0000
3200
0000
0000
0000
0301
0000
0001
0100
,
2000
0000
0000
3002
0000
0000
0023
0000
0230
0000
0000
0000
0001
0000
0000
0000
,
0320
0000
0000
0000
0000
0000
0032
0000
0000
0000
0000
0000
1003
0000
0000
0001
0100
0010
1000
0000
0000
0100
0000
0000
,
0120
0000
0031
1000
0001
0010
1000
0010
,
0100
0000
0000
0001
0000
0000
0100
0000
0000
1000
0000
0000
0001
0000
1000
0000
0100
0000
0001
0000
1000
0000
0010
0000
,
0100
0000
0010
0000
1000
0000
0001
0000
0100
0000
1000
0000
0001
0000
0000
0100
0000
0000
1000
0000
0000
0001
0000
0000
,
0010
0000
0100
0000
0001
0000
1000
0000
1001
0000
0000
0000
1000
0000
0010
1000
,
0001
0000
0010
0000
0100
0000
1000
0000
0001
0000
0100
0001
1000
0000
0001
0010
,
0100
1000
0001
0000
0100
0010
0001
0010
2000
0000
0100
0000
0001
0000
3001
0100
,
0010
1000
0001
0000
0010
0100
1000
0000
0001
0100
1000
0100
0010
0001
0010
1000
,
0001
0010
1000
0010
0100
0001
0100
0010
0002
0000
0000
0003
2002
0000
0000
0000
,
0000
0000
0000
0000
3003
0000
0000
0000
0001
1000
0010
0000
0001
0010
0100
0000
,
0001
0010
0100
0000
0001
0100
1000
0001
1000
0010
0100
0000
1000
0100
0001
0000
,
1000
0100
0001
0000
0100
0010
0001
1000
0010
0100
1000
0000
0100
0001
1000
0000
,
0100
0010
0001
0000
0100
0010
0001
0010
0100
0010
1000
0000
0100
0010
1000
0000
,
0010
0100
1000
0001
0100
1000
0100
0000
0001
1000
0100
0010
0001
1000
0100
0010
,
0100
0001
0100
0010
0001
1000
0100
1000
0001
0100
0010
1000
0001
0100
0010
0100
,
1000
0100
0010
0001
0010
0100
0001
1000
0001
0010
1000
0010
0100
0001
0100
1000
,
0010
0000
0100
0000
1000
0000
0100
0000
0010
0000
0001
0000
0010
0000
0100
0000
0001
0000
0000
0000
1001
0000
0000
0000
1000
0000
1000
0000
0001
1000
0001
1000
,
0002
0000
0000
0003
,
1000
0100
0010
1000
0010
0100
1000
0010
,
0100
0000
1000
0100
0010
1000
0100
0010
,
0001
1000
0010
1000
0002
0000
0023
0000
,
0230
0001
0010
2300
,
3001
0000
1000
0000
0010
0000
2010
0000
0000
3002
0000
0000
,
0013
0100
0010
0100
0001
0100
0001
0100
,
1000
1100
0011
1001
,
0002
0000
0100
0000
1003
0100
0010
0000
,
0001
1000
0010
0001
0010
0100
0010
0001
,
0010
1000
0100
0001
0100
1000
0001
0100
,
0020
1000
0230
0001
,
0310
1000
1001
0001
,
0010
0100
1000
0000
0010
0100
0001
0000
,
2000
0100
0000
3001
,
0110
0100
2002
3003
,
0101
0000
0100
0001
1000
0000
0100
0010
,
0001
0000
1000
0010
0001
0010
1000
0100
,
0010
0000
0001
1000
0010
0000
1000
0001
,
0010
0100
0001
0100
0010
0100
0001
0100
,
2000
3020
0032
0023
,
0230
2300
3200
0320
,
1030
0000
0100
0000
0010
0000
1000
0000
0010
0000
0001
0000
,
1000
0000
0010
0000
0001
0000
0010
0000
0100
0000
0001
0000
,
1000
0000
0001
0010
0100
0000
1000
0001
,
0100
1000
0100
0010
0100
1000
0100
0001
,
0010
1000
0010
0100
0010
1000
0010
0001
,
1000
0010
0001
0010
0100
1000
0100
0001
,
1000
0010
0100
0010
0001
1000
0100
0010
,
0100
0001
1000
0100
0001
1000
0010
0001
,
1000
0000
0000
0010
0000
0000
0100
0000
0001
0000
0100
0000
0001
0000
0000
1000
0000
0000
0100
0000
0010
0000
0100
0000
,
0010
0001
1000
0010
0100
0001
0100
0000
0000
0010
0000
0000
,
1001
0000
0000
0000
0001
1000
1100
0000
0011
0000
1010
0000
0101
0000
0000
0000
,
1001
0000
0000
0000
1000
0001
1001
0000
0001
0100
0010
0001
1000
0100
0001
0000
,
1001
0000
0000
0000
1000
0100
0110
0000
0001
0010
0100
0010
1000
0010
0002
0003
,
0011
0000
0000
0000
1010
0000
0101
0000
1000
0100
0010
0001
1001
0000
0000
0000
,
1100
0000
0000
0000
0100
0010
0001
0000
0011
0000
1010
0000
0101
0000
1100
0000
,
0110
0000
0000
0000
0001
0100
1000
0000
0100
0010
0100
0001
1000
0000
1100
0000
,
1001
0000
0000
0000
1000
0100
0001
0000
1000
0010
0001
0100
0010
0000
0100
0000
,
1001
0000
1000
0100
0001
0100
1000
0010
0001
0010
1000
0001
2002
0000
0000
0000
,
3003
0000
0000
0000
;

//--------------- dance-double - Fred-104 ----------------
#NOTEDATA:;
#STEPSTYPE:dance-double;
#DESCRIPTION:Fred-104;
#DIFFICULTY:Easy;
#METER:12;
#CREDIT:Fred-104;
#NOTES:
00000000
00000000
00000000
00000000
,
00000000
00000000
00000000
00000000
,
00000000
00000000
00000000
00000000
,
00000000
00000000
00000000
00000000
,
00000000
00000000
00000000
00000000
,
00011000
00000000
00000000
00011000
00000000
00010000
00000010
00000000
,
00001010
00000000
00000000
00000101
00000000
00001000
00000100
00000000
,
00000011
00000000
00000000
00001010
00000000
00000001
00000100
00000000
,
00000001
00000010
00000100
00000000
00010000
00001000
00010000
00000000
,
00001000
00000000
00010000
00100000
00000000
01000000
00010000
00000000
,
10000000
00000000
01000000
00100000
00000000
00001000
00010000
00000000
,
00000100
00000000
00000010
00000001
00000000
00001000
00000010
00000000
,
00010000
00001000
00010000
00000000
00001000
00000000
00011000
00000000
,
00010000
00001000
00010000
00000000
00000010
00001000
00000010
00000000
,
00010000
00001000
00010000
00000000
00000100
00001000
00000100
00000000
,
00010000
00001000
01000000
00000000
00100000
10000000
00010000
00000000
,
20020000
00000000
00000000
30030000
10000000
00000000
00100000
00000000
,
01000000
10000000
01000000
00100000
,
00010000
00001000
00000100
00000010
,
00000001
00000010
00001000
00000001
,
00000010
00000100
00000010
00000000
00000001
00000000
00000100
00000000
,
00001000
00010000
00100000
10000000
,
01000000
00000000
00010000
00000000
00001000
00010000
00000010
00000000
,
00010000
00000000
00001000
00000000
00100000
00000000
00000000
00000000
00001000
00000000
00010000
00000000
00022000
00000000
00000000
00033000
,
00011000
00000000
00001000
00000000
01000000
00000000
00010000
00100000
00010000
00100000
01000000
00000000
10000000
00000000
00100000
00010000
,
00001000
00000000
00020000
00000000
00030100
00001000
00000001
00000100
00000010
00001000
00000100
00001000
00000001
00000100
00000001
00001000
,
00000100
00000000
00000010
00000000
00000001
00000100
00000010
00000100
00001000
00010000
00001000
00000000
01000000
00010000
01000000
00010000
,
00100000
00000000
01000000
00000000
10000000
00010000
10000000
00000000
01000000
00000000
00010000
00000000
00000000
00000000
00001000
00000000
,
00000100
00000101
00001001
00000000
,
00000001
00000000
00000010
00000100
,
00001000
00000100
00010000
00000000
,
00011000
00000000
00001000
00010000
,
00100000
10000000
01000000
00000000
,
01100000
00000000
00100000
00010000
,
10000000
00000000
00100000
10000000
,
01000000
00000000
00010000
00001000
,
00010000
00000000
00011000
00000000
,
00010000
00000000
00000100
00000010
,
00000001
00000000
00001000
00000000
,
00001001
00000000
00000001
00001000
,
00000010
00000000
00010000
00001000
,
00100000
00000000
00010000
00100000
,
01000000
00000000
10000000
00100000
,
00010000
00001000
00010000
00100000
,
10000000
00000000
10020000
00000000
,
20030000
00000000
31000000
00200000
00000000
00000000
00000000
00000000
,
00302000
00023000
00030200
00000000
,
00000000
00000000
00000320
00000000
00000000
00000032
00000000
00000000
00001003
00000000
00000001
00000000
00000200
00000000
00000000
00000000
,
00000000
00000300
00000110
00000001
,
00000020
00000230
00020300
00000000
,
00031000
00000000
00000000
00010000
00000000
00000000
01000000
00000000
10000000
00000000
00000000
00000000
00100000
00000000
00000000
00000000
,
00020000
00000000
00032000
00000000
00013000
00000100
00010000
00000000
,
00001000
00011000
00010000
00001000
,
00000100
00000010
00000001
00000010
,
00000100
00000010
00001000
00000001
,
00000010
00001000
00020000
00000000
,
00031000
01000000
00001000
00000000
01000000
00000000
00001000
00010000
,
00000000
00000100
00010000
00000000
00001000
00000000
00000100
00000000
,
00000001
00000010
00000100
00000000
00010000
00001000
01000000
00000000
,
00010000
00100000
01000000
00000000
20020000
00000000
30000000
00000000
,
00000000
00030000
10000000
00100000
,
00010000
00001000
00010000
01000000
,
00010000
00001000
00010000
00000000
00001000
00000000
00000100
00000000
,
00000001
00000010
00000100
00010000
,
00001000
00010000
00001000
00000000
00010000
00100000
01000000
00000000
,
00010000
00000000
10000000
00000000
01000000
00100000
00001000
00000000
,
00010000
00000000
00000010
00000000
00001000
00000001
00000010
00000000
,
00000100
00000000
00010000
00000000
00001000
00000000
00000000
00000000
00010000
00000000
00001000
00000000
00022000
00000000
00000000
00033000
,
00022000
00000000
00000000
00033000
,
00001000
00000000
00010000
00000000
,
01000000
00000000
00100000
00000000
,
10000000
00000000
00100000
00000000
,
00001000
00000000
00001000
00000000
,
00010000
00000000
00000100
00000000
,
00000010
00000001
00001000
00000000
,
00000010
00010000
00001000
00000000
,
00010000
00000000
00010000
00000000
,
00001000
00000000
00010000
00000000
,
00100000
00000000
10000000
00000000
,
01000000
00100000
00001000
00000000
,
00010000
00000100
00000010
00000000
,
00000001
00001000
00000001
00000000
,
00000100
00001000
00000000
00010000
,
00001000
00000000
00011000
00000000
,
00011000
00000000
00000000
00001000
,
00000000
00000000
01000000
00001000
,
00010000
00000000
00001000
00000000
,
00000100
00000001
00001000
00000000
,
00000100
00000010
00000001
00000000
,
00000100
00000010
00000100
00000000
,
00001000
00000000
00010000
00000000
,
00100000
00000000
10000000
00000000
,
10010000
00000000
00000000
00000000
,
00010000
10000000
00100000
00000000
,
01000000
00001000
00010000
00000000
,
00000100
00000010
00000001
00000000
,
00001000
00000010
00001000
00000001
,
00000010
00000100
00010000
00001000
,
01000000
00010000
10000000
01000000
,
00100000
00001000
00010000
00000000
,
00011000
00000000
00000000
00010010
00000000
00000010
00001000
00000000
,
00000110
00000000
00000000
00001001
00000000
00000001
00000100
00000000
,
00001100
00000000
00000000
00011000
00000000
00001000
01000000
00000000
,
01100000
00000000
00000000
10010000
00000000
10000000
00100000
00000000
,
01100000
00000000
10000000
01000000
00000000
00100000
00001000
00000000
,
00011000
00000000
00010000
00000100
00000000
00001000
00000001
00000000
,
00000110
00000000
00001000
00000001
00000000
00000100
00001000
00000000
,
00011000
00000000
00001000
01000000
00000000
00000000
20020000
00000000
,
30030000
00000000
00000000
00000000
;

//--------------- dance-double - Fred-104 ----------------
#NOTEDATA:;
#STEPSTYPE:dance-double;
#DESCRIPTION:Fred-104;
#DIFFICULTY:Medium;
#METER:16;
#CREDIT:Fred-104;
#NOTES:
00000000
00000000
00000000
00000000
,
00000000
00000000
00000000
00000000
,
00000000
00000000
00000000
00000000
,
00000000
00000000
00000000
00000000
,
00000000
00000000
00000000
00000000
,
10010000
00000000
00000000
11000000
00000000
00100000
00001000
00000000
,
00011000
00000000
00000000
00010010
00000000
00001000
00000100
00000000
,
00011000
00000000
00000000
00110000
00000000
00100000
10000000
00000000
,
00010000
00100000
10000000
00010000
01000000
10000000
00010000
00000000
,
10000000
01000000
00100000
01000000
00010000
00001000
00010000
00000000
,
00000010
00000100
00001000
00000100
00000010
00001000
00000001
00000000
,
00000100
00010000
01000000
00001000
00010000
01000000
00100000
00000000
,
00010000
10000000
00100000
00010000
00001000
00000100
00000001
00000000
,
00001000
00000010
00000001
00000010
00000100
00001000
00010000
00100000
,
01000000
00100000
00010000
00100000
01000000
10000000
01000000
00010000
,
10000000
01000000
10000000
00000000
01000000
00010000
01000000
00000000
00010000
00001000
00010000
00001000
00010000
00001000
00010000
00001000
,
00010000
00001000
00000010
00000011
00000001
00001000
00000100
00000010
,
00001000
00000010
00000001
00001000
00000010
00000100
00001000
00010000
,
00100000
10000000
00010000
00100000
10000000
00100000
01000000
00100000
,
00001000
00010000
00000100
00000010
00000001
00001000
00000010
00010000
,
00100000
01000000
00001000
00000000
00010000
00001000
00000010
00000100
,
00000001
00000100
00010000
00001000
00010000
00100000
01000000
10000000
,
01000000
00000000
00001000
00000000
00010000
00000000
00001000
00000000
00010000
00000100
00010000
00000000
00000100
00001000
00000100
00000000
,
00000010
00000001
00000010
00000001
00000010
00000001
00000010
00000001
00000100
00000000
00001100
00000000
00010000
00010000
00002000
00023000
,
00031000
00000000
00011000
00000000
00010000
00001000
00000100
00000001
00001000
00000100
00000010
00000001
00001000
00000010
00000100
00001000
,
00020000
00000000
00000000
00000000
00031000
00000000
00001000
00000000
00010000
00000000
00100000
00000000
10000000
00000000
00010000
00000000
00100000
01000000
00100000
00000000
00001000
00010000
00001000
00000000
00010000
00001000
00010000
00001000
00010000
00001000
00010000
00001000
,
00010000
00000100
00000010
00000001
00001001
00000000
00000001
00000100
00000010
00000001
00000010
00000100
00001000
00010000
00100000
01000000
,
10000000
00000000
01000000
00000000
00010000
00000000
10000000
00000000
01000000
00100000
01000000
00000000
00100000
00001000
00100000
00000000
00001000
00000000
00000000
00000000
00010000
00000000
00000000
00000000
00000000
00000000
00000000
00000000
00100000
00000000
00000000
00000000
,
10000000
10010000
01100000
00000000
,
10000000
00100000
01000000
10000000
,
01000000
00010000
00001000
00000010
,
00000001
00000000
00000010
00000000
00000100
00000010
00000100
00000000
,
00000010
00001000
00000001
00000000
00002002
00000000
00003003
00000000
,
00000001
00000010
00001000
00010000
,
00001000
00000100
00001000
00010000
,
00100000
00000000
10000000
00000000
01000000
00100000
00010000
00100000
,
00001000
00010000
00001000
00000000
00022000
00000000
00033000
00000000
,
00010000
00001000
00000100
00000010
,
00000001
00000010
00001000
00000000
00000200
00000000
00000300
00000000
,
00001001
00000000
00001000
00000000
00000010
00000001
00000000
00000000
,
00000020
00020030
00031000
00000000
,
00011000
00001000
00010000
00100000
,
10000000
00000000
01000000
00000000
10000000
00100000
10000000
00000000
,
00100000
00010000
00100000
00000000
00010000
00001000
00010000
00000000
,
01000000
10000000
01000000
00000000
20010000
00000000
00000000
00000000
,
30010000
00000000
10000000
00200000
00000000
00000000
00000000
00000000
,
00310000
00001000
00010000
00000100
00001000
00000100
00000020
00000000
00000000
00000000
00000000
00000000
,
00000000
00000000
00000032
00000000
00000000
00000203
00000000
00000000
00001300
00000000
00010000
00001000
00020000
00000000
00000000
00000000
,
00000000
00000000
00030000
00000000
00011000
00000000
00001000
00010000
,
01000000
00000000
00100000
00000000
00010000
00000000
10000000
00000000
00200000
00000000
00000000
00000000
00000000
00000000
01300000
00100000
,
01000000
00000000
00000000
10000000
00000000
00000000
01000000
00000000
00020000
00000000
00000000
00000000
00000000
00000000
00000000
00000000
,
10030000
00000000
01000000
00000000
00010000
00001000
00010000
00000100
,
00000010
00000001
00001000
00000000
00000001
00000100
00001000
00010000
,
00001000
00000000
00000000
00000010
00000000
00000000
00001000
00000000
00000000
00010000
00000000
00000000
00001000
00000000
00010000
00000000
00001000
00000000
00100000
00000000
00001000
00000000
00010000
00000000
,
00000010
00000000
00001000
00000000
00000100
00000000
00000010
00000000
00000001
00000000
00001000
00000000
00000010
00000000
00000000
00000100
00000000
00000000
00001000
00000000
00000000
00010000
00000000
00000000
,
00100000
00000000
01000000
00000000
10000000
00000000
01000000
00000000
00020000
00000000
00000000
00000000
00000000
00000000
00130000
00001000
,
00100000
00001000
00000010
00000100
00010000
00000000
00001000
00000100
,
00000001
00000000
00000010
00000000
00000001
00000100
00000001
00000000
00000100
00000000
00001000
00000000
00010000
00000000
00001000
00010000
,
00001000
00000000
01000000
00000000
00010000
00000000
10000000
00000000
01000000
00100000
01000000
00000000
00100000
00001000
00100000
00000000
,
00001000
00010000
00001000
00010000
00000010
00001000
00000010
00001000
00000001
00000000
00000000
00000000
00002002
00000000
00000000
00000000
,
00000000
00000000
00000000
00000000
00003003
00000000
00000000
00000000
00000001
00000010
00000001
00000000
00001000
00000000
00000010
00000000
,
00000100
00000000
00001000
00000000
00010000
00001000
00010000
00000000
00001000
01000000
00001000
00000000
00100000
00000000
00010000
00000000
,
01000000
00000000
00100000
00000000
00010000
00001000
00010000
00000000
00000100
00001000
00000100
00000000
00000010
00000000
00001000
00000000
,
00010000
00000000
00100000
00000000
01000000
00010000
01000000
00000000
00100000
10000000
00100000
00000000
10000000
00000000
01000000
00000000
,
00010000
00001000
00011000
00000000
00010000
00001000
00000010
00000100
,
00000001
00000100
00010000
00001000
00010000
00100000
01000000
10000000
,
01000000
00000000
00001000
00000000
00010000
00000000
00001000
00000000
00010000
00000100
00010000
00000000
00000100
00001000
00000100
00000000
,
00001000
00000001
00001000
00000001
00001000
00000001
00001000
00000001
00001000
00000000
00000110
00000000
00000001
00000001
00002000
00003002
,
00002003
00000000
00000000
00003000
,
00001001
00000001
00000010
00001000
,
00010000
00001000
00000100
00001000
,
00010000
00100000
10000000
01000000
,
01100000
00000000
00011000
00001000
,
00010000
00000000
00001000
00000000
00000100
00000000
00000010
00000000
00000000
00001000
00000000
00000000
,
00000002
00000023
00000230
00002300
,
00023000
00000000
00230000
00000000
02300000
00000000
23000000
30000000
,
10010000
00000000
00010000
00100000
,
10000000
00100000
00001000
00010000
,
00000010
00001000
00000010
00000000
00000100
00000001
00000100
00000000
,
00000020
00000230
00002300
00023000
,
00031000
00010000
01000000
00100000
,
10000000
00000000
00100000
00000000
01000000
10000000
00010000
00000000
,
02000000
00100000
00000000
03100000
,
01100000
00000000
10010000
00000000
,
10000000
00100000
00010000
00001000
,
00000010
00000001
00001000
00000010
,
00000100
00000000
00001000
00000000
00010000
00000000
00001000
01000000
,
00010000
10000000
01000000
00000000
00100000
00001000
00010000
00000000
,
00002000
00003200
00000320
00020030
,
00030020
00000230
00000302
00002003
,
00003001
00000000
00000010
00000000
00000100
00000000
00001000
00000000
00000100
00000000
00010000
00000000
,
00001000
00000000
00100000
00000000
00010000
00000000
00100000
00000000
01000000
00000000
10000000
00000000
,
00010000
00000000
01000000
00000000
10000000
00000000
01000000
00010000
,
01000000
00000000
00001000
00010000
00000100
00010000
00001000
00000000
,
00010000
00000010
00001000
00000010
00000100
00000000
00000001
00000000
,
00000010
00000100
00001000
00000100
00010000
00000000
00001000
00000000
,
01000000
00010000
01000000
00001000
00010000
00000000
00001000
00100000
,
00010000
00100000
00001000
00000000
00010000
00001000
00010000
00000000
,
00001000
00100000
00010000
00100000
01000000
10000000
01000000
10000000
,
00010000
01000000
00100000
01000000
00010000
00000000
10000000
00000000
,
10010000
00000000
00000000
01100000
00000000
10000000
00100000
00010000
,
00011000
00000000
00000000
00010010
00000000
00010000
00000100
00001000
,
00001001
00000000
00000000
00000110
00000000
00000001
00000010
00001000
,
00011000
00000000
00000000
00000000
00000000
00000000
00011000
00000000
00010000
00001000
00010000
00001000
00010000
00000000
00000000
00000000
,
00001000
00000000
00010000
00000000
00100000
00000000
10000000
00000000
01000000
00000000
00100000
00010000
00100000
00000000
00000000
00000000
,
00001000
00000000
00010000
00000000
00001000
00000000
00000100
00000000
00000001
00000000
00000010
00000100
00000010
00000000
00000000
00000000
,
00000001
00000000
00000100
00000000
00001000
00000000
00010000
00000000
00100000
00000000
01000000
00010000
01000000
00000000
00000000
00000000
,
00010000
00000000
10000000
01000000
10000000
01000000
00100000
00001000
00010000
00000000
00000000
00000000
00022000
00000000
00000000
00000000
,
00033000
00000000
00000000
00000000
;

//--------------- dance-double - Fred-104 ----------------
#NOTEDATA:;
#STEPSTYPE:dance-double;
#DESCRIPTION:Fred-104;
#DIFFICULTY:Hard;
#METER:18;
#CREDIT:Fred-104;
#NOTES:
00000000
00000000
00000000
00000000
,
00000000
00000000
00000000
00000000
,
00000000
00000000
00000000
00000000
,
00000000
00000000
00000000
00000000
,
00000000
00000000
00000000
00000000
,
00001001
00000000
00000000
00000000
00000000
00000001
00000100
00000000
00000010
00000000
00000100
00001000
00010000
00000000
00001000
00000000
,
01001000
00000000
00000000
00011000
00010000
00000100
00000010
00000001
,
00001001
00000000
00000000
00000000
00000000
00000001
00000100
00000000
00000001
00000000
00000010
00000100
00001000
00000000
00000100
00000000
,
00010000
00000000
01000000
00000000
00100000
00010000
10000000
00010000
01000000
00000000
00100000
00000000
00010000
00000000
00001000
00010000
,
00001000
00000000
00000000
00000000
00010000
00001000
00010000
00000000
00000100
00000000
00000010
00000001
00001000
00000000
00000010
00000000
,
00010000
00000000
00001000
00000000
00010000
00000000
00100000
00000000
10000000
00000000
00010000
00100000
01000000
00000000
00010000
00000000
,
00001000
00000000
00010000
00000000
00001000
00000010
00000100
00000000
00001000
00000000
00000001
00000100
00001000
00000000
00010000
00000000
,
00001000
00000000
00000100
00000000
00000010
00000000
00001000
00000001
00000010
00000000
00001000
00010000
01000000
00000000
10000000
00000000
,
00010000
01000000
00100000
00010000
00100000
01000000
10000000
01000000
,
00100000
00010000
00001000
00000100
00000010
00000001
00000010
00000100
,
00000001
00000010
00000100
00001000
00000010
00000100
00001000
00000000
00010000
00100000
01000000
00010000
00100000
01000000
10000000
00000000
,
00010000
10000000
00100000
00011000
00001000
01000000
00100000
00001000
,
00000010
00010000
00001000
00000010
00000100
00010000
00000010
00001000
,
00100000
01000000
00001000
00010000
00001000
01000000
00010000
00000100
,
00000010
00010000
00000100
00001000
00000010
00000100
00001000
00010000
,
01000000
00000000
00100000
00000000
00001000
00000000
00000000
00000000
00010000
00000010
00001000
00000000
00000010
00000100
00000001
00000000
,
00001000
00000100
00000010
00000000
00001000
00010000
01000000
00000000
00100000
00010000
10000000
00000000
00100000
00010000
00001000
00000000
,
00010000
00000100
00001000
00000000
00000100
00000010
00000001
00000000
00001000
00000001
00000010
00000100
00001000
00000010
00010000
00000000
,
00001000
00000000
01000000
00000000
00010000
00000000
00100000
00000000
01000000
00000000
10000000
00000000
00010000
00000000
00000000
00000000
01000000
00000000
00000000
00000000
10010000
00000000
00000000
00000000
10000000
00000000
01000000
00000000
00010000
00001000
00010000
00001000
,
00010000
00000000
00000000
00000000
00011000
00000000
00000000
00000000
00010000
00001000
00010000
00001000
00000100
00000010
00000100
00000010
00001000
00000001
00001000
00000001
00001000
00000000
00000001
00000000
00000010
00000000
00001000
00000000
00100000
00000000
01000000
00000000
,
20000000
00000000
00000000
00000000
30200000
00000000
00320000
00000000
00031000
00010000
00001000
00010000
01000000
00100000
01000000
00100000
00001000
00010000
00001000
00010000
00000010
00001000
00000010
00001000
00000100
00010000
00000100
00010000
00001000
01000000
00001000
01000000
,
00002000
00000000
00000000
00000000
00013000
00001000
00010000
00000000
00011000
00000000
00000000
00000000
00010000
00001000
00010000
00001000
00000100
00000001
00000100
00000001
00000010
00000000
00000100
00000010
00000001
00000000
00000100
00000000
00001000
00010000
00001000
00010000
,
00002000
00000000
00023000
00000000
00230000
00000000
02300000
00000000
03010000
10000000
01000000
00000000
00100000
00010000
00100000
00000000
00001000
00000000
00000000
00000000
00010000
00000000
00000000
00000000
00000100
00000000
00000000
00000000
00000010
00000000
00000000
00000000
,
00000001
00001001
00011000
00000000
,
00001000
00000000
00000000
00010000
00000000
00000000
00001000
00000000
00010000
00000000
00100000
00000000
,
01000000
00100000
10000000
00010000
00200000
00000000
00300000
00000000
,
10010000
10000000
01000000
00010000
,
00001000
00010000
00001000
00010000
00002000
00000000
00003000
00000000
,
00011000
00000000
00010000
00000000
00001000
00000100
00000010
00000000
,
00000100
00000001
00001000
00000001
00000010
00000100
00000001
00000100
,
00000010
00000000
00000001
00000000
00001000
00000010
00000100
00000000
,
00001000
00010000
00001000
00000000
00022000
00000000
00033000
00000000
,
00001000
00000000
01000000
00000000
00100000
00010000
00100000
01000000
,
00100000
00010000
00100000
01000000
00020000
00000000
00030000
00000000
,
10010000
00000000
10000000
00000000
01000000
00100000
00000000
00000000
,
00002000
00023000
00032000
00003000
,
00011000
00000000
00010000
00000000
00001000
00000010
00000001
00000000
,
00001000
00000001
00001000
00000000
00000010
00000100
00001000
00000000
,
00000100
00000010
00000001
00000000
00000010
00000100
00001000
00000000
,
00000100
00000001
00001000
00000000
00002002
00000000
00000000
00003000
,
00002003
00000000
00003200
00000320
00000000
00000000
00000000
00000000
,
00001030
00010000
00001000
00010000
00100000
01000000
00020000
00000000
00000000
00000000
00000000
00000000
,
00000000
00000000
20030000
00000000
00000000
32000000
00000000
00000000
03100000
00000000
00010000
10000000
00020000
00000000
00000000
00000000
,
00000000
00000000
00030000
00000000
10010000
00000000
20000000
30200000
,
00320000
00000000
00032000
00000000
00003200
00000000
00000302
00000000
00002003
00000000
00000000
00000000
00003100
00000000
00000100
00000010
,
00000002
00000000
00000000
00000203
00000000
00000000
00002300
00000000
00023000
00000000
00000000
00000000
00000000
00000000
00000000
00000000
,
00001000
00000000
00000000
00000000
00031000
00000000
00000000
00000000
00010000
00000000
00100000
01000000
00100000
00000000
10000000
00000000
,
00010000
00000000
10010000
00000000
10000000
01000000
00010000
00000100
,
00000010
00000000
00000000
00001000
00000000
00000000
00010000
00000000
00000000
00000100
00000000
00000000
00000010
00000000
00000001
00000000
00001000
00000000
00000010
00000000
00000100
00000000
00001000
00000000
,
00010000
00000000
00100000
00000000
10000000
00000000
00100000
00000000
00010000
00000000
00001000
00000000
00010000
00000000
00000000
00001000
00000000
00000000
00000010
00000000
00000000
00000100
00000000
00000000
,
00001000
00000000
00000001
00000000
00000100
00000000
00001000
00000000
00020000
00000000
00000000
00000000
00000000
00000000
00031000
00100000
,
00010000
00100000
01000000
10000000
00020000
01030000
10000000
02000000
,
03100000
00000000
10000000
00000000
01000000
00100000
00010000
00100000
00001000
00000000
00010000
00000000
00000100
00000000
00000010
00000001
,
00001000
00000000
00000010
00000000
00010000
00000000
00001000
00000000
00010000
00000100
00000010
00000001
00001000
00000010
00000100
00000000
,
00001000
00010000
00100000
01000000
00010000
10000000
01000000
00000000
01100000
00000000
00000000
00000000
00022000
00000000
00000000
00000000
,
00000000
00000000
00033000
00000000
00001000
00010000
01000000
00100000
,
00001000
00000010
00000100
00000010
00001000
00010000
00100000
01000000
,
00001000
00100000
01000000
00010000
00001000
01000000
00010000
00000100
,
00000010
00001000
00100000
01000000
00001000
00010000
00000100
00001000
,
00010000
00000000
00100000
00000000
00001000
00000000
00000000
00000000
00010000
00000100
00001000
00000010
00000100
00000001
00000010
00000000
,
00000001
00000100
00000010
00001000
00000100
00010000
00001000
00000000
00100000
00010000
01000000
00100000
10000000
01000000
10000000
00000000
,
00100000
01000000
00010000
00100000
00001000
00010000
00001000
00000000
00010000
00001000
00000100
00000010
00000001
00000010
00001000
00000001
,
00000010
00000000
00000100
00000000
00001000
00000000
00000001
00000000
00000100
00000000
00000010
00000000
00000100
00000000
00001000
00000000
00010000
00000000
00000000
00000000
00011000
00000000
00000000
00000000
01000000
00000000
01000000
00000000
00010000
10000000
00010000
10000000
,
00020000
00000000
00000000
00030000
,
10010000
00000000
10000000
00000000
01000000
00100000
00001000
00000000
,
00010000
00000000
00001000
00000100
00000010
00000100
00000001
00001000
,
00000200
00020300
02030000
23000000
,
30010000
01000000
00100000
00010000
,
00001000
00000000
00010000
00000000
01000000
00000000
10000000
00000000
00000000
00010000
00000000
00000000
,
10000000
01000000
00100000
00000000
00001000
00000000
00010000
00000000
,
00002000
00000000
00003200
00000000
00000302
00000000
00000023
00000030
,
00000110
00000000
00000000
00000000
00001000
00000001
00000100
00000000
,
00000010
00000001
00000010
00000100
00000010
00000001
00000010
00000000
,
00001000
00000001
00000010
00000100
00010000
00000000
00001000
01000000
,
00200000
00320000
00032000
00023000
,
01030000
00100000
00010000
10000000
,
00100000
00000000
00010000
00000000
00001000
00010000
00001000
00000000
,
00020000
00001000
00000000
00001000
,
00031000
00000000
00011000
00000000
,
00001000
00100000
01000000
00010000
,
01000000
10000000
00010000
01000000
,
00100000
00000000
00010000
00000000
00100000
00000000
01000000
00100000
,
10000000
01000000
00100000
10000000
00100000
01000000
10000000
00000000
,
00020000
02030000
03002000
00003200
,
00000320
00020030
00032000
00003020
,
00000130
00000000
00001000
00000000
00000001
00000000
00000100
00000000
00001000
00000000
00010000
00000000
,
00001000
00000000
00000010
00000000
00001000
00000000
00010000
00000000
00100000
00000000
00010000
00000000
,
00001000
00000000
01000000
00000000
00010000
00000000
00100000
01000000
,
00010000
01000000
00100000
01000000
00010000
01000000
10000000
00000000
,
00010000
01000000
00100000
00000000
00010000
00001000
00000100
00000000
,
00000010
00000001
00000010
00000000
00000100
00000001
00001000
00000000
,
00000001
00000010
00000100
00000010
00001000
00000000
00010000
01000000
,
00100000
01000000
10000000
00000000
00010000
10000000
00010000
10000000
,
00010000
01000000
00100000
00010000
00100000
01000000
10000000
01000000
,
00010000
10000000
01000000
00010000
,
00011000
00000000
00000000
00000000
00000000
00010000
00000100
00000000
00000000
00000000
00000010
00000100
00001000
00000000
00000001
00000000
,
00000101
00000000
00000000
00000000
00000000
00000000
00001010
00000000
00000001
00000010
00000100
00000000
00010000
00000000
00001000
00000000
,
00011000
00000000
00000000
00000000
00000000
00001000
01000000
00000000
00010000
00000000
00100000
10000000
00100000
00000000
00001000
00000000
,
00011000
00000000
00000000
00000000
00000000
00000000
00011000
00000000
00010000
00001000
00010000
00001000
00010000
00000000
00000000
00000000
,
00001000
00000000
00010000
00000000
01000000
00100000
01000000
00000000
10000000
00000000
00010000
00000000
01100000
00000000
00010000
00000000
,
10000000
00000000
00100000
00000000
00010000
00000000
00001000
00000000
00010000
00000100
00000010
00000100
00001000
00000000
00000010
00000000
,
00010000
00000000
00001000
00000000
00000100
00000010
00001000
00000000
00000001
00000000
00000100
00000010
00000001
00000000
00000010
00000000
,
00000100
00000000
00000001
00000010
00000100
00010000
00001000
00100000
01000000
10000000
00000000
10000000
00020000
00000000
00000000
00000000
,
00030000
00000000
00000000
00000000
;

//--------------- dance-double - Fred-104† ----------------
#NOTEDATA:;
#STEPSTYPE:dance-double;
#DESCRIPTION:Fred-104†;
#DIFFICULTY:Challenge;
#METER:19;
#CREDIT:Fred-104†;
#NOTES:
00000000
00000000
00000000
00000000
,
00000000
00000000
00000000
00000000
,
00000000
00000000
00000000
00000000
,
00000000
00000000
00000000
00000000
,
00000000
00000000
00000000
00000000
,
00011000
00000000
00000000
00000000
00010000
00001000
00011000
00000000
00000000
00000000
00001000
00010000
01000000
00000000
00100000
00000000
,
00110000
00000000
00000000
00000000
00010000
00000000
10010000
00000000
10000000
00000000
01000000
00100000
10000000
00000000
00100000
00000000
,
00110000
00000000
00000000
00000000
10000000
00100000
10100000
00000000
00000000
00000000
10000000
01000000
00010000
00001000
00010000
00000000
,
00001000
00000000
00000000
00000000
00000000
00000000
00000000
00000000
00010000
00000000
00000000
00000000
00000000
00000000
00000000
00000000
00000100
00000000
00000000
00000000
00001000
00000000
00000000
00000000
00000001
00000000
00000000
00000000
00001000
00000000
00000000
00000000
00000010
00000000
00000000
00000000
00000000
00000000
00000000
00000000
00010000
00000000
00000000
00000000
00000000
00000000
00000000
00000000
00002000
00003000
00000000
00000000
00000000
00000000
00000000
00000000
00002000
00003000
00000000
00000000
00000100
00000000
00000000
00000000
,
00010000
00000000
00000000
00000000
00011000
00000000
00010000
00000000
00001000
00000010
00000100
00000010
00000001
00000000
00001000
00000000
,
00001010
00000000
00000000
00000000
00000001
00000000
00000010
00000000
00000100
00000010
00001000
00010000
00001000
00000000
01000000
00000000
,
01010000
00000000
10000000
00000000
01000000
00100000
00010000
00000000
10000000
00000000
00100000
01000000
00100000
00010000
00001000
00000000
,
00010000
00000000
00001000
00000000
00000100
00000000
00000010
00000001
00000010
00000100
00001000
00000100
00000001
00001000
00000100
00000000
,
00001000
00000000
00000001
00000010
00000100
00001000
00000100
00000000
00010000
00001000
00010000
00000000
00001000
01000000
00001000
00000000
,
00010000
00100000
10000000
00000000
00010000
00100000
01000000
00000000
00010000
00000100
00000010
00000001
00001000
00000010
00010000
00000000
,
00001000
00010000
00100000
01000000
10000000
01000000
00010000
10000000
01000000
00010000
01000000
00100000
10000000
00100000
00010000
00100000
,
00002000
00000000
00000000
00000000
00020000
00000000
00033000
00000000
00011000
00000000
00000000
00000000
00010000
00001000
00000100
00000000
,
00000010
00000001
00000010
00000000
00001000
00000001
00000010
00000000
00000100
00000010
00001000
00000000
00010000
01000000
10000000
00000000
,
01000000
00100000
00001000
00000000
00010000
00001000
00010000
00000000
00001000
00010000
00100000
01000000
00100000
00010000
00002000
00000000
,
00013000
00001000
00000010
00000100
00000010
00001000
00020000
00000000
00031000
00010000
01000000
00100000
01000000
00010000
00002000
00000000
,
00013000
00001000
00000100
00000010
00000100
00001000
00020000
00000000
00031000
00010000
01000000
00100000
10000000
00100000
00020000
00000000
,
10030000
00100000
00010000
00100000
01000000
10000000
02000000
00000000
03010000
10000000
01000000
00010000
00001000
00000010
00000002
00000000
,
00001003
00000010
00000100
00001000
00000100
00000001
00002000
00000000
00003001
00001000
00000100
00000001
00000100
00000010
00001000
00010000
,
01000000
00000000
00100000
00000000
10000000
00000000
00100000
00000000
00010000
00000000
10000000
00000000
00100000
00000000
00010000
00000000
00001000
00000000
00000000
00000000
00011000
00000000
00000000
00000000
00010000
00000000
00010000
00000000
00001000
00010000
00001000
00010000
,
00001000
00000000
01000000
00000000
00010000
00000000
01000000
00000000
00001000
00010000
00001000
00010000
00000010
00010000
00000010
00010000
00001000
00100000
00001000
00100000
00002000
00000000
00013000
00001000
00000100
00000010
00000100
00000010
00001000
00000001
00001000
00000001
,
00000020
00000000
00002030
00000000
00203000
00000000
00320000
00000000
00130000
01000000
00100000
01000000
10000000
00010000
10000000
00010000
01000000
00100000
01000000
00100000
00010000
00001000
00010000
00001000
00000100
00000010
00000100
00000010
00001000
00000001
00001000
00000001
,
00002000
00000000
00003100
00000010
00001000
00010000
00001000
00010000
01000000
00100000
01000000
00000000
10000000
00010000
10000000
00010000
00100000
00001000
00100000
00001000
00020000
00000000
00031000
00000100
00000010
00010000
00000010
00010000
00001000
00100000
00001000
00010000
,
02000000
00000000
03200000
00000000
00320000
00000000
20030000
00000000
30010000
01000000
00001000
00010000
00000100
00001000
00000100
00001000
00000200
00000000
00000000
00000000
00000320
00000000
00000000
00000000
00000000
00000000
00000000
00000000
00000031
00000000
00000000
00000000
,
00000100
00011000
00001000
00010000
,
01000000
00100000
00001000
00000000
00010000
00001000
00000100
00000010
,
00000001
00000010
00000100
00000010
00002000
00000000
00023000
00000000
,
02030000
00000000
03002000
00000000
00013000
00001000
00100000
00000000
,
01000000
10000000
00010000
01000000
00020000
00000000
00030000
00000000
,
10010000
00000000
10000000
00000000
00100000
01000000
10000000
01000000
,
00100000
00010000
00001000
00000100
00000010
00000001
00000010
00000100
,
00001000
00000100
00000010
00001000
00000001
00000010
00000100
00010000
,
00001000
01000000
00010000
10000000
00020000
00000000
00030000
00000000
,
10010000
00000000
00010000
00000000
10000000
01000000
00100000
10000000
,
00100000
01000000
00010000
01000000
20000000
00000000
30000000
00000000
,
11000000
00000000
01000000
00000000
00100000
00001000
00010000
00000000
,
00001000
00010000
00022000
00033000
,
00010010
00000000
00010000
00000000
00001000
00010000
01000000
00100000
,
10000000
00100000
01000000
00100000
00010000
10000000
00100000
01000000
,
00100000
00010000
00001000
00010000
00000100
00000010
00000001
00001000
,
00000010
00010000
00001000
00000000
00022000
00000000
00000000
00033000
,
00020000
00000000
00031000
00002000
00000000
00000000
00000000
00000000
,
00013000
01000000
00100000
10000000
00100000
00010000
02000000
00000000
00000000
00000000
00000000
00000000
,
00000000
00000000
03200000
00000000
00000000
02300000
00000000
00000000
03010000
10000000
01000000
00100000
00002000
00000000
00000000
00000000
,
00000000
00000000
00003000
00000000
00002000
00000000
00023000
00032000
,
00003200
00000000
00000320
00000000
00002030
00000000
00003002
00000000
00000023
00000000
00000000
00000000
00002030
00000000
00013000
00001000
,
00020000
00000000
00000000
00032000
00000000
00000000
02003000
00000000
03020000
00000000
00000000
00000000
10000000
00000000
00000000
00000000
,
00230000
00000000
00000000
00000000
02300000
00000000
00000000
00000000
13000000
00000000
00010000
00100000
00010000
00100000
00001000
00000000
,
00021000
00000000
00031000
00010000
00001000
00010000
01000000
00100000
,
10000000
00000000
00000000
00100000
00000000
00000000
00001000
00000000
00000000
00010000
00000000
00000000
00001000
00000000
00010000
00000000
00100000
00000000
01000000
00000000
00010000
00000000
00100000
00000000
,
10000000
00000000
00100000
00000000
00010000
00000000
01000000
00000000
00100000
00000000
00010000
00000000
00001000
00000000
00000000
00010000
00000000
00000000
00000100
00000000
00000000
00000001
00000000
00000000
,
00001000
00000000
00000010
00000000
00000100
00000000
00001000
00000000
00001001
00000000
00000000
00000000
00000001
00000000
00000100
00000010
,
00000100
00001000
00010000
00001000
02000000
03010000
10000000
02000000
,
03100000
00000000
00001000
00000000
00010000
00000100
00001000
00000100
00000010
00000000
00000001
00000100
00000010
00000000
00000001
00000010
,
00000100
00000010
00002000
00000000
00003001
00000010
00000200
00000000
00001300
00000010
00000001
00000010
00000100
00001000
00010000
00100000
,
01000000
10000000
01000000
00010000
10000000
01000000
00010000
00001000
00020000
00000000
00000000
00030000
00022000
00000000
00000000
00000000
,
00000000
00000000
00000000
00000000
00033000
00000000
00000000
00000000
00010000
00000100
00001000
00000000
00000100
00000010
00000001
00000000
,
00001000
00000010
00010000
00000000
00100000
01000000
00020000
00000000
10030000
00010000
00100000
00000000
01000000
00100000
00001000
00000000
,
00010000
00000100
00000010
00000000
00000001
00001000
00000020
00000000
00010030
00001000
00100000
00000000
00010000
10000000
00100000
00000000
,
01000000
00100000
00010000
00000000
00001000
00000100
00000002
00000000
00001003
00000100
00000010
00000000
00000001
00000010
00000100
00000000
,
00010000
00001000
01000000
00000000
00100000
10000000
00020000
00000000
10030000
01000000
00010000
00001000
00010000
00100000
00020000
00000000
,
00031000
00010000
01000000
00010000
00001000
00000010
00002000
00000000
00013000
00001000
00000100
00001000
00010000
00001000
00000020
00000000
,
00001030
00010000
00001000
00000100
00000001
00001000
00000002
00000000
00001003
00000100
00000001
00000100
00000010
00001000
00010000
00001000
,
00000010
00000000
00001000
00000000
00010000
00000000
01000000
00000000
00100000
00000000
10000000
00000000
00100000
00000000
00010000
00000000
10000000
00000000
00000000
00000000
10010000
00000000
00000000
00000000
00001000
00000000
00001000
00000000
00010000
00001000
00010000
00001000
,
00020000
00000000
00000000
00000000
00000000
00000000
00000000
00030000
,
00001000
00010000
00100000
00010000
00001000
01000000
00010000
01000000
,
00001000
00000000
00100000
00010000
10000000
00100000
01000000
00000000
,
00010000
10000000
01000000
00010000
00002000
00000000
00003200
00000000
,
00000302
00000023
00000230
00020300
,
00031000
00000000
01000000
00000000
00010000
00000000
20010000
00000000
00000000
30010000
00000000
00000000
,
10000000
00100000
00010000
00000000
00100000
01000000
00010000
00000000
,
00200000
00000000
02300000
00000000
03020000
00000000
00032000
00003000
,
00011000
00000000
00010000
00000000
00001000
00000100
00000010
00000000
,
00001000
00000001
00000010
00000100
00000010
00001000
00010000
01000000
,
00010000
00001000
00010000
01000000
00100000
10000000
00200000
00000000
,
00320000
20030000
30200000
00320000
,
00031000
00010000
00011000
00001000
,
00010000
00000100
00001000
00000000
00000100
00010000
00001000
00000000
,
00020000
00032000
00000000
00003100
,
00000001
00000010
00000110
00000000
,
00001000
00000000
00000001
00000100
00000010
00000000
00000100
00001000
,
00010000
00000000
00001000
00010000
01000000
00100000
10000000
00000000
,
00100000
00000000
01000000
10000000
00010000
00000000
10000000
00100000
,
01000000
10000000
01000000
00100000
00010000
00001000
00000100
00000001
,
00002000
00003200
00000320
00002030
,
00023000
02030000
23000000
30200000
,
00310000
00000000
00001000
00000000
00010000
00000000
00000100
00000000
00000010
00000000
00000001
00000000
,
00000100
00000000
00001000
00000000
00010000
00000000
00100000
00000000
10000000
00000000
01000000
00000000
,
00100000
00000000
00001000
00000000
00010000
00000000
00001000
00010000
,
00100000
01000000
10000000
01000000
00010000
01000000
10000000
01000000
,
00010000
10000000
01000000
00010000
01000000
00100000
10000000
00100000
,
01000000
00010000
00001000
00000010
00000100
00000001
00000100
00001000
,
00000001
00000100
00000010
00000100
00001000
00010000
00100000
01000000
,
00100000
10000000
00010000
00100000
01000000
00010000
01000000
00100000
,
00010000
10000000
00100000
01000000
00100000
00010000
00001000
00000100
,
00000001
00001000
00000001
00001000
00000001
00001000
00000100
00000000
00000000
00000010
00000000
00000000
,
00001001
00000000
00000000
00000000
00000000
00000001
00001000
00000000
00000100
00000000
00010000
00000000
00011000
00000000
00000000
00000000
,
01100000
00000000
00000000
00000000
00001000
00000000
00011000
00000000
00010000
00100000
01000000
10000000
01000000
00100000
01000000
00000000
,
01010000
00000000
00000000
00000000
00000000
10000000
01000000
00000000
00100000
00001000
00010000
00001000
00000100
00000001
00002000
00003000
,
00001001
00000000
00000000
00000000
00000000
00000000
00000110
00000000
00000001
00000010
00000100
00010000
00011000
00000000
00000000
00000000
,
00011000
00000000
00000000
00000000
00001000
00100000
00010000
00000000
00100000
00000000
01000000
00000000
11000000
00000000
00010000
00000000
,
10010000
00000000
00000000
00000000
10000000
00100000
00010000
00000000
00100000
01000000
00100000
10000000
01000000
00000000
00100000
00000000
,
00101000
00000000
00000000
00000000
00001000
00010000
00000100
00000000
00001000
00000100
00000010
00000100
00010000
00000000
00001000
00000000
,
00011000
00000000
00001000
00010000
00000100
00001000
00000010
00000100
00000001
00000010
00000100
00001000
00002002
00000000
00000000
00000000
,
00003003
00000000
00000000
00000000
;
