#VERSION:0.83;
#TITLE:AKASHIC BREAK;
#ARTIST:BEMANI Sound Team "TAG";
#ARTISTTRANSLIT:TAG;
#GENRE:LAPLACE CORE;
#BANNER:AKASHIC BREAK.png;
#BACKGROUND:AKASHIC BREAK-bg.png;
#CDTITLE:./CDTitles/bm IIDX 27 HEROIC VERSE.png;
#MUSIC:AKASHIC BREAK.ogg;
#SAMPLESTART:50.341;
#SAMPLELENGTH:15;
#BPMS:0=205,76=102.5,92=205,155=410,155.5=205,155.75=102.5,156=205,220=102.5,234=205,291=410,291.5=205,291.75=102.5,292=205,315=410,315.5=205,315.75=102.5,316=205,355=410,355.5=205,355.75=102.5,356=205;
#STOPS:234=0.11,234.375=0.11,234.75=0.11,235.125=0.11,235.5=0.073,235.75=0.073;
#BGSTAGE:25;

//--------------- dance-single - Fred-104 ----------------
#NOTEDATA:;
#STEPSTYPE:dance-single;
#DESCRIPTION:Fred-104;
#DIFFICULTY:Beginner;
#METER:6;
#CREDIT:Fred-104;
#NOTES:
0000
0000
0000
0000
,
0000
0000
0000
0000
,
0000
0000
0000
0000
,
0000
0000
0000
0000
,
0000
0000
0000
0000
,
0000
0000
0000
0000
,
0000
0000
0000
0000
,
0000
0000
0000
0000
,
0000
0000
0000
0000
,
1000
0000
0010
0000
,
1000
0000
0001
0001
,
0001
0000
1000
0000
,
0001
0000
0100
0100
,
0100
0000
0010
0000
,
1000
0000
0001
0000
,
1000
0000
0001
0000
,
1000
0000
0001
1000
,
2002
0000
0000
0000
,
0000
0000
0000
3003
,
0002
0000
0000
0003
2000
0000
0000
3000
,
0002
0000
0000
0003
2000
0000
0000
3000
,
0020
0000
0000
0030
0200
0000
0000
0300
,
0020
0000
0000
0030
0200
0000
0000
0300
,
0001
0000
1000
0000
,
0010
0000
1000
1000
,
1000
0000
0001
0000
,
1000
0000
0000
0000
,
0001
0000
0100
0000
,
0010
0000
1000
0000
,
0002
0000
0000
0003
,
2002
0000
0000
3003
,
1000
0010
0000
0010
,
0000
0010
0000
0010
,
0001
0010
0000
0010
,
0000
0010
0000
0010
,
1000
1000
1000
0000
,
0001
0001
0001
0000
,
0100
0100
0100
0100
,
2002
0000
0000
3003
,
1000
0000
0010
0000
,
1000
0000
0001
0001
,
0001
0000
0100
0000
,
0010
0000
0100
0100
,
0100
0000
0001
0000
,
1000
0000
0001
0001
,
0001
0000
1000
0000
,
1001
0000
0001
0001
,
0001
0000
0100
0000
,
0010
0000
1000
1000
,
1000
0000
0001
0000
,
1000
0000
0100
0100
,
0100
0000
1000
0000
,
0001
0000
1000
1000
,
1000
0000
0001
0000
,
1000
0000
0001
0001
,
0002
0000
0000
0003
2000
0000
0000
3000
,
0020
0000
0000
0030
0200
0000
0000
0300
,
0002
0000
0000
0003
2000
0000
0000
3000
,
0001
1000
0020
0000
,
1030
0000
0000
1000
0000
0000
1000
0000
,
0000
1000
0000
0000
1000
0000
0000
0000
,
0001
0000
0000
0001
0000
0000
0001
0000
,
0000
0001
0000
0000
0001
0000
0000
0000
,
0100
0000
0000
0100
0000
0000
0100
0000
,
0100
0000
0100
0000
,
0010
0000
0010
0000
,
2000
0000
0000
3000
,
0002
0000
0000
0000
,
0000
0000
0003
0000
,
1000
1000
0001
2002
,
0000
0000
0000
3003
,
1000
0000
0000
0000
,
0001
0000
1000
2000
,
3001
0000
0100
0000
,
0001
0000
0010
0010
,
0010
0000
0001
0000
,
1000
0000
0100
0100
,
0100
0000
1000
0000
,
0001
0000
1000
0002
,
1003
0000
0010
0000
,
1000
0000
0100
0100
,
0100
0000
0010
0000
,
0001
0001
0001
0000
,
1000
0000
0001
0000
,
1000
1000
1000
0000
,
0001
0000
1000
0000
,
0001
0001
0001
0000
,
1000
0000
0001
0000
,
1000
0000
0000
0002
,
1003
0000
0001
0000
,
1000
1000
1000
1000
,
1001
0000
0000
0000
;

//--------------- dance-single - Fred-104 ----------------
#NOTEDATA:;
#STEPSTYPE:dance-single;
#DESCRIPTION:Fred-104;
#DIFFICULTY:Easy;
#METER:10;
#CREDIT:Fred-104;
#NOTES:
0000
0000
0000
0000
,
0000
0000
0000
0000
,
0000
0000
0000
0000
,
0000
0000
0000
0000
,
0000
0000
0000
0000
,
0000
0000
0000
0000
,
0000
0000
0000
0000
,
0000
0000
0000
0000
,
0000
0000
0000
0000
,
1000
0000
0010
1000
,
0100
0000
0010
0001
,
1000
0000
0001
1000
,
0001
0000
0100
0010
,
0100
0100
0001
0001
,
1000
1000
0010
0010
,
1000
0010
1000
0000
0001
0100
0001
0000
,
2000
0000
3001
1000
,
1001
0000
0001
0000
,
0100
0100
0010
0010
,
2000
0000
3020
0230
,
0302
0000
0023
0230
,
2300
0000
3002
0203
,
2300
0000
3200
0320
,
1030
0000
0000
0100
0000
0010
0000
0001
,
0000
0100
0010
0100
,
0001
0000
0100
0010
,
1000
0000
0000
0001
0000
0000
0100
0000
,
0010
1000
0100
0010
,
0001
0000
0100
0000
0010
0000
0100
0002
,
0000
0000
0000
0000
,
2000
0000
0000
3003
,
1000
0010
1000
0010
0000
0100
0000
0010
,
0000
0100
0000
0010
0000
0100
0000
0001
,
0000
0010
0000
0001
0000
1000
0000
0001
,
0000
0100
0000
0010
0000
1000
0010
1000
,
0001
0101
1000
1100
,
0001
0011
1000
1010
,
0001
0010
0001
0000
1000
0010
1000
0000
,
2002
0000
0000
3003
,
1000
0000
0010
0010
0000
1000
0000
0100
,
0000
0010
0001
0000
0100
0000
0010
0000
,
0100
0000
0001
0000
0010
0000
0001
0001
,
0000
0100
0010
0000
1000
0000
0001
0000
,
0100
0000
0010
0000
1000
0000
0100
0100
,
0000
0010
0100
0000
1000
0000
0010
0000
,
0100
0000
0001
0001
0000
0010
0000
0100
,
0000
1000
0010
0000
0100
0000
0001
0000
,
1000
0000
0001
0001
0000
0100
0000
0010
,
0000
0100
0001
0000
0100
0000
0010
0000
,
1000
0000
0010
0010
0000
0100
0000
0001
,
0000
0100
0010
0000
1000
0000
0001
0100
,
0001
0000
0010
0000
0100
0000
1000
1000
,
0000
0010
0100
0010
0100
0000
0001
0000
,
2000
0000
0000
0002
0000
0000
3003
0000
,
1000
0000
0010
0000
1000
0100
1000
0000
,
1002
0203
0320
2030
,
3200
0320
0032
0203
,
0301
0000
0100
0001
0100
0000
0010
0000
1000
0010
0100
0000
0010
0000
1000
0100
,
0010
0000
0000
0000
0001
0000
0100
0000
0001
0000
0100
0000
0010
0000
1000
0000
0001
0000
0000
0001
0000
0000
1000
0000
0000
1000
0000
0000
1001
0000
0000
0000
,
0001
0010
0010
1000
,
0010
0010
0001
1000
,
0001
0100
0100
1000
,
0100
0100
0001
1000
,
0001
0100
0010
0000
1000
0100
0010
0000
,
0001
0010
0100
0000
1000
0010
0100
0000
,
0001
0100
0001
0100
0010
0100
0010
0000
,
2000
3200
0302
0023
,
2030
0000
0000
3002
0000
0000
0000
0000
,
0000
0000
0000
0003
,
1000
0010
1000
0000
0001
0100
0001
0100
,
0000
0010
0200
0000
0000
0000
0300
0000
,
1001
0000
0001
0001
0000
0100
0000
0010
,
0000
1000
0001
0000
2000
0000
3002
0000
,
0103
0000
0010
0000
1000
0000
0100
0100
,
0000
0010
0000
0001
1000
0000
1001
0000
,
0001
0000
0100
0000
0010
0000
0100
0010
,
0000
0010
1000
0000
0001
0100
0001
0000
,
0100
0000
0010
0010
0000
1000
0000
0001
,
0200
0320
2030
3002
,
1003
0000
0010
0010
0000
1000
0000
0100
,
0000
0010
0001
0000
1000
0001
1000
0000
,
1010
0000
0010
0010
0000
0100
0000
0001
,
1000
0000
0100
0000
0010
0001
0010
0000
,
0011
0000
0001
0000
0100
0000
0010
1000
,
0000
0010
0100
0000
0001
0000
1000
0100
,
1000
0000
0000
0010
0000
1000
0000
0001
,
0000
0100
0010
0000
0100
0000
0001
0000
,
1001
0000
1000
0000
0010
0000
0100
0100
,
0000
0001
1000
0000
0000
0000
1001
0000
,
0001
0100
0010
1000
,
0001
0010
0001
0010
0100
1000
0100
0000
,
1001
0000
0000
0000
;

//--------------- dance-single - Fred-104 ----------------
#NOTEDATA:;
#STEPSTYPE:dance-single;
#DESCRIPTION:Fred-104;
#DIFFICULTY:Medium;
#METER:15;
#CREDIT:Fred-104;
#NOTES:
0000
0000
0000
0000
,
0000
0000
0000
0000
,
0000
0000
0000
0000
,
0000
0000
0000
0000
,
0000
0000
0000
0000
,
0000
0000
0000
0000
,
0000
0000
0000
0000
,
0000
0000
0000
0000
,
0000
0000
0000
0000
,
1000
0100
1000
0010
0100
0010
1000
0100
,
0000
0001
0100
1000
0001
0000
0100
0000
,
0001
1000
0001
0100
0010
0001
0010
1000
,
0000
0001
0100
0010
1000
0000
1001
0000
,
1000
0000
0100
0000
0010
0000
0001
0000
0100
0010
0000
0010
0100
0000
0001
0000
,
0010
0000
0001
0000
1000
0000
0010
0000
1000
0100
0000
0100
0010
0000
0001
0000
,
1000
0000
0010
1000
0010
0000
0100
0000
0001
0000
0100
0000
0010
0000
1000
0000
,
0002
0100
0013
1010
,
1001
0000
0000
0001
0100
0001
0100
0010
0100
0010
1000
0010
,
1000
0001
1000
0001
1000
0100
1000
0100
0010
0001
0000
0000
,
1000
0000
0010
1000
0000
0100
0000
0010
0000
0001
0100
0001
0010
0100
1000
0001
,
0100
0000
0001
0010
0100
1000
0010
0100
0000
0010
1000
0010
0100
0001
1000
0001
,
0010
0000
0001
0100
0001
0010
0100
1000
0000
0010
0100
0001
0010
0100
1000
0010
,
0100
0000
0001
0100
0000
0010
0001
0020
0000
0000
0000
1030
0001
0100
0010
1000
,
0002
0000
0100
0203
0000
0320
0000
2030
,
0000
3100
0010
0001
0010
0001
1000
0010
,
0200
0000
0302
0023
,
2030
0000
0000
3200
0000
0000
0000
0000
,
0301
0000
0100
0001
0100
0010
1000
0010
,
0000
0100
0010
1000
0001
0000
0100
0200
,
0000
0000
0000
0300
,
2002
0000
0000
3003
,
1000
0100
0010
0001
0000
0100
0010
1000
,
0000
0100
0010
0001
0000
0100
0010
0001
,
0000
0010
1000
0001
0000
1000
0010
0100
,
0000
1000
0100
0001
0000
1000
0100
0010
,
0012
0103
2010
3100
,
0021
0130
1020
0130
,
0001
0000
0010
0000
0100
0000
1000
0000
0001
1000
0001
1000
0001
1000
0001
2000
,
0002
0000
0000
3003
,
1000
0000
0010
1010
0000
1100
0000
1010
,
0000
0010
0100
0010
1000
0100
0010
0001
,
0100
0000
0001
0010
1000
0010
0001
0100
,
0000
0000
0010
0000
1000
0000
0010
0000
0100
0000
0001
1000
0001
0000
0010
0000
,
0100
0000
1000
0010
0001
1000
0100
0001
,
0000
1000
0010
0100
0001
0001
1000
1000
,
1001
0000
0001
0101
0000
0110
0000
1010
,
0000
0000
1000
0000
0010
0000
0100
0000
0001
1000
0001
1000
0002
0000
0000
0000
,
1003
0000
0100
0110
0000
0011
0000
0101
,
0000
0001
1000
0001
0100
0010
1000
0100
,
0010
0000
0001
0101
0000
1001
0000
1100
,
0000
0000
0100
0000
0010
0000
0001
0000
1000
0000
0010
0000
1000
0010
1000
0010
,
1000
0000
0001
0010
1000
0001
0100
1000
,
0000
0001
0100
0010
1000
0000
0010
0000
,
0100
0000
0001
0011
0000
1010
0000
0101
,
0000
0000
1100
0000
1000
0000
0010
0000
0100
0010
0100
0010
0100
0000
0000
0000
,
0001
0010
0100
1000
0000
0010
0100
0001
0000
0010
0100
1000
0010
0100
0010
1000
,
0001
0100
0010
1000
0000
0100
0010
0001
0000
0100
0010
1000
0001
0010
0001
1000
,
0001
0100
0001
0100
0000
0100
1000
0100
0000
0100
0001
0100
0001
0010
1000
0010
,
0001
0000
0100
0000
0010
1000
0010
0000
1000
0001
1000
0000
0001
1000
0001
1000
0001
0000
0000
0100
0000
0000
0010
0000
0000
1000
0000
0000
0001
0000
1000
0000
,
0001
0010
0000
0010
1000
0000
0001
0100
,
0000
0100
1000
0000
0001
0100
0010
0000
,
1000
0100
0000
0100
0001
0000
1000
0010
,
0000
0010
0001
0000
1000
0001
0100
0000
,
0001
0100
0010
0100
0001
0010
0100
1000
,
0010
0100
1000
0100
0001
1000
0100
0010
,
0001
0100
0001
0000
0100
0010
0100
0000
0010
1000
0010
0000
1000
0001
1000
0000
,
0001
0100
0001
0100
0010
0100
0010
1000
0010
1000
0001
0100
,
0020
0000
0000
0230
0000
0000
0000
0000
,
0000
0000
0000
0300
,
0001
0000
0100
0000
0001
0000
0100
0000
0001
1000
0001
1000
0001
0000
1000
0000
,
0000
0001
2002
0000
0000
0000
3003
0000
,
1000
0000
1000
1100
0000
0101
0000
1100
,
0000
0000
0010
0000
0100
0000
0001
0000
0100
0010
0100
0010
0200
0000
0000
0000
,
0301
0000
1000
0100
0010
0100
0010
0001
,
0000
0000
0100
0000
0001
0000
0010
0000
0100
0000
1000
0100
1000
0000
0010
0000
,
0100
0000
0001
0010
1000
0001
0100
1000
,
0000
0001
0100
0010
1000
1000
0010
0010
,
0110
0000
0100
0101
0000
0001
1000
0010
,
1000
0100
1000
0100
0000
0000
0010
0001
0010
0002
0000
0000
,
1003
0000
0100
0110
0000
0101
0000
0110
,
0000
0100
1000
0001
0100
0010
1000
0100
,
0010
0000
0001
0101
0000
0011
0000
0101
,
0001
0100
0010
1000
0001
0100
1000
0100
,
0001
0000
0100
0010
0001
0010
1000
0001
,
0000
0100
0010
1000
0200
0000
1000
0000
,
0301
0000
0100
0110
0000
1001
0000
0110
,
0000
0001
1000
0010
0100
0001
2000
0000
,
3001
0000
0100
0010
1000
0100
0010
0001
,
0000
1000
1001
0000
0100
0010
0200
0000
,
0301
0010
0100
1000
0010
0100
0001
1000
,
0001
0000
0100
0000
0010
0000
1000
0000
0001
1000
0001
1000
0001
1000
0001
1000
,
0001
0000
0000
0000
;

//--------------- dance-single - Fred-104 ----------------
#NOTEDATA:;
#STEPSTYPE:dance-single;
#DESCRIPTION:Fred-104;
#DIFFICULTY:Hard;
#METER:18;
#CREDIT:Fred-104;
#NOTES:
0000
0000
0000
0000
,
0000
0000
0000
0000
,
0000
0000
0000
0000
,
0000
0000
0000
0000
,
0000
0000
0000
0000
,
0000
0000
0000
0000
,
0000
0000
0000
0000
,
0000
0000
0000
0000
,
0000
0000
0000
0000
,
1000
0000
0010
1000
0100
0000
0010
0000
0001
0000
0100
0001
0100
0000
0010
0000
,
0100
0000
0001
0010
0100
0000
1000
0000
0001
0000
0100
0010
0100
0000
0001
0000
,
1000
0000
0010
1000
0010
0000
0100
0000
0010
0000
1000
0100
0010
0000
0001
0000
,
0100
0001
0100
0000
0001
0100
0010
0000
1000
0000
0001
1000
0001
0000
0100
0000
,
0001
0000
0010
0001
1000
0000
0010
0000
0100
0010
0000
0010
1000
0000
0001
0100
,
0001
0000
0100
0010
0100
0000
0010
0000
1000
0100
0000
0100
0010
0000
0001
0100
,
0010
0000
1000
0010
1000
0000
0001
0100
0010
1000
0010
1000
0100
0010
0100
0010
,
0002
0100
1003
1001
,
0110
0000
0000
0000
0000
0000
0000
0000
0000
0000
0000
0000
1000
0000
0000
0010
0000
0000
1000
0000
0000
0010
0000
0000
1000
0000
0000
0000
0100
0000
0000
0000
0010
0000
0000
0000
0001
0000
0000
0000
0010
0000
0000
0000
0100
0000
0000
0000
,
1000
0010
0100
0001
0010
0001
1000
0010
1000
0001
0000
0000
,
2001
0000
3100
0200
0000
1000
0000
0001
0300
0100
0010
1000
0100
0010
0001
1000
,
0001
0000
0000
0000
0100
0010
1000
0010
0100
0000
0001
0000
1000
0100
1000
0000
0000
0000
0010
0000
0010
0000
0001
0000
0100
0000
0100
0000
1000
0000
0001
0000
,
1000
0000
0000
0000
0001
0100
0001
0100
0010
0000
1000
0000
0001
0000
0100
0000
0000
0000
0001
0000
0100
0000
0100
0000
1000
0000
0010
0000
0010
0000
0001
0000
,
1000
0000
0010
1000
0000
0100
0010
0002
0000
0000
0000
0103
1000
0100
0001
1000
,
0002
0000
0100
0100
0000
1000
0000
0013
,
0000
0001
0100
0010
0001
0010
1000
0001
,
0200
0000
0320
2030
,
3002
0000
0000
2000
0000
0000
3003
0000
,
2000
0000
3001
0100
1000
0100
0010
2000
,
0000
3100
0010
0001
2000
0000
3001
0200
,
0000
0000
0000
0300
,
2002
0000
0000
3003
,
1000
0100
0010
0002
0000
0103
0010
0002
,
0000
0013
1000
0002
0000
1003
0001
0200
,
0000
1300
0100
0020
0000
1030
0100
0020
,
0000
0031
0100
0020
0000
1030
0010
0100
,
0101
0000
0002
0000
0023
0000
0230
0300
1100
0000
2000
0000
3020
0000
0230
0300
,
1002
0000
0203
0000
0320
0000
2030
3000
2001
0000
3200
0000
0320
0000
0032
0003
,
0101
0000
0001
0000
1100
0000
1000
0000
0001
0010
0100
1000
0010
0100
0001
2000
,
0002
0000
0000
3003
,
0101
0000
0100
0110
0000
1010
0000
1001
,
0000
0000
1000
0000
0100
0000
0010
0000
0001
0100
0001
0100
0010
1000
0100
1000
,
0100
0000
0000
0000
1000
0010
0100
0001
1000
0000
0100
0010
0001
1000
0001
0000
,
0000
0000
0001
0000
0100
0000
0010
0000
1000
0000
0001
0010
0100
0000
0010
0000
,
0001
0000
0000
0000
0100
0001
1000
0001
0010
0000
0100
0000
1000
0000
1100
0000
,
0000
0110
0100
0001
1000
1000
0001
0001
,
0101
0000
0100
0110
0000
0010
1000
1100
,
0000
0000
1000
0000
0010
0000
0100
0000
0001
1000
0001
1000
0100
0010
0100
0010
,
0001
0000
0100
0110
0000
1010
0000
0101
,
0000
0000
1000
0010
0100
0000
0001
0010
0100
0000
1000
0001
0100
0000
0010
0000
,
1010
0000
1000
1100
0000
0101
0000
1100
,
0000
0000
1001
0000
0001
0000
0100
0000
0010
0000
1000
0100
1000
0001
0100
0001
,
1000
0000
0000
0000
0001
0010
0001
0010
0100
0000
0010
0000
0001
0000
1001
0000
,
0000
0000
1000
0010
0100
0000
0010
1000
0100
0000
0010
0000
0001
0000
1000
0000
,
1001
0000
0001
0011
0000
1010
0000
0011
,
0000
0000
1001
0000
0001
0000
0100
0000
0010
1000
0001
0100
0001
0000
1000
0000
,
0001
0010
0100
2000
0000
3010
0100
2000
0000
3100
0010
1000
0100
0010
0001
1000
,
0001
0100
0010
0002
0000
0013
1000
0002
0000
1003
0100
0010
1000
0010
0001
1000
,
0001
0010
1000
0020
0000
0031
0100
2000
0000
3100
0001
0010
0100
1000
0001
0100
,
0010
0000
0000
0000
1000
0000
0000
0000
0001
0000
0100
0000
0001
0000
0100
0000
0010
0000
1000
0000
0010
0000
1000
0000
0001
0000
1000
0000
0001
0000
1000
0000
0002
0003
0000
0000
0000
0000
0020
0030
0000
0000
0000
0000
2000
3000
0000
0000
0000
0000
0200
0300
0000
0000
0000
0000
0002
0003
0000
0000
2000
3000
0000
0000
,
0001
0100
0001
0100
0001
0000
1000
0100
1000
0100
1000
0000
0010
0100
0010
0100
,
0010
0000
1000
0100
1000
0100
1000
0000
0010
1000
0010
0000
0100
0001
0100
0000
,
0001
0100
0001
0100
0010
0000
1000
0100
1000
0100
0010
0000
0001
1000
0001
1000
,
0100
0000
0010
0001
0010
0001
1000
0000
0001
0100
0001
0100
0010
1000
0001
0000
,
1000
0100
0010
0000
0001
0100
0010
0000
1000
0010
0100
0000
0001
0100
0010
0000
,
1000
0010
0100
0010
1000
0010
0100
0000
0001
0010
0100
0010
0001
0010
0100
0000
,
1000
0010
0100
0001
0010
0001
0100
0010
1000
0100
1000
0010
0100
0001
0010
0001
,
1000
0100
1000
0001
0100
0001
1000
0010
1000
0001
0010
0001
,
2000
0000
0000
3020
0000
0000
0000
0000
,
0000
0000
0000
0000
,
1030
0010
0100
0000
0010
1000
0001
0000
1000
0100
0010
0001
0100
0010
0100
0000
,
0000
0110
2002
0000
0000
0000
3003
0000
,
1001
0000
1100
1100
0000
0110
0000
0101
,
0000
0000
1001
0000
0001
0000
0100
0000
0010
1000
0001
0100
0020
0000
0000
0030
,
1010
0000
0000
0000
1000
0100
1000
0010
0100
0000
0001
0100
0001
0100
0010
0000
,
0000
0000
1010
0000
0010
0000
0100
0000
0100
0000
0001
0010
0001
0000
1000
0000
,
0001
0000
0000
0000
0100
0010
1000
0010
1000
0000
0100
0010
0001
1000
0001
0000
,
0000
0100
0010
1000
0100
0100
0010
0010
,
0011
0000
0001
0101
0000
0110
0010
1000
,
0001
0000
0000
0000
0010
0000
0000
0000
0001
0000
0000
0000
0100
0000
0000
0000
0010
0000
0000
0000
1000
0000
0000
0000
0010
0000
0000
0000
0100
0000
0000
0000
0001
0000
0000
0000
2000
0000
0000
0000
0000
0000
0000
0000
0000
3000
0000
0000
,
1100
0000
0100
0110
0000
0011
0000
1010
,
0000
0000
0011
0000
0001
0000
1000
0000
0001
0000
0100
0000
0001
0010
0100
1000
,
0001
0000
1000
1001
0000
0110
0000
1001
,
1000
0000
0010
0000
0100
0000
0001
0000
0010
0000
0100
1000
0001
0000
0100
0010
,
0100
0000
0000
0000
0001
0010
0100
0010
0100
0000
1000
0010
0100
0001
1000
0000
,
0000
0000
0001
0000
1000
0000
0010
0000
0100
0000
0001
0000
1000
0000
0100
0010
,
0001
0100
0010
0110
0000
1010
1000
1001
,
0000
0000
0001
0000
0100
0000
0010
0000
1000
0100
0010
0001
0100
0010
0100
0001
,
1000
0000
0000
0000
0001
1000
0010
0100
0001
0010
0001
1000
0001
0100
0010
0000
,
0000
0000
1000
0000
1001
0000
0000
0000
1000
0000
0001
0100
2000
0000
0000
0000
,
3200
0310
1000
0200
0310
0001
1000
0010
,
1000
0100
1000
0001
0100
0001
1000
0100
1000
0001
0100
0001
1000
0100
0010
0001
,
1000
0000
0000
0000
;

//--------------- dance-single - Fred-104† ----------------
#NOTEDATA:;
#STEPSTYPE:dance-single;
#DESCRIPTION:Fred-104†;
#DIFFICULTY:Challenge;
#METER:19;
#CREDIT:Fred-104†;
#NOTES:
0000
0000
0000
0000
,
0000
0000
0000
0000
,
0000
0000
0000
0000
,
0011
0011
0000
1010
0000
0011
0001
2002
,
0000
3003
0110
1001
,
1100
1100
0000
0101
0000
1100
1000
2002
,
0000
0000
3003
0000
,
1010
1010
0000
0101
0000
1100
0010
0220
,
0000
0330
0002
2003
,
3001
0000
0010
0001
1000
0000
0010
0000
1000
0100
0010
0001
1000
0000
0001
0000
,
0100
0000
0010
1000
0100
0000
1000
0000
0010
1000
0100
1000
0001
0000
0100
0000
,
0010
0000
1000
0100
0010
0000
0100
0000
1000
0010
0100
0010
1000
0000
0001
0000
,
1000
0000
0001
0010
0100
0000
1000
0000
0001
1000
0100
1000
0001
0100
0001
1000
,
0100
0000
0010
0001
1000
0000
0001
0010
0100
1000
0000
0010
0100
0000
0010
1000
,
0100
0000
1000
0010
0100
0000
0010
1000
0001
0010
0000
0100
0010
0000
0001
1000
,
0001
0010
0100
1000
0100
0010
0001
1000
0010
0100
0010
1000
0001
0010
0100
1000
,
0001
0100
0010
0001
0010
1000
0001
1000
0100
0010
1000
0010
0001
1000
0001
0100
,
0010
0000
0000
0000
0000
0000
0000
0000
0000
0000
0000
0000
1000
0000
0000
0100
0000
0000
0010
0000
0000
0001
0000
0000
1000
0000
0000
0000
0100
0000
0000
0000
0100
0000
0000
0000
0001
0000
0000
0000
0100
0000
0000
0000
0100
0000
0000
0000
,
1000
0010
0010
0001
0010
0010
1000
0100
0001
1000
0010
0001
,
1000
0000
0100
0010
0000
0001
0000
0100
0000
0010
0001
0010
1000
0001
0100
0010
,
1000
0000
0000
0000
0001
0010
0100
1000
0001
0000
0100
0010
1000
0010
0100
0000
0000
0000
0001
0000
0010
0000
0010
0000
1000
0000
0100
0000
0100
0000
0001
0000
,
1000
0000
0000
0000
0001
1000
0010
1000
0100
0000
0010
0000
0001
0000
0100
0000
0000
0000
1000
0000
0100
0000
0001
0000
0010
0000
1000
0000
0010
0000
0001
0000
,
1000
0000
0001
0100
0000
1000
0100
0020
0000
0000
0000
1030
0100
0010
0001
1000
,
0002
0000
0100
0100
0000
1000
0000
0013
,
0000
0000
0001
0100
1000
0000
1000
0100
0001
0000
0001
0100
0010
0000
1000
0000
,
0200
1000
0320
0032
,
2003
0000
0000
0002
0000
0000
3003
0000
,
2000
0000
0000
0000
3001
0010
0100
1000
0001
0000
0100
0010
1000
0010
0200
0000
,
0000
0301
0010
1000
0020
0000
0031
0200
,
0000
0000
0000
0300
,
2002
0000
0000
3003
,
1000
0000
0001
0010
0100
0000
1000
0000
0000
0000
0010
0100
1000
0000
0100
0000
,
0000
0000
0001
1000
0010
0000
0100
0000
0000
0000
0001
0100
0010
0000
0001
0000
,
0000
0000
0010
1000
0001
0000
0100
0000
0000
0000
0001
0010
0100
0000
0001
0000
,
0000
0000
0100
1000
0001
0000
0100
0000
0000
0000
0010
1000
0100
0000
1000
0000
,
1001
0000
0001
0010
0100
0000
0010
0100
1000
0000
0100
1000
0001
0100
0001
1000
,
0100
0000
1000
0010
0100
0000
0001
0010
0100
0000
0010
0001
1000
0010
0100
0001
,
1000
0100
0010
0001
0010
0100
1000
0001
0100
0010
0001
0010
1000
0001
0100
0010
,
2000
0000
0000
3000
,
1010
0000
0110
0110
0000
0101
0000
1001
,
0000
0000
0011
0000
0001
0000
1000
0000
0001
0100
0010
0100
1000
0100
0010
1000
,
0001
0000
0000
0000
1000
0100
0001
0100
0010
0000
0001
0100
1000
0100
0010
0000
,
0000
0000
0000
1000
0000
0000
0100
0000
0000
0010
0000
0000
0001
0000
0000
0100
0001
0010
0001
0000
0000
1000
0000
0000
,
1010
0000
0000
0000
1000
0100
0010
1000
0010
0000
0001
0000
1000
0000
1001
0000
,
0000
0000
1010
0000
0010
0000
0100
0000
0001
0000
0100
0010
1000
0000
0100
0000
,
1100
0000
0101
0101
0000
1010
1010
1001
,
0000
0000
0110
0000
1001
0000
0000
0000
0001
0100
0010
0001
0010
1000
0001
0100
,
0001
0000
0011
0011
0000
1010
0000
0011
,
0000
0000
0001
0010
1000
0000
0001
0100
1000
0000
0001
0100
0010
0000
1000
0000
,
1010
0000
1100
0101
0000
1010
0000
0011
,
0000
0000
0000
0000
0000
0000
1001
0000
0000
0000
0000
0000
0001
0000
0000
0000
0000
0000
1000
0000
0000
0000
0000
0000
0001
0000
0000
0000
0000
0000
1000
0000
0001
0000
0100
0000
0001
0000
0000
0010
0000
0000
0100
0000
0000
1000
0000
0000
,
0001
0000
0000
0000
1000
0001
0100
1000
0100
0000
0010
1000
0001
0010
0100
0000
,
0000
0101
0100
1000
1100
0000
1001
0000
,
1010
0000
0011
1001
1000
1100
0101
0110
,
0000
0000
1001
0000
0001
0000
0100
0000
0010
1000
0100
0010
0001
0100
0010
1000
,
0001
0100
1000
0200
0000
0301
0010
2000
0000
3010
0001
1000
0001
0100
0010
1000
,
0001
0010
1000
0020
0000
0031
0100
2000
0000
3100
0001
0010
0100
1000
0010
0100
,
0001
0100
0010
0002
0000
0013
1000
0002
0000
1003
0100
0010
1000
0010
0001
1000
,
0001
0000
0010
0001
1000
0010
1000
0001
0100
0001
1000
0100
1000
0001
0100
0010
2000
3000
0000
0020
0030
0000
0002
0003
0000
0200
0300
0000
2000
3000
0002
0003
,
1000
0100
0010
0001
1000
0000
0001
0100
0010
1000
0100
0000
1000
0010
0100
0001
,
1000
0000
0001
0010
0001
1000
0010
0000
1000
0100
1000
0001
0100
0001
1000
0100
,
0010
0001
0010
1000
0010
0000
0001
1000
0010
0100
0001
0000
1000
0010
0100
1000
,
0100
0000
0010
0100
0001
1000
0001
0000
1000
0100
0010
0001
0100
0010
0100
0001
,
1000
0100
0010
0001
0100
0010
0001
0010
0100
1000
0100
0010
1000
0100
0010
0001
,
1000
0010
0100
1000
0100
0010
1000
0100
0010
1000
0010
0100
1000
0001
0100
0010
,
1000
0001
0010
0001
0100
0010
0001
0010
0100
0001
0010
0100
0001
0100
0010
0001
,
1000
1000
0100
0001
0001
0100
1000
1000
0010
0001
0001
0010
,
1001
0000
0000
0220
0000
0000
0000
0000
,
0000
0000
0000
0330
,
0001
0100
0010
0001
0010
0100
0001
0100
0010
0001
1000
0100
0010
1000
0002
0000
,
0000
1003
2002
0000
0000
0000
3003
0000
,
1100
0000
0101
1100
0000
0011
0000
1010
,
0000
0000
1001
0000
0001
0000
0100
0000
0010
1000
0001
1000
0200
0000
0000
0000
,
1300
0000
0000
0000
0001
0100
0010
0100
1000
0000
0100
0001
1000
0001
0010
0000
,
0000
0000
0000
1000
0000
0000
0010
0000
0000
0001
0000
0000
1000
0000
0000
0001
0100
0010
1000
0000
0000
0100
0000
0000
,
1100
0000
0000
0000
1000
0100
0010
0001
1000
0000
0010
0100
1000
0100
0001
0000
,
0000
1000
0100
0010
0001
0100
1000
0100
,
0101
0000
0011
1010
0000
0101
1100
1001
,
0001
0000
0000
0000
0001
0000
0000
0000
0002
0000
0000
0000
1000
0000
0000
0000
1000
0000
0000
0000
2003
0000
0000
0000
0001
0000
0000
0000
0001
0000
0000
0000
3001
0000
0000
0000
2002
0000
0000
0000
0000
0000
0000
0000
0000
3003
0000
0000
,
1100
0000
1010
1100
0000
1001
0000
0101
,
0000
0000
0011
0000
0001
0000
1000
0000
0001
0010
0100
0010
1000
0010
0001
1000
,
0010
0000
0110
1010
0000
0101
0000
1100
,
0100
0000
0000
0000
0000
0000
1000
0000
0000
0000
0000
0000
0001
0000
0000
0000
0000
0000
0100
0000
0000
0000
0000
0000
0001
0000
0000
0000
0000
0000
0010
0000
0001
0000
1000
0000
0001
0000
0000
0100
0000
0000
0010
0000
0000
1000
0000
0000
,
0001
0000
0000
0000
1000
0100
0001
1000
0010
0000
0001
0100
1000
0001
0010
0000
,
0000
0000
0100
0000
0001
0000
1000
0000
0001
0000
0100
0010
1000
0000
0010
1000
,
0001
0000
0101
1100
0001
0011
1000
1010
,
0000
0000
1001
0000
0001
0000
0100
0000
0010
1000
0100
0010
0001
0010
1000
0010
,
0001
0000
1000
0000
0001
0100
1000
0100
0010
1000
0001
0010
0001
0100
0010
0000
,
0000
0000
1000
0000
1001
0000
0000
0000
0001
0000
0100
1000
0200
0000
0000
0000
,
0302
0013
1000
0002
0203
1300
0001
1000
,
0001
0010
0100
1000
0010
0100
0001
0010
0100
1000
0010
0100
0001
0010
0100
1000
,
1001
0000
0000
0000
;

//--------------- dance-double - Fred-104 ----------------
#NOTEDATA:;
#STEPSTYPE:dance-double;
#DESCRIPTION:Fred-104;
#DIFFICULTY:Easy;
#METER:11;
#CREDIT:Fred-104;
#NOTES:
00000000
00000000
00000000
00000000
,
00000000
00000000
00000000
00000000
,
00000000
00000000
00000000
00000000
,
00000000
00000000
00000000
00000000
,
00000000
00000000
00000000
00000000
,
00000000
00000000
00000000
00000000
,
00000000
00000000
00000000
00000000
,
00000000
00000000
00000000
00000000
,
00000000
00000000
00000000
00000000
,
00100000
00000000
01000000
10000000
,
00010000
00000000
10000000
01000000
,
00100000
00000000
00001000
00010000
,
00001000
00000000
01000000
00010000
,
00100000
00100000
00001000
00010000
,
00000010
00001000
00000001
00000001
,
00000100
00000010
00000100
00000000
00000001
00000100
00000001
00000000
,
00002000
00000000
00003001
00001000
,
00001001
00000000
00000010
00000000
,
00010000
00010000
00001000
00001000
,
00200000
00000000
00320000
20030000
,
30020000
00000000
00230000
02300000
,
03200000
00000000
00302000
00023000
,
00032000
00000000
00023000
00030020
,
00001030
00000000
00000000
00000100
00000000
00010000
00000000
00001000
,
00000000
00100000
00010000
10000000
,
00100000
00000000
10000000
01000000
,
00100000
00000000
00000000
00100000
00000000
00000000
00100000
00000000
,
00001000
00010000
00001000
01000000
,
00001000
00000000
00010000
00000000
00001000
00000000
00000010
00000200
,
00000000
00000000
00000000
00000000
,
00002000
00000000
00000000
00003300
,
00000001
00001000
00000001
00000010
00000000
00000001
00000000
00000100
,
00000000
00000010
00000000
00001000
00000000
00000100
00000000
00010000
,
00000000
00001000
00000000
00000010
00000000
00000100
00000000
00001000
,
00000000
00010000
00000000
00100000
00000000
01000000
10000000
00010000
,
01000000
10010000
01000000
01010000
,
00001000
00011000
00010000
00010100
,
00000100
00001000
00000010
00000000
00010000
00001000
00010000
00000000
,
00022000
00000000
00000000
00033000
,
00000010
00000000
00000100
00000100
00000000
00000001
00000000
00000010
,
00000000
00000001
00001000
00000000
00000010
00000000
00001000
00000000
,
00000100
00000000
00010000
00000000
00001000
00000000
00100000
00010000
,
00000000
00010000
01000000
00000000
00001000
00000000
00010000
00000000
,
00001000
00000000
00100000
00000000
01000000
00000000
10000000
10000000
,
00000000
00100000
01000000
00000000
00010000
00000000
10000000
00000000
,
01000000
00000000
00100000
00100000
00000000
00001000
00000000
00010000
,
00000000
00001000
01000000
00000000
00001000
00000000
00010000
00000000
,
00001000
00000000
00010000
00000100
00000000
00000010
00000000
00000001
,
00000000
00001000
00000010
00000000
00000100
00000000
00000001
00000000
,
00001000
00000000
00000100
00000100
00000000
00000010
00000000
00000001
,
00000000
00001000
00000010
00000000
00010000
00000000
00000100
00001000
,
00000010
00000000
00010000
00000000
00001000
00000000
01000000
01000000
,
00000000
00010000
01000000
00010000
01000000
00000000
00100000
00000000
,
20000000
00000000
00000000
00020000
00000000
00000000
30030000
00000000
,
01000000
00000000
00100000
00000000
00001000
00010000
00001000
00000000
,
00021000
00030200
00000320
00000032
,
00000203
00002300
00023000
00230000
,
01300000
00000000
00010000
10000000
00000000
00010000
10000000
01000000
00000000
00100000
00010000
00000000
00100000
00000000
00001000
00010000
,
00001000
00000000
00000000
00000000
00000010
00000000
00000001
00000000
00001000
00000000
00000010
00000000
00000100
00000000
00000010
00000000
00001000
00000000
00000000
00001000
00000000
00000000
00000001
00000000
00000000
00000001
00000000
00000000
00001001
00000000
00000000
00000000
,
00000001
00000010
00000010
00001000
,
00000100
00000100
00000001
00000100
,
00001000
00010000
00100000
01000000
,
00010000
10000000
00010000
01000000
,
00100000
01000000
00100000
00000000
10000000
00010000
10000000
00000000
,
00100000
01000000
00100000
00000000
10000000
01000000
00100000
00000000
,
00001000
00010000
00001000
01000000
00001000
00010000
00001000
00000000
,
00020000
00030020
00002030
00003200
,
00020300
00000000
00000000
00032000
00000000
00000000
00000000
00000000
,
00000000
00000000
00000000
00003000
,
00010000
00001000
00010000
00000000
00000010
00001000
00000001
00001000
,
00000000
00000001
00000200
00000000
00000000
00000000
00000300
00000000
,
00001001
00000000
00000001
00000010
00000000
00001000
00000000
00010000
,
00000000
01000000
00100000
00000000
00020000
00000000
20030000
00000000
,
31000000
00000000
00100000
00000000
00001000
00000000
00010000
00001000
,
00000000
00010000
00000000
00000100
00010000
00000000
00011000
00000000
,
00001000
00000000
00010000
00000000
00100000
00000000
00010000
00001000
,
00000000
00000100
00001000
00000000
00010000
00001000
00010000
00000000
,
00000010
00000000
00001000
00001000
00000000
00000001
00000000
00000100
,
00000002
00000023
00002030
00023000
,
00031000
00000000
00000100
00000001
00000000
00001000
00000000
00000001
,
00000000
00000100
00000010
00000000
00010000
00001000
00010000
00000000
,
00011000
00000000
00001000
00001000
00000000
00100000
00000000
00010000
,
01000000
00000000
00010000
00000000
10000000
00010000
10000000
00000000
,
11000000
00000000
10000000
00000000
00100000
00000000
01000000
00010000
,
00000000
01000000
00100000
00000000
01000000
00000000
00001000
00010000
,
00001000
00000000
00000000
00100000
00000000
00001000
00000000
00000010
,
00000000
00001000
00010000
00000000
00001000
00000000
00100000
00000000
,
00110000
00000000
00010000
00000000
01000000
00000000
00100000
10000000
,
00000000
01000000
00100000
00000000
00000000
00000000
00011000
00000000
,
00000100
00000010
00000001
00000100
,
00001000
00010000
00001000
00010000
01000000
10000000
00010000
00000000
,
10010000
00000000
00000000
00000000
;

//--------------- dance-double - Fred-104 ----------------
#NOTEDATA:;
#STEPSTYPE:dance-double;
#DESCRIPTION:Fred-104;
#DIFFICULTY:Medium;
#METER:15;
#CREDIT:Fred-104;
#NOTES:
00000000
00000000
00000000
00000000
,
00000000
00000000
00000000
00000000
,
00000000
00000000
00000000
00000000
,
00000000
00000000
00000000
00000000
,
00000000
00000000
00000000
00000000
,
00000000
00000000
00000000
00000000
,
00000000
00000000
00000000
00000000
,
00000000
00000000
00000000
00000000
,
00000000
00000000
00000000
00000000
,
00001000
00010000
01000000
10000000
00010000
01000000
00100000
10000000
,
00000000
01000000
00010000
00001000
00010000
00000000
00100000
00000000
,
10000000
01000000
00100000
00010000
00100000
10000000
00100000
00010000
,
00000000
10000000
01000000
00100000
00001000
00000000
00011000
00000000
,
00100000
00000000
00001000
00000000
00010000
00000000
00000100
00000000
00001000
00000010
00000000
00000100
00000010
00000000
00001000
00000000
,
00000001
00000000
00000010
00000000
00000100
00000000
00000010
00000000
00000001
00000100
00000000
00000010
00001000
00000000
00000100
00000000
,
00010000
00000000
00001000
00010000
00001000
00000000
00100000
00000000
00010000
00000000
10000000
00000000
00100000
00000000
01000000
00000000
,
00020000
00100000
10030000
10010000
,
11000000
00000000
00000000
10000000
01000000
10000000
01000000
00100000
01000000
00100000
00001000
00100000
,
00001000
00010000
00000100
00010000
00000100
00001000
00000100
00000010
00000001
00001000
00000000
00000000
,
00000001
00000000
00000010
00000100
00000000
00000010
00000000
00001000
00000000
00010000
01000000
00100000
00010000
01000000
00100000
10000000
,
00010000
00000000
10000000
01000000
00010000
00001000
00000010
00000100
00000000
00001000
00000100
00000010
00000001
00000100
00001000
00010000
,
00100000
00000000
01000000
00010000
01000000
00100000
10000000
01000000
00000000
10000000
01000000
00100000
00001000
00010000
00001000
00000010
,
00000100
00000000
00001000
00000001
00000000
00000100
00000010
00002000
00000000
00000000
00000000
00003001
00000010
00000100
00001000
00000010
,
00000200
00000000
00000010
00000320
00000000
00002030
00000000
00003002
,
00000000
00001003
00000001
00000100
00000001
00000100
00001000
00000100
,
00002000
00000000
00023000
00230000
,
02300000
00000000
00000000
03020000
00000000
00000000
00000000
00000000
,
10030000
00000000
00010000
00100000
01000000
10000000
00100000
01000000
,
00000000
00100000
10000000
01000000
00100000
00000000
00001000
00020000
,
00000000
00000000
00000000
00030000
,
00022000
00000000
00000000
00033000
,
00001000
00010000
00000010
00001000
00000000
00000010
00000100
00000001
,
00000000
00000010
00000100
00001000
00000000
00010000
00100000
01000000
,
00000000
00100000
00001000
00010000
00000000
00000010
00010000
00001000
,
00000000
01000000
00001000
00010000
00000000
00001000
00010000
00001000
,
00021000
00030100
00012000
01003000
,
00021000
00030010
00012000
00103000
,
00001000
00000000
00010000
00000000
00000010
00000000
00001000
00000000
00000001
00001000
00000001
00001000
00000001
00001000
00000001
00002000
,
00000002
00000000
00000000
00003003
,
00000001
00000000
00000100
00000110
00000000
00001010
00000000
00011000
,
00000000
00001000
00100000
00010000
00100000
00001000
00010000
00001000
,
01000000
00000000
00010000
01000000
10000000
01000000
00100000
10000000
,
00000000
00000000
01000000
00000000
00100000
00000000
00010000
00000000
10000000
00000000
00100000
01000000
00100000
00000000
10000000
00000000
,
01000000
00000000
00100000
00001000
00010000
00001000
01000000
00001000
,
00000000
00010000
00001000
00000010
00000100
00000010
00000001
00001000
,
00001001
00000000
00000010
00000110
00000000
00011000
00000000
01100000
,
00000000
00000000
00100000
00000000
01000000
00000000
10000000
00000000
00010000
10000000
00010000
10000000
00020000
00000000
00000000
00000000
,
10030000
00000000
00100000
10100000
00000000
01100000
00000000
01010000
,
00000000
00001000
01000000
00010000
00001000
00010000
01000000
00001000
,
00010000
00000000
00001000
00011000
00000000
00010010
00000000
00001010
,
00000000
00000000
00000010
00000000
00000100
00000000
00000001
00000000
00001000
00000000
00000100
00000000
00000010
00000100
00000010
00000100
,
00000010
00000000
00000001
00000100
00000010
00000100
00001000
00010000
,
00000000
00100000
01000000
00100000
10000000
00000000
01000000
00000000
,
00100000
00000000
00010000
01010000
00000000
01100000
00000000
10100000
,
00000000
00000000
10010000
00000000
10000000
00000000
00100000
00000000
01000000
00010000
01000000
00010000
00100000
00000000
00000000
00000000
,
00001000
00010000
00001000
00100000
00000000
00001000
00010000
00000010
00000000
00001000
00000010
00000100
00000001
00000010
00000100
00000010
,
00000001
00000100
00000010
00001000
00000000
00000001
00000010
00000100
00000000
00001000
00000010
00000100
00000001
00000010
00000100
00010000
,
00001000
00010000
01000000
10000000
00000000
01000000
00010000
00001000
00000000
00000100
00001000
00010000
01000000
10000000
01000000
00010000
,
00001000
00000000
00010000
00000000
00001000
00100000
00010000
00000000
10000000
00010000
10000000
00000000
00100000
01000000
00100000
01000000
00100000
00000000
00000000
10000000
00000000
00000000
01000000
00000000
00000000
00100000
00000000
00000000
00001000
00000000
00001000
00000000
,
00010000
00001000
00000000
00000010
00000100
00000000
00010000
00001000
,
00000000
00000010
00000100
00000000
00010000
00001000
00010000
00000000
,
00001000
00010000
00000000
01000000
00100000
00000000
00001000
00010000
,
00000000
01000000
00100000
00000000
00001000
00010000
00001000
00000000
,
00100000
00010000
10000000
00100000
01000000
00010000
00100000
00001000
,
00100000
00010000
10000000
00100000
01000000
00100000
10000000
01000000
,
00100000
00010000
00100000
00000000
00001000
00010000
00001000
00000000
00010000
00000100
00010000
00000000
00000010
00001000
00000010
00000000
,
00000100
00000001
00000100
00000001
00000010
00000001
00000010
00000100
00000010
00000001
00000100
00001000
,
00020000
00000000
00000000
00032000
00000000
00000000
00000000
00000000
,
00000000
00000000
00000000
00003000
,
01000000
00000000
00001000
00000000
00100000
00000000
00010000
00000000
01000000
00100000
01000000
00100000
01000000
00000000
00010000
00000000
,
00000000
00100000
00202000
00000000
00000000
00000000
00303000
00000000
,
00001000
00000000
00010000
00010010
00000000
00001010
00000000
00000101
,
00000000
00000000
00000001
00000000
00000010
00000000
00001000
00000000
00010000
00001000
00010000
00001000
00020000
00000000
00000000
00000000
,
00031000
00000000
00010000
01000000
10000000
00010000
01000000
00100000
,
00000000
00000000
10000000
00000000
00100000
00000000
01000000
00000000
00010000
00000000
01000000
00100000
01000000
00000000
00001000
00000000
,
00010000
00000000
00001000
00010000
00100000
01000000
00010000
00001000
,
00000000
00000010
00000100
00000001
00000010
00001000
00010000
00001000
,
00011000
00000000
00001000
00101000
00000000
00001000
00010000
00000100
,
00001000
00000010
00000100
00000001
00000000
00000000
00001000
00000100
00000010
00000200
00000000
00000000
,
00001300
00000000
00000001
00000101
00000000
00001010
00000000
00000011
,
00000000
00000001
00000010
00000100
00010000
00001000
00100000
01000000
,
10000000
00000000
00100000
01100000
00000000
01010000
00000000
00011000
,
00001000
00100000
00001000
00010000
00000100
00001000
00000010
00010000
,
00001000
00000000
00010000
01000000
00010000
00001000
00000010
00001000
,
00000000
00010000
01000000
00010000
00002000
00000000
00013000
00000000
,
00011000
00000000
00010000
00011000
00000000
00101000
00000000
00011000
,
00000000
00001000
00010000
00000100
00001000
00000100
00000020
00000000
,
00000031
00000000
00000100
00001000
00000100
00000001
00000010
00000100
,
00000000
00010000
00011000
00000000
00100000
00010000
02000000
00000000
,
03001000
00010000
00001000
01000000
00010000
00100000
00001000
00010000
,
00000100
00000000
00001000
00000000
00000010
00000000
00010000
00000000
00001000
00010000
00001000
00010000
00001000
00010000
00001000
00010000
,
00001000
00000000
00000000
00000000
;

//--------------- dance-double - Fred-104 ----------------
#NOTEDATA:;
#STEPSTYPE:dance-double;
#DESCRIPTION:Fred-104;
#DIFFICULTY:Hard;
#METER:18;
#CREDIT:Fred-104;
#NOTES:
00000000
00000000
00000000
00000000
,
00000000
00000000
00000000
00000000
,
00000000
00000000
00000000
00000000
,
00000000
00000000
00000000
00000000
,
00000000
00000000
00000000
00000000
,
00000000
00000000
00000000
00000000
,
00000000
00000000
00000000
00000000
,
00000000
00000000
00000000
00000000
,
00000000
00000000
00000000
00000000
,
00000001
00000000
00000100
00000010
00001000
00000000
00000100
00000000
00000010
00000000
00000001
00000100
00000010
00000000
00000001
00000000
,
00000010
00000000
00001000
00000001
00000100
00000000
00000010
00000000
00010000
00000000
00000100
00001000
00000100
00000000
00010000
00000000
,
00001000
00000000
00100000
00010000
10000000
00000000
00100000
00000000
01000000
00000000
10000000
01000000
00010000
00000000
10000000
00000000
,
00100000
10000000
00100000
00000000
01000000
00010000
01000000
00000000
00010000
00000000
10000000
01000000
00100000
00000000
00010000
00000000
,
01000000
00000000
00001000
00010000
00001000
00000000
00100000
00000000
00001000
00010000
00000000
00010000
00000100
00000000
00001000
00000010
,
00000100
00000000
00000001
00000010
00000100
00000000
00000010
00000000
00000001
00000100
00000000
00000100
00000010
00000000
00001000
00000100
,
00001000
00000000
00000001
00000100
00000001
00000000
00001000
00000010
00010000
00001000
00010000
00001000
00100000
00010000
01000000
00001000
,
00020000
00000100
01030000
00011000
,
00010100
00000000
00000000
00000000
00000000
00000000
00000000
00000000
00000000
00000000
00000000
00000000
00010000
00000000
00000000
00001000
00000000
00000000
00010000
00000000
00000000
00001000
00000000
00000000
00010000
00000000
00000000
00000000
00001000
00000000
00000000
00000000
00000010
00000000
00000000
00000000
00000001
00000000
00000000
00000000
00001000
00000000
00000000
00000000
00000001
00000000
00000000
00000000
,
00000010
00000100
00000010
00001000
00010000
01000000
00100000
00010000
10000000
00010000
00000000
00000000
,
00011000
00000000
00001000
00002000
00000000
00100000
00000000
00000010
00003000
00010000
00001000
00100000
00010000
10000000
00100000
01000000
,
00010000
00000000
00000000
00000000
10000000
01000000
10000000
01000000
00100000
00000000
00010000
00000000
00100000
01000000
00100000
00000000
00000000
00000000
10000000
00000000
00100000
00000000
00010000
00000000
10000000
00000000
00100000
00000000
01000000
00000000
00001000
00000000
,
00010000
00000000
00000000
00000000
00010000
00001000
00010000
00001000
00010000
00000000
00001000
00000000
00000010
00000000
00000001
00000000
00000000
00000000
00001000
00000000
00000100
00000000
00000100
00000000
00000001
00000000
00000010
00000000
00000010
00000000
00001000
00000000
,
00000001
00000000
00000100
00000010
00000000
00000100
00001000
00020000
00000000
00000000
00000000
00130000
01000000
01000000
00010000
10000000
,
00020000
00000000
01000000
01000000
00000000
00000100
00000000
00130000
,
00000000
00010000
00001000
00000100
00000010
00000001
00000100
00001000
,
00020000
00000000
00230000
20300000
,
32000000
00000000
00000000
00020000
00000000
00000000
03030000
00000000
,
00002000
00000000
00003010
00000001
00000100
00001000
00010000
02000000
,
00000000
13000000
00100000
01000000
00020000
00000000
10030000
00020000
,
00000000
00000000
00000000
00030000
,
00022000
00000000
00000000
00033000
,
00001000
00010000
01000000
20000000
00000000
30010000
01000000
00200000
,
00000000
10300000
01000000
00200000
00000000
00301000
00010000
00000200
,
00000000
00001300
00000001
00000200
00000000
00000301
00000010
00002000
,
00000000
00013000
01000000
00200000
00000000
00310000
01000000
00010000
,
10010000
00000000
00020000
00000000
20030000
00000000
32000000
03000000
01100000
00000000
00200000
00000000
00320000
00000000
02030000
03000000
,
01020000
00000000
02030000
00000000
03002000
00000000
00023000
00030000
00020100
00000000
00030200
00000000
00002300
00000000
00003002
00000003
,
00000011
00000000
00000001
00000000
00001010
00000000
00001000
00000000
00000001
00000100
00000010
00000100
00000001
00001000
00000100
00020000
,
00002000
00000000
00000000
00033000
,
00011000
00000000
00001000
00101000
00000000
00010010
00000000
00011000
,
00000000
00000000
00001000
00000000
00010000
00000000
00000100
00000000
00010000
00000100
00001000
00000100
00010000
00001000
01000000
00010000
,
10000000
00000000
00000000
00000000
00010000
00100000
00010000
00100000
01000000
00000000
10000000
01000000
10000000
01000000
00100000
00000000
,
00000000
00000000
00010000
00000000
01000000
00000000
00001000
00000000
00010000
00000000
00000100
00001000
00000100
00000000
00010000
00000000
,
00000010
00000000
00000000
00000000
00001000
00000100
00001000
00000100
00000010
00000000
00000001
00000000
00000100
00000000
00000110
00000000
,
00000000
00011000
00001000
01000000
00100000
00100000
10000000
10000000
,
11000000
00000000
00100000
00110000
00000000
00001000
00010000
00010010
,
00000000
00000000
00001000
00000000
00010000
00000000
00000100
00000000
00001000
00000010
00000100
00000010
00001000
00000010
00000100
00000010
,
00001000
00000000
00000001
00000011
00000000
00001010
00000000
00000011
,
00000000
00000000
00001000
00000100
00000010
00000000
00000001
00000100
00000010
00000000
00001000
00000100
00000010
00000000
00000100
00000000
,
00001100
00000000
00010000
00011000
00000000
01001000
00000000
00011000
,
00000000
00000000
00010100
00000000
00010000
00000000
00001000
00000000
00100000
00000000
00010000
01000000
00100000
10000000
00100000
01000000
,
00010000
00000000
00000000
00000000
10000000
00100000
01000000
00100000
10000000
00000000
01000000
00000000
00100000
00000000
00110000
00000000
,
00000000
00000000
01000000
00010000
00100000
00000000
00001000
00010000
00000010
00000000
00001000
00000000
00000100
00000000
00010000
00000000
,
00011000
00000000
00010000
00011000
00000000
00101000
00000000
00010010
,
00000000
00000000
00011000
00000000
00001000
00000000
00100000
00000000
00001000
00010000
00000010
00001000
00000100
00000000
00010000
00000000
,
00001000
00010000
00100000
02000000
00000000
03001000
00010000
00200000
00000000
01300000
00001000
00010000
00000100
00001000
00000100
00000010
,
00000001
00000100
00001000
00020000
00000000
00130000
01000000
00020000
00000000
00130000
01000000
00100000
00010000
10000000
01000000
00100000
,
00010000
01000000
00001000
00020000
00000000
00030010
00001000
00000200
00000000
00010300
00001000
00010000
00000100
00001000
00000010
00000100
,
00000001
00000000
00000000
00000000
00000010
00000000
00000000
00000000
00000001
00000000
00000100
00000000
00000001
00000000
00000100
00000000
00000010
00000000
00001000
00000000
00000010
00000000
00001000
00000000
00000100
00000000
00010000
00000000
00001000
00000000
00010000
00000000
00002000
00003000
00000000
00000000
00000000
00000000
00000200
00000300
00000000
00000000
00000000
00000000
00020000
00030000
00000000
00000000
00000000
00000000
02000000
03000000
00000000
00000000
00000000
00000000
00002000
00003000
00000000
00000000
00002000
00003000
00000000
00000000
,
00010000
00001000
00010000
00001000
00100000
00000000
00010000
10000000
01000000
10000000
00100000
00000000
10000000
01000000
00100000
01000000
,
10000000
00000000
00010000
01000000
00100000
01000000
00010000
00000000
10000000
01000000
00100000
00000000
00010000
01000000
00100000
00000000
,
10000000
00100000
01000000
00010000
00100000
00000000
00001000
00010000
00001000
00010000
00000100
00000000
00001000
00000010
00000100
00000001
,
00001000
00000000
00000001
00000100
00000001
00000100
00000010
00000000
00001000
00000100
00000010
00000001
00000010
00000100
00001000
00000000
,
00000100
00010000
00001000
00000000
00100000
00010000
01000000
00000000
00001000
00010000
00000010
00000000
00001000
00000100
00010000
00000000
,
00001000
00100000
00010000
01000000
00100000
10000000
00010000
00000000
00100000
00010000
10000000
00100000
01000000
00010000
10000000
00000000
,
01000000
00100000
01000000
00100000
00001000
00010000
00001000
00010000
00000100
00000010
00000100
00000010
00000001
00000100
00000010
00001000
,
00000001
00000010
00000100
00000010
00001000
00010000
01000000
00100000
00010000
10000000
00010000
01000000
,
00002000
00000000
00000000
00023000
00000000
00000000
00000000
00000000
,
00000000
00000000
00000000
00000000
,
00031000
00010000
00000010
00000000
00000100
00000001
00001000
00000000
00000001
00000010
00000100
00001000
00000100
00010000
00001000
00000000
,
00000000
00011000
02002000
00000000
00000000
00000000
03003000
00000000
,
10100000
00000000
01010000
01001000
00000000
00011000
00000000
00001010
,
00000000
00000000
00000101
00000000
00000001
00000000
00001000
00000000
00000001
00000010
00000100
00001000
00000020
00000000
00000000
00000030
,
00010010
00000000
00000000
00000000
00001000
00010000
00100000
00010000
00001000
00000000
00010000
00001000
00000100
00001000
00010000
00000000
,
00000000
00000000
00011000
00000000
00001000
00000000
00100000
00000000
00010000
00000000
10000000
00010000
01000000
00000000
10000000
00000000
,
01000000
00000000
00000000
00000000
00100000
10000000
01000000
00100000
00010000
00000000
00100000
00001000
00010000
00001000
01000000
00000000
,
00000000
00001000
00010000
00001000
00000010
00000100
00001000
00000001
,
00001001
00000000
00010000
00011000
00000000
00110000
00010000
01000000
,
00100000
00000000
00000000
00000000
10000000
00000000
00000000
00000000
01000000
00000000
00000000
00000000
00010000
00000000
00000000
00000000
00001000
00000000
00000000
00000000
00000010
00000000
00000000
00000000
00000001
00000000
00000000
00000000
00000100
00000000
00000000
00000000
00001000
00000000
00000000
00000000
00020000
00000000
00000000
00000000
00000000
00000000
00000000
00000000
00000000
00030000
00000000
00000000
,
00011000
00000000
00001000
00101000
00000000
00010010
00000000
01001000
,
00000000
00000000
00010100
00000000
00010000
00000000
00001000
00000000
00100000
00000000
00010000
00000000
01000000
00100000
10000000
00100000
,
01000000
00000000
00010000
00110000
00000000
10100000
00000000
00110000
,
00010000
00000000
01000000
00000000
00100000
00000000
10000000
00000000
01000000
00000000
00100000
00010000
01000000
00000000
00100000
10000000
,
01000000
00000000
00000000
00000000
00100000
00001000
00010000
00001000
00100000
00000000
00001000
00010000
00000100
00001000
00000010
00000000
,
00000000
00000000
00000100
00000000
00000001
00000000
00000010
00000000
00001000
00000000
00000010
00000000
00000001
00000000
00000100
00000010
,
00001000
00000001
00000100
00000110
00000000
00011000
00001000
00101000
,
00000000
00000000
00010000
00000000
01000000
00000000
00010000
00000000
00100000
01000000
10000000
00010000
01000000
00100000
10000000
01000000
,
00100000
00000000
00000000
00000000
00100000
00010000
00100000
00001000
00010000
00000100
00001000
00000010
00010000
00001000
00100000
00000000
,
00000000
00000000
00001000
00000000
00011000
00000000
00000000
00000000
01000000
00000000
00001000
00010000
00002000
00000000
00000000
00000000
,
02003000
03100000
10000000
00200000
01300000
00010000
10000000
01000000
,
00100000
00010000
10000000
01000000
10000000
00010000
01000000
00001000
00010000
00000100
00001000
00000100
00000010
00000001
00001000
00000001
,
00000100
00000000
00000000
00000000
;

//--------------- dance-double - Fred-104† ----------------
#NOTEDATA:;
#STEPSTYPE:dance-double;
#DESCRIPTION:Fred-104†;
#DIFFICULTY:Challenge;
#METER:19;
#CREDIT:Fred-104†;
#NOTES:
00000000
00000000
00000000
00000000
,
00000000
00000000
00000000
00000000
,
00000000
00000000
00000000
00000000
,
00001000
00001010
00000000
00001001
00000000
00000001
00000100
00000220
,
00000000
00000330
00010000
00001000
,
00001000
00101000
00000000
00110000
00000000
00010000
10000000
20020000
,
00000000
00000000
30030000
00000000
,
10000000
11000000
00000000
01100000
00000000
00100000
00001000
00022000
,
00000000
00033000
00002000
00003002
,
00001003
00000000
00000100
00000010
00000001
00000000
00001000
00000000
00000001
00000100
00000000
00000010
00000100
00000000
00000001
00000000
,
00001000
00000000
00000010
00010000
00001000
00000000
00010000
00000000
00000100
00001000
00000000
00000100
00010000
00000000
00000100
00000000
,
00001000
00000000
00000001
00000010
00000100
00000000
00000010
00000000
00001000
00010000
00000000
01000000
00100000
00000000
00010000
00000000
,
10000000
00000000
00100000
01000000
00010000
00000000
10000000
00000000
01000000
00100000
00010000
10000000
00010000
01000000
00100000
10000000
,
00010000
00000000
01000000
00001000
00010000
00000000
00001000
00100000
00001000
00010000
00000000
00000100
00001000
00000000
00000001
00001000
,
00000100
00000000
00001000
00000010
00000100
00000000
00000010
00001000
00000001
00000010
00000000
00000100
00000010
00000000
00000001
00001000
,
00000001
00000010
00000100
00000010
00000001
00000100
00001000
00000000
00010000
00001000
01000000
00100000
10000000
00010000
01000000
00000000
,
00010000
00100000
01000000
10000000
01000000
00010000
00001000
00000010
00000100
00001000
00000001
00000100
00001000
00010000
00001000
00000100
,
00000001
00000000
00000000
00000000
00000000
00000000
00000000
00000000
00000000
00000000
00000000
00000000
00000001
00000000
00000000
00000010
00000000
00000000
00000100
00000000
00000000
00001000
00000000
00000000
00000001
00000000
00000000
00000000
00000010
00000000
00000000
00000000
00001000
00000000
00000000
00000000
00010000
00000000
00000000
00000000
01000000
00000000
00000000
00000000
10000000
00000000
00000000
00000000
,
00100000
00010000
00001000
00000100
00000001
00000010
00001000
00010000
01000000
10000000
00010000
01000000
,
00100000
00000000
10000000
01000000
00000000
00010000
00000000
00001000
00000000
00010000
00100000
10000000
00010000
01000000
00100000
10000000
,
01000000
00000000
00000000
00000000
00100000
00010000
01000000
00001000
00010000
00000000
00000010
00001000
00000100
00010000
00001000
00000000
00000000
00000000
00010000
00000000
00001000
00000000
00000010
00000000
00000001
00000000
00000100
00000000
00001000
00000000
00010000
00000000
,
00001000
00000000
00000000
00000000
00001000
00010000
00100000
10000000
00010000
00000000
01000000
00000000
00100000
00000000
10000000
00000000
00000000
00000000
01000000
00000000
00100000
00000000
00001000
00000000
00010000
00000000
00000100
00000000
00000010
00000000
00000001
00000000
,
00001000
00000000
00000001
00000100
00000000
00001000
00000100
00000002
00000000
00000000
00000000
00001003
00000001
00000100
00000010
00001000
,
00000200
00000000
00001000
00001000
00000000
00000001
00000000
00001300
,
00000000
00000000
00000001
00000010
00001000
00000000
00001000
00000000
00010000
00000000
00010000
01000000
10000000
00000000
00010000
00000000
,
02000000
00000000
03002000
00023000
,
00030020
00000000
00000000
00000200
00000000
00000000
00000330
00000000
,
00000001
00000000
00000000
00000000
00001000
00000100
00000010
00000001
00001000
00000000
00000010
00010000
00001000
01000000
00100000
00000000
,
00000000
10000000
01000000
00010000
00001000
00000000
00000010
00000002
,
00000000
00000000
00000000
00000003
,
00002002
00000000
00000000
00003003
,
00000001
00000000
00001000
00000100
00000010
00000000
00000001
00000000
00000000
00000000
00000100
00000010
00000001
00000000
00000010
00000000
,
00000000
00000000
00001000
00000001
00000100
00000000
00000010
00000000
00000000
00000000
00010000
00001000
00100000
00000000
00010000
00000000
,
00000000
00000000
10000000
01000000
00010000
00000000
01000000
00000000
00000000
00000000
10000000
00100000
01000000
00000000
00010000
00000000
,
00000000
00000000
00100000
00001000
00010000
00000000
00000010
00000000
00000000
00000000
00010000
00001000
00100000
00000000
00010000
00000000
,
00110000
00000000
00010000
10000000
01000000
00000000
00100000
00010000
10000000
00000000
00100000
10000000
01000000
10000000
00010000
01000000
,
00100000
00000000
01000000
00001000
00010000
00000000
00001000
00000010
00000001
00000000
00000010
00000100
00001000
00000001
00001000
00000001
,
00000100
00000010
00000100
00001000
00010000
00100000
01000000
00010000
00100000
01000000
10000000
00100000
01000000
10000000
01000000
00010000
,
20000000
00000000
00000000
30000000
,
10100000
00000000
00010000
01010000
00000000
11000000
00000000
00110000
,
00000000
00000000
10010000
00000000
10000000
00000000
00100000
00000000
01000000
00001000
00010000
00001000
00000010
00000001
00000010
00000100
,
00001000
00000000
00000000
00000000
00000001
00000100
00001000
00010000
00001000
00000000
00010000
01000000
10000000
00010000
10000000
00000000
,
00000000
00000000
00000000
00010000
00000000
00000000
01000000
00000000
00000000
00100000
00000000
00000000
10000000
00000000
00000000
01000000
00100000
00010000
00100000
00000000
00000000
00001000
00000000
00000000
,
00011000
00000000
00000000
00000000
00010000
00001000
00000100
00000001
00001000
00000000
00000001
00000010
00000100
00010000
00001000
00000000
,
00000000
00000000
00100000
00000000
01000000
00000000
10000000
00000000
00010000
00000000
01000000
00001000
00010000
00000000
00000100
00000000
,
00001100
00000000
00000100
00000110
00000000
00000011
00000001
00001001
,
00000000
00000000
00001000
00000000
00000001
00000000
00000100
00000000
00000001
00000010
00000100
00001000
00010000
00100000
01000000
10000000
,
00010000
00000000
00110000
00110000
00000000
10100000
00000000
01010000
,
00000000
00000000
00011000
00000000
00010000
00000000
00000100
00001000
00000001
00000000
00000100
00000010
00001000
00000000
00000001
00000000
,
00000011
00000000
00001010
00001010
00000000
00010010
00000000
00011000
,
00000000
00000000
00000000
00000000
00000000
00000000
00100000
00000000
00000000
00000000
00000000
00000000
00010000
00000000
00000000
00000000
00000000
00000000
01000000
00000000
00000000
00000000
00000000
00000000
00001000
00000000
00000000
00000000
00000000
00000000
00010000
00000000
00000100
00000000
00001000
00000000
00000100
00000000
00000000
00000010
00000000
00000000
00000001
00000000
00000000
00001000
00000000
00000000
,
00000001
00000000
00000000
00000000
00001000
00000100
00000010
00000100
00001000
00000000
00010000
00100000
01000000
00100000
00010000
00000000
,
00000000
00011000
00001000
01000000
01100000
00000000
10010000
00000000
,
11000000
00000000
01100000
01100000
00000000
00011000
00000000
00000110
,
00000000
00000000
00001001
00000000
00000001
00000000
00000100
00000000
00000001
00001000
00000010
00000100
00000001
00001000
00000100
00000010
,
00000001
00000010
00001000
00020000
00000000
01030000
00100000
00020000
00000000
01030000
00100000
10000000
00010000
00100000
01000000
00100000
,
00010000
10000000
01000000
00020000
00000000
00031000
00000010
00000200
00000000
00001300
00000001
00000100
00000010
00001000
00000001
00000010
,
00000001
00000100
00001000
00020000
00000000
00130000
10000000
00020000
00000000
10030000
00010000
00100000
00010000
01000000
00100000
10000000
,
00010000
00000000
00000000
00000000
10000000
00000000
01000000
00000000
00100000
00000000
00010000
00000000
01000000
00000000
00001000
00000000
00010000
00000000
00000100
00000000
00001000
00000000
00000100
00000000
00000010
00000000
00000001
00000000
00001000
00000000
00000001
00000000
00002000
00003000
00000000
00000000
00000000
00000000
00000002
00000003
00000000
00000000
00000000
00000000
00020000
00030000
00000000
00000000
00000000
00000000
00002000
00003000
00000000
00000000
00000000
00000000
20000000
30000000
00000000
00000000
00002000
00003000
00000000
00000000
,
00010000
00000100
00000010
00000001
00001000
00000000
00000001
00001000
00000010
00010000
00001000
00000000
00010000
00000010
00001000
00000010
,
00010000
00000000
00001000
00100000
00010000
10000000
00010000
00000000
10000000
01000000
00100000
00010000
10000000
00100000
01000000
00010000
,
10000000
01000000
00100000
00001000
00010000
00000000
00001000
00000010
00000100
00001000
00000100
00000000
00000010
00000001
00001000
00000010
,
00000100
00000000
00001000
00010000
00100000
01000000
00100000
00000000
10000000
00010000
01000000
00010000
10000000
01000000
00100000
00010000
,
10000000
00100000
10000000
00010000
00100000
00010000
10000000
01000000
10000000
00010000
01000000
00001000
00010000
00001000
00000010
00000100
,
00001000
00000010
00001000
00000001
00000100
00000010
00001000
00000001
00000010
00000100
00001000
00000001
00000100
00000010
00000100
00001000
,
00010000
00100000
01000000
00010000
01000000
00100000
10000000
00010000
00100000
01000000
10000000
00010000
00100000
01000000
00100000
00001000
,
00010000
00001000
00000010
00000001
00000100
00001000
00010000
00100000
10000000
01000000
00010000
00001000
,
00010000
00000000
00001000
00022000
00000000
00000000
00000000
00000000
,
00000000
00000000
00000000
00033000
,
00010000
00000010
00001000
00000100
00010000
00001000
00100000
00010000
01000000
00001000
00010000
00000100
00001000
00000010
00010000
00000000
,
00000000
00011000
00022000
00000000
00000000
00000000
00033000
00000000
,
00001001
00000000
00001001
00001001
00000000
00011000
00000000
10010000
,
00000000
00000000
00010000
00000000
10000000
00000000
00010000
00000000
10000000
01000000
00100000
00001000
00020000
00000000
00000000
00030000
,
00011000
00000000
00000000
00000000
00010000
00000100
00001000
00000010
00010000
00000000
00001000
00100000
00010000
01000000
00001000
00000000
,
00000000
00000000
00000000
00010000
00000000
00000000
00001000
00000000
00000000
00000010
00000000
00000000
00000001
00000000
00000000
00001000
00000001
00000100
00000001
00000000
00000000
00000100
00000000
00000000
,
00000110
00000000
00000000
00000000
00001000
00000100
00000010
00000001
00000100
00000000
00001000
00010000
00100000
10000000
00010000
00000000
,
00000000
01000000
00100000
10000000
01000000
00100000
00001000
00010000
,
00011000
00000000
00101000
10010000
00000000
11000000
01000000
00010000
,
00001000
00000000
00000000
00000000
00000010
00000000
00000000
00000000
00001000
00000000
00000000
00000000
00010000
00000000
00000000
00000000
00100000
00000000
00000000
00000000
00010000
00000000
00000000
00000000
00001000
00000000
00000000
00000000
00000010
00000000
00000000
00000000
00001000
00000000
00000000
00000000
00022000
00000000
00000000
00000000
00000000
00000000
00000000
00000000
00000000
00033000
00000000
00000000
,
00010010
00000000
00001010
00001010
00000000
00000101
00000000
00001100
,
00000000
00000000
00000001
00000000
00000100
00000000
00000010
00000000
00001000
00000010
00000100
00001000
00000100
00000010
00001000
00000001
,
00000010
00000000
00000011
00001010
00000000
00011000
00000000
01010000
,
11000000
00000000
00000000
00000000
00000000
00000000
10000000
00000000
00000000
00000000
00000000
00000000
00010000
00000000
00000000
00000000
00000000
00000000
01000000
00000000
00000000
00000000
00000000
00000000
01000000
00000000
00000000
00000000
00000000
00000000
00010000
00000000
00100000
00000000
01000000
00000000
10000000
00000000
00000000
00100000
00000000
00000000
01000000
00000000
00000000
00010000
00000000
00000000
,
10000000
00000000
00000000
00000000
00010000
01000000
10000000
01000000
00010000
00000000
01000000
00001000
00010000
00001000
00000010
00000000
,
00000000
00000000
00000001
00000000
00000010
00000000
00000100
00000000
00001000
00000000
00000001
00000100
00000010
00000000
00001000
00000000
,
00001010
00000000
00001100
00000110
00000000
00000101
00000000
00001001
,
00000000
00000000
00001010
00000000
00001000
00000000
00000001
00000000
00000100
00000001
00000010
00000100
00001000
00000001
00000100
00000010
,
00001000
00000000
00000010
00000000
00010000
00001000
00100000
00010000
01000000
00001000
00010000
00000100
00001000
00000010
00010000
00000000
,
00000000
00000000
00001000
00000000
00011000
00000000
00000000
00000000
01000000
00000000
00010000
10000000
00200000
00000000
00000000
00000000
,
20300000
31000000
00100000
00002000
00023000
00030100
00000010
00000001
,
00001000
00000001
00000100
00000010
00000100
00001000
00010000
00100000
10000000
00010000
00100000
10000000
00100000
01000000
00100000
00010000
,
10010000
00000000
00000000
00000000
;
