#TITLE:ADAMANT;
#ARTIST:BEMANI Sound Team "L.E.D.-G";
#ARTISTTRANSLIT:L.E.D.-G;
#GENRE:HARDCORE;
#BANNER:ADAMANT.png;
#BACKGROUND:ADAMANT-bg.png;
#CDTITLE:./CDTitles/bm IIDX 32 Pinky Crush.png;
#MUSIC:ADAMANT.ogg;
#SAMPLESTART:50.396;
#SAMPLELENGTH:15;
#BPMS:0=100,36=200,64=100,65.5=200,94=100,95.5=200,128=100,134=200,294=100,295.5=200,372=100;
#STOPS:65.5=0.15,95.5=0.075,95.750=0.075,295.5=0.15;
#TIMESIGNATURES:0=4=4,64=2=4,66=4=4,94=2=4,96=4=4,132=6=4,138=4=4,294=2=4,296=4=4;
#BGSTAGE:14;

//--------------- dance-single - Fred-104 ----------------
#NOTES:
     dance-single:
     Fred-104:
     Beginner:
     3:
     :
0000
0000
0000
0000
,
0000
0000
0000
0000
,
0000
0000
0000
0000
,
0000
0000
0000
0000
,
0000
0000
0000
0000
,
1000
0000
0000
0000
,
0000
0000
0000
0000
,
0001
0000
0000
0000
,
0000
0000
0000
0000
,
1000
0000
0000
0000
,
0000
0000
0000
0000
,
0001
0000
0000
0000
,
0000
0000
0000
0000
,
1000
0000
0000
0000
,
0000
0000
0000
0000
,
0001
0000
0000
0000
,
0000
0000
1000
0000
,
0000
0000
0000
0000
,
0000
0000
0001
0000
,
0000
0000
0000
0000
,
0000
0000
0010
0000
,
0000
0000
0000
0000
,
0000
0000
0100
0000
,
0000
0000
1000
0000
,
0001
0000
0000
0000
,
1000
0000
0000
0000
,
0001
0000
0000
0000
,
0100
0000
0000
0000
,
0010
0000
0000
0000
,
0100
0000
0000
0000
,
0001
0000
0000
0000
,
1000
0000
0000
0000
,
1001
0000
0000
0000
,
0000
0000
0000
0000
,
0000
0000
0001
0000
,
0000
0000
1000
0000
,
0000
0000
0001
0000
,
0000
0000
0100
0000
,
0000
0000
0001
0000
,
0000
0000
1000
0000
,
0000
0000
0010
0000
,
0000
0000
0100
0000
,
0000
0000
0001
0000
,
0000
0000
1000
0000
,
0000
0000
0100
0000
,
0000
0000
1000
0000
,
0000
0000
0001
0000
,
0000
0000
0001
0000
,
0000
0000
1000
0000
,
0000
0000
1001
0000
,
0000
0000
0001
0000
,
0000
0000
1000
0000
,
0000
0000
0010
0000
,
0000
0000
1000
0000
,
0000
0000
0100
0000
,
0000
0000
0010
0000
,
0000
0000
0001
0000
,
0000
0000
1000
0000
,
0000
0000
0001
0000
,
0000
0000
0010
0000
,
0000
0000
1000
0000
,
0000
0000
0100
0000
,
0000
0000
0001
0000
,
0000
0000
1000
0000
,
0000
0000
0100
0000
,
0100
0000
0010
0000
,
0010
0000
1001
0000
,
0000
0000
0000
0000
,
0000
0000
0000
0000
,
0000
0000
0000
0000
,
0000
0000
0001
0000
,
0000
0000
1000
0000
,
0000
0000
0001
0000
,
0001
0000
1001
0000
,
1000
0000
0000
0010
,
0000
0000
1000
0000
,
0001
0000
0000
0010
,
0000
0000
0100
0000
,
0100
0000
0000
1000
,
0000
0000
0001
0000
,
1001
0000
0000
0000
,
0000
0000
0000
0000
,
0001
0000
0000
1000
,
0000
0000
0010
0000
,
1000
0000
0000
0001
,
0000
0000
1000
0000
,
1001
0000
0000
0000
,
0000
0000
0000
0000
,
0001
0000
0000
0000
,
1000
0000
0000
0000
,
0001
0000
0000
0000
,
1000
0000
0000
0000
,
0001
0000
0000
0000
,
1001
0000
0000
0000
;

//--------------- dance-single - Fred-104 ----------------
#NOTES:
     dance-single:
     Fred-104:
     Easy:
     8:
     :
0000
0000
0000
0000
,
0000
0000
0000
0000
,
0000
0000
0000
0000
,
0000
0000
0000
0000
,
0000
0000
0000
0000
,
2000
0000
0000
3001
,
0200
0000
0310
1000
,
0002
0000
0000
0003
,
2000
3000
0200
0300
0020
0030
0002
0003
,
1001
1000
1000
1000
,
0001
0001
0001
0001
,
0100
0100
0100
0100
,
0010
0000
0010
0000
0010
0100
0010
0000
,
1000
1000
0100
0100
,
0010
0010
0001
0001
,
1000
1000
0001
0001
,
2002
0000
0000
3003
1000
0000
1000
0000
,
0010
1000
0001
0010
,
0010
0000
0100
0100
,
1000
1000
0001
0001
,
1000
0010
1000
0000
0001
0000
0001
0000
,
0010
0100
1000
0001
,
1000
0000
0001
0001
,
1000
0000
1000
0000
2002
0000
0000
3003
,
0001
0000
0000
0010
0000
0000
0100
0000
,
1000
0000
0001
1000
,
0010
0000
0100
0000
0000
0100
0000
0000
,
0010
0000
0000
0010
0000
0000
0100
0000
,
0001
0000
0000
1000
0000
0000
0100
0000
,
0010
0010
0001
1000
,
1001
0000
0110
0000
,
0001
0001
1000
1000
,
1001
0000
0000
0000
,
1001
0000
0001
1000
,
0001
1000
0001
0010
,
0100
0100
1000
0010
,
1000
0000
0001
0001
,
1000
0100
0010
0100
,
1000
0000
2000
3000
0010
0000
1000
0000
,
0001
0010
0001
0100
,
0010
0000
0100
0100
,
0001
0001
1000
0001
,
1001
0000
0001
0010
,
0010
0100
0100
0010
,
0001
1000
0010
0010
,
0100
0000
0010
0000
0100
0100
0100
0000
,
1001
1001
0001
0010
,
0001
0010
1000
0100
,
1000
0100
0001
1000
,
0001
1000
1001
0000
,
0000
0000
1000
1000
,
0100
0100
0010
0001
,
1001
0000
0001
0001
,
0100
0010
0100
0001
,
2002
3003
1000
0010
,
1000
0010
0001
0100
,
0001
0100
1000
1000
,
0001
0001
1000
0001
,
2002
3003
0001
0010
,
0100
1000
0010
1000
,
0001
0100
0010
0100
,
0001
1000
0100
0100
,
0100
0110
0001
0010
,
0001
0010
1000
0100
,
1000
0100
0001
1000
,
0100
0010
0001
0001
,
1000
1000
1001
0000
,
0000
0000
0000
0000
,
0000
0000
0000
0000
,
0000
0000
0000
0000
,
0000
0000
0001
0010
,
0100
0000
1000
1000
1000
0000
0001
0000
,
0100
0000
0010
0010
0010
0000
0100
0000
,
0010
0000
0100
0000
0220
0000
0000
0330
,
0001
0000
0000
1000
0000
0000
0010
0000
,
0000
1000
0100
0000
0010
0000
0001
0000
,
1000
0000
0000
0010
0000
0000
0100
0000
,
0000
0010
1000
0000
0100
0000
0010
0000
,
0001
0000
0000
1000
0000
0000
0010
0000
,
0000
0100
0001
0000
0010
0000
0100
0000
,
1100
0000
0000
1001
0000
0000
0001
0100
,
0000
0100
0000
0100
0010
0000
0110
0000
,
1000
0000
0000
0001
0000
0000
0100
0000
,
0000
0001
1000
0000
0100
0000
0010
0000
,
0001
0000
0000
0100
0000
0000
0010
0000
,
0000
1000
0010
0000
0100
0000
0100
0000
,
0110
0000
0000
0000
,
0002
0000
2000
3003
,
0001
0001
1000
1000
,
0100
0010
0100
0000
0010
0001
0010
0000
,
0001
0001
0100
0100
,
1000
1000
0010
0010
,
0001
1000
0001
0000
,
2002
3003
0000
0000
;

//--------------- dance-single - Fred-104 ----------------
#NOTES:
     dance-single:
     Fred-104:
     Medium:
     12:
     :
0000
0000
0000
0000
,
0000
0000
0000
0000
,
0000
0000
0000
0000
,
0000
0000
0000
0000
,
0000
0000
0000
0000
,
2000
0000
0000
3200
,
0320
0000
0032
2003
,
3002
0000
0000
0000
,
0203
0000
0320
0000
0230
0000
0302
0003
,
1001
0000
1000
0000
1000
0000
0100
0010
,
0100
0000
0010
0000
0010
0000
0001
1000
,
0001
0000
0100
0000
0100
0000
0010
1000
,
0010
0000
0100
0000
0001
1000
0001
0000
,
1001
0000
1000
0000
1100
0000
0100
0010
,
0001
0011
1000
1010
,
0001
1000
0001
1000
0001
1000
0001
1000
,
0002
0000
0000
0003
1000
0000
0100
0000
,
0010
0001
1000
0000
0010
0000
0100
0000
,
0001
0000
1000
1000
1000
0000
0100
0000
,
0010
0000
0001
0001
0001
0000
0100
0000
,
0010
1000
0010
0000
0100
0000
0001
0000
,
1000
0000
0100
0100
0100
0000
0001
0000
,
0100
1000
0001
0000
0100
0010
0100
0010
,
0100
0010
0100
0010
0200
0000
0000
0300
,
1001
0000
0001
0010
0000
0100
1000
0000
,
0001
1000
0010
0000
1000
0000
0001
0001
,
0001
0010
0100
0000
1000
0010
0000
1000
,
0001
0000
0010
0100
1000
0001
1000
0000
,
0110
0000
0001
1000
0000
0010
1000
0000
,
0100
0010
0001
0000
1000
0010
0100
0000
,
0101
0000
0001
1000
0001
0001
0000
0100
,
0010
1000
0010
1000
0010
1000
0001
0000
,
1001
0000
0000
0110
,
1001
0000
0000
0000
1000
0001
1000
0001
,
1000
0001
1000
0000
0001
0000
0010
0100
,
0000
0100
0000
1000
0001
0000
0100
0001
,
0000
0001
0000
0010
0100
0000
1000
0010
,
0000
0010
0000
1000
0100
0000
0010
0001
,
0000
1000
0001
1000
0010
0000
0100
0001
,
0000
1000
0000
0100
0010
0000
0100
1000
,
0000
0001
0000
0100
0010
0000
1000
0100
,
0000
0010
0001
1000
0001
0100
0001
0100
,
0001
0000
1001
0000
1001
0000
0010
1000
,
0000
0001
0010
0001
0000
0100
0000
0010
,
1000
0010
0100
0000
0001
0000
1000
0100
,
0000
0010
0100
0010
0001
0001
0001
0000
,
0110
0000
1001
0000
1000
0000
0100
0010
,
0000
0001
1000
0010
0000
0100
0000
0010
,
1000
0100
0010
0000
0001
1000
0001
1000
,
0001
1000
0001
1000
1001
0000
0000
0000
,
0000
0000
1001
0001
,
0001
0000
0000
0001
0000
1000
0010
0000
0000
0010
0000
0000
,
0010
0000
0000
0010
0100
0010
0100
0000
0000
0100
0000
0000
,
0100
0000
0000
0100
0000
0001
0010
0000
0000
0010
0000
0000
,
0110
1001
1010
1000
,
1000
0000
0000
1000
0000
0001
0010
0000
0000
0010
0000
0000
,
0010
0000
0000
0010
0001
0010
0001
0000
0000
0001
0000
0000
,
0001
1000
1100
1100
,
0202
0303
1001
0001
,
0010
0000
0010
0100
0000
0000
1000
0000
0000
0001
0000
0000
,
0100
0000
0000
0001
0000
0001
1000
0000
0000
0100
0000
0000
,
0010
0000
0000
0001
0000
0000
1000
0000
1000
0001
0000
0001
,
1000
1001
0001
0010
,
0100
1000
0001
0100
,
0010
1000
0100
0010
,
0001
0000
0000
1000
0000
0000
0001
0000
0001
1000
0000
1000
,
0010
0000
0010
0100
0000
0000
1001
0000
0000
0000
0000
0000
,
0000
0000
0000
0000
,
0000
0000
0000
0000
,
0000
0000
0000
0000
,
0000
0000
1000
1000
,
0100
0000
0010
0010
0001
0000
1000
0000
,
0001
0000
0100
0100
0010
0100
0010
0100
,
0010
0100
0010
0100
0020
0000
0000
0030
,
1000
0100
0000
0010
0001
0000
1000
0010
,
0000
1000
0001
0000
0010
0000
0100
0010
,
0001
1000
0000
0010
1000
0000
0100
0010
,
0000
0100
1000
0000
0001
1000
0001
0000
,
0100
0001
0000
1000
0001
0000
0010
0001
,
0000
1000
0010
0000
0100
0001
0010
0000
,
0110
0000
0000
1001
0000
0000
1000
0100
,
0000
0011
0000
1000
0001
0100
0010
0000
,
1000
0010
0000
1000
0100
0000
1000
0001
,
0000
0010
0100
0000
1000
0001
0100
0000
,
0010
1000
0000
0100
0010
0000
0100
1000
,
0000
0001
1000
0010
1000
0001
0010
0000
,
0200
0000
0000
2300
0000
0000
3002
0000
,
0000
0203
0000
0000
0020
0000
0330
0000
,
1000
0100
1000
0100
1000
0100
1000
0100
,
0010
0001
0010
0001
0010
0001
1000
0000
,
0001
0100
1000
0100
,
0010
0100
0001
1000
,
0100
0001
0100
1000
,
2002
3003
0000
0000
;

//--------------- dance-single - Fred-104 ----------------
#NOTES:
     dance-single:
     Fred-104:
     Hard:
     17:
     :
0000
0000
0000
0000
,
0000
0000
0000
0000
,
0000
0000
0000
0000
,
0000
0000
0000
0000
,
0000
0000
0000
0000
,
0002
0000
0000
0000
0000
0000
0013
0100
,
2000
0000
3020
0230
,
2300
0000
0000
0000
,
3200
0000
0302
0000
2003
0000
3200
0300
,
0110
0000
0010
0000
0010
0000
0001
1000
,
0100
0000
0100
0000
0100
0000
0010
0001
,
0100
0000
0100
0000
0100
0000
0010
1000
,
0100
0000
0000
0000
0100
0000
0000
0000
0010
0000
0001
0000
1000
0001
1000
0000
,
1001
0000
0110
0000
1001
0000
1100
0100
,
0110
0000
0011
0000
1010
0000
0101
0001
,
1001
0000
1000
0000
0001
0000
0001
0000
0100
0010
1000
0000
0100
0010
0001
0000
,
2000
0000
3020
0000
0230
0300
0101
0000
1000
0000
0001
0000
0100
0000
0010
0000
,
1000
0010
0100
0001
1000
0100
0010
0001
,
1000
0001
0100
0100
0100
0001
1000
0100
,
0010
0100
1000
1000
1000
0010
0100
0001
,
1000
0000
0100
0000
0010
0001
0010
0000
0001
0000
0100
0000
0010
0000
0001
0000
,
0010
1000
0100
0100
0100
0001
0100
0010
,
0100
0000
1000
0000
0001
1000
0001
0000
0100
0000
0010
0000
1000
0000
0001
0000
,
0010
0000
0000
0000
0100
0000
0000
0000
1000
0000
0000
0000
0000
0000
0000
0000
0010
0000
0000
0000
0100
0000
0000
0000
0001
0000
0000
0000
0000
0000
0000
0000
2000
0000
0000
0000
0000
0000
0000
0000
3200
0300
0000
0000
0000
0000
0000
0000
0200
0300
0000
0000
0000
0000
0000
0000
0001
0000
0000
0000
0001
0000
0000
0000
,
1000
0010
0001
1000
0001
0010
1000
0001
,
1000
0100
0001
0100
0010
0001
1000
1000
,
1000
0100
0001
1000
0001
0100
1000
0001
,
0100
0000
0010
0000
0001
0000
1000
0000
0100
0000
0010
0000
1000
0001
1000
0000
,
0001
0010
1000
0001
0100
0010
0001
1000
,
0010
0100
0010
0001
1000
0100
0001
1000
,
1100
0000
1001
0001
0100
0101
0000
1010
,
1000
0000
1000
0000
0001
0000
0001
0000
0100
0001
0010
0000
0100
1000
0010
0100
,
0002
0000
0003
0000
0002
0000
0003
0000
0000
0000
2000
0000
3200
0000
0302
0000
0003
0000
0200
0000
0300
0000
0020
0000
0230
0000
2300
0000
3200
0000
0320
0030
,
0012
0000
0003
0000
0002
0000
0003
0000
0000
0000
2000
0000
3020
0000
0230
0300
0001
0000
0000
0000
0001
0000
0000
0000
1000
0000
0000
0000
1000
0000
0000
0000
,
0100
0010
0001
1000
0010
1000
0001
0010
0100
0000
1000
0001
0100
0000
0010
0000
,
1000
0001
0010
0000
0100
0000
1000
0000
0001
0000
0100
0010
1000
0000
0001
0000
,
0010
0100
0010
0000
0001
0000
0001
0000
1000
0000
0001
1000
0010
0000
0100
0000
,
0010
1000
0001
0000
0010
0000
0100
0000
1000
0000
0001
1000
0010
0000
1000
0000
,
0001
0000
0000
0000
0000
0000
0000
0000
1000
0000
0000
0000
0000
0000
0000
0000
0020
0030
0000
0000
0000
0000
0000
0000
0020
0030
0000
0000
0000
0000
0000
0000
0001
0000
0000
0000
0000
0000
0000
0000
1000
0000
0000
0000
0001
0000
0000
0000
0010
0000
0000
0000
0000
0000
0000
0000
0100
0000
0000
0000
0000
0000
0000
0000
,
1000
0001
0100
0000
0010
0000
1000
0000
0001
0000
0010
0100
1000
0000
0001
0000
,
0100
0001
1000
0000
0100
0000
0100
0000
0010
0000
0001
1000
0010
0000
1000
0000
,
0001
0010
0100
0000
1000
0000
1000
0000
0002
0000
0203
0000
0320
0000
2030
0000
,
3001
0010
0100
0000
1000
0010
0100
0000
0001
0000
1000
0001
0100
0000
0010
0000
,
1000
0010
0100
0000
0001
1000
0100
0000
0010
0000
0001
1000
0010
0000
1000
0001
,
0010
0000
0100
1000
0001
0000
0001
0000
0100
0000
0010
1000
0100
0000
0010
0000
,
0100
1000
0001
0000
0100
0010
1000
0000
0010
0000
0010
0000
0110
0000
0000
0000
,
0001
0000
1000
0100
0020
0000
0032
0000
1003
0000
0001
1000
0010
0000
0100
0000
,
0010
1000
0001
0000
0010
0100
1000
0000
0001
0000
0100
0010
1000
0000
0100
0010
,
0001
0000
1000
0001
0010
0000
0010
0000
0100
0000
1000
0000
0001
0000
1000
0000
,
0010
0000
0000
0100
0000
0000
0010
0000
0000
1000
0000
0000
0001
0000
0000
0010
0000
0000
0100
0000
0000
1000
0000
0000
0001
0000
0000
0000
0000
0000
0000
0000
0001
0000
0000
0000
0100
0000
0000
0000
0000
0000
0000
0000
0110
0000
0000
0000
,
0000
0010
1000
0100
0010
0001
1000
0000
0000
1010
0000
0000
,
0101
0000
0000
1100
0000
0100
0010
0000
0000
0011
0000
0000
,
1001
0000
0000
0001
0100
0010
1000
0000
0000
1001
0000
0000
,
0110
0000
0000
1001
0000
1000
0100
0000
0000
0011
0000
0000
,
1001
0000
0000
0001
1000
0001
1000
0000
0000
1100
0000
0000
,
0101
0000
0000
1100
0000
0001
0010
0000
0000
1010
0000
0000
,
0011
0000
0000
0001
1000
0100
0010
0000
0000
0011
0000
0000
,
1010
0000
0000
0101
0000
1000
1100
0000
0000
0110
0000
0000
,
0011
0000
0001
2000
0000
0000
3001
0010
0100
1000
0001
0100
,
0010
1000
0010
0100
0001
0100
0001
1000
0100
0010
0001
0010
,
0100
1000
0001
0100
0000
0100
0010
0000
1000
0010
1000
0100
,
0010
0001
1000
0001
0000
0000
1001
0000
0001
0010
0000
0010
,
0100
0000
0000
1000
0001
1000
0001
0100
0001
1000
0010
1000
,
0001
0010
0001
1000
0100
1000
0001
0100
0010
1000
0010
0100
,
0001
1000
0100
0010
0001
1000
0010
0100
1000
0100
0001
1000
,
0100
0010
1000
0010
0001
1000
0001
0000
0001
0100
0000
0100
,
1000
0000
1000
0001
0010
1000
0001
0000
0000
0000
0000
0000
,
0000
0000
0000
0000
,
0000
0000
0000
0000
,
0000
0000
0000
0000
,
0000
0000
1001
0001
,
0100
0000
0010
0010
1010
0000
1000
0000
,
0001
0000
0010
0010
0100
1000
0001
0100
,
0001
0010
0100
0000
1000
0010
0100
0000
0002
0000
2003
0000
3200
0300
0110
0000
,
0001
0000
1000
0100
1000
0000
0001
0000
0010
0100
1000
0000
0001
1000
0010
0000
,
0100
0000
0001
1000
0100
0010
0001
0000
1000
0000
0010
0000
1000
0000
1000
0000
,
0100
0000
0010
0001
1000
0000
0010
0000
0100
0001
1000
0000
0100
0010
0001
0000
,
1000
0000
0001
0100
0010
0100
0001
0000
0010
0000
0100
0000
1000
0100
0010
0000
,
0001
0000
1000
0001
0100
0000
0010
1000
0001
0010
0100
0000
1000
0000
1000
0000
,
0001
0000
0010
0001
1000
0010
0100
0000
0001
0100
0010
0000
1000
0100
0010
0000
,
0011
0000
0000
0000
0000
0000
1010
0000
0000
0000
0000
0000
0001
1000
0100
0000
,
0000
0000
0101
0000
0000
0000
1100
0000
1000
0100
0010
0000
0001
0100
0010
0000
,
1000
0000
0001
1000
0010
0000
1000
0000
0100
0010
0001
0000
0010
0100
1000
0000
,
0001
0000
0100
0010
1000
0001
0010
0000
0100
0010
0001
0010
0001
0000
0001
0000
,
1000
0000
0001
1000
0100
0000
0010
0001
1000
0010
0100
0000
0010
1000
0001
0000
,
1000
0000
0100
0010
0001
1000
0010
0000
1000
0001
0010
0100
0010
0100
1000
0000
,
1002
0000
0000
2003
0000
0000
3020
0000
,
0000
0230
0000
0000
0002
0000
0303
0000
,
1100
0100
0010
0101
0100
0010
1001
1000
,
0001
0010
0100
1000
0001
0100
0001
1000
0100
0010
0001
1000
0010
0100
0001
1000
,
0001
0010
0100
1000
0010
1000
0001
0010
,
1000
0001
0100
0010
0001
1000
0100
0010
,
1000
0001
0100
1000
0001
0100
0010
0000
,
0220
0330
0000
0000
;

//--------------- dance-double - Fred-104 ----------------
#NOTES:
     dance-double:
     Fred-104:
     Easy:
     8:
     :
00000000
00000000
00000000
00000000
,
00000000
00000000
00000000
00000000
,
00000000
00000000
00000000
00000000
,
00000000
00000000
00000000
00000000
,
00000000
00000000
00000000
00000000
,
00020000
00000000
00000000
00030000
,
00002000
00000000
00003000
00000000
,
00020000
00000000
00030020
00000000
,
00020030
00030000
00002000
00003000
02000000
03000000
00002000
00003000
,
00011000
00010000
00010000
00010000
,
00001000
00001000
00001000
00001000
,
00000100
00000100
00000001
00000001
,
00000010
00000000
00000010
00000000
00001000
00010000
00001000
00000000
,
00010000
00001000
00010000
01000000
,
00100000
00010000
10000000
01000000
,
00010000
00001000
00000100
00000001
,
00002002
00000000
00000000
00003003
00000001
00000000
00000100
00000000
,
00001000
00010000
00001000
00100000
,
00001000
00000000
00010000
00001000
,
00000010
00001000
00010000
00001000
,
01000000
00010000
01000000
00000000
00010000
00000000
10000000
00000000
,
00100000
00010000
00001000
00010000
,
01000000
00000000
00010000
00001000
,
00010000
00000000
00001000
00000000
00022000
00000000
00000000
00033000
,
00010000
00000000
00000000
00001000
00000000
00000000
00000100
00000000
,
00000010
00001000
00000001
00000010
,
00000100
00000000
00010000
00000000
00000000
00001000
00000000
00000000
,
00010000
00000000
00000000
00001000
00000000
00000000
00010000
00000000
,
00001000
00000000
00000000
00010000
00000000
00000000
00100000
00000000
,
01000000
00010000
10000000
01000000
,
01100000
00000000
00011000
00000000
,
00000100
00000100
00000010
00000010
,
00000110
00000000
00000000
00000000
,
00011000
00000000
00010000
00001000
,
00010000
00001000
00010000
00001000
,
00000010
00000100
00001000
00000001
,
00001000
00000000
00000100
00000010
,
00001000
00010000
01000000
00100000
,
00010000
00000000
20000000
30000000
00100000
00000000
01000000
00000000
,
00100000
00010000
00001000
01000000
,
00001000
00000000
00010000
00001000
,
00000010
00000100
00001000
00000001
,
00001001
00000000
00000001
00000100
,
00000001
00000100
00001000
00010000
,
00001000
00010000
01000000
10000000
,
01000000
00000000
10000000
00000000
00100000
00100000
00100000
00000000
,
00010000
00011000
00001000
00010000
,
00100000
01000000
00010000
00100000
,
01000000
10000000
00010000
01000000
,
00100000
01000000
10010000
00000000
,
00000000
00000000
10000000
10000000
,
01000000
01000000
00010000
00010000
,
00001000
00010000
00001000
00001000
,
00000100
00000100
00000001
00000010
,
00000220
00000330
00000001
00000010
,
00000001
00000010
00001000
00010000
,
00001000
00010000
00100000
10000000
,
00100000
10000000
01000000
00010000
,
00022000
00033000
00010000
00001000
,
00010000
00001000
00000010
00001000
,
00010000
00001000
00010000
00001000
,
00010000
01000000
00010000
00001000
,
00010000
00011000
00010000
00001000
,
00000100
00000001
00001000
00000100
,
00000010
00000001
00001000
00000010
,
00000100
00001000
00010000
00100000
,
10000000
00010000
10010000
00000000
,
00000000
00000000
00000000
00000000
,
00000000
00000000
00000000
00000000
,
00000000
00000000
00000000
00000000
,
00000000
00000000
00000001
00001000
,
00000010
00000000
00010000
00010000
00010000
00000000
00001000
00000000
,
00010000
00000000
00000100
00000100
00000100
00000000
00001000
00000000
,
00000100
00000000
00000010
00000000
00002002
00000000
00000000
00003003
,
00000001
00000000
00000000
00000100
00000000
00000000
00001000
00000000
,
00000000
00010000
00001000
00000000
00010000
00000000
01000000
00000000
,
00100000
00000000
00000000
00010000
00000000
00000000
10000000
00000000
,
00100000
00000000
00010000
00000000
00001000
00010000
00001000
00000000
,
00010000
00000000
00000000
00000100
00000000
00000000
00010000
00000000
,
00000000
00001000
00010000
00000000
00000010
00000000
00001000
00000000
,
00001100
00000000
00000000
00000011
00000000
00000000
00000001
00000100
,
00000000
00000100
00000000
00001000
00010000
00000000
00011000
00000000
,
00001000
00000000
00000000
01000000
00000000
00000000
00010000
00000000
,
00000000
00100000
00001000
00000000
00010000
00000000
00001000
00000000
,
01000000
00000000
00000000
00010000
00000000
00000000
10000000
00000000
,
00000000
01000000
00100000
00000000
00001000
00000000
00010000
00000000
,
00011000
00000000
00000000
00000000
,
00000002
00000000
00002000
00003003
,
00000001
00001000
00000100
00010000
,
00001000
00001000
00010000
00010000
,
00001000
00010000
00001000
00010000
,
01000000
00100000
00010000
10000000
,
00100000
00010000
00001000
00010000
,
00022000
00033000
00000000
00000000
;

//--------------- dance-double - Fred-104 ----------------
#NOTES:
     dance-double:
     Fred-104:
     Medium:
     12:
     :
00000000
00000000
00000000
00000000
,
00000000
00000000
00000000
00000000
,
00000000
00000000
00000000
00000000
,
00000000
00000000
00000000
00000000
,
00000000
00000000
00000000
00000000
,
00002000
00000000
00000000
02003000
,
03020000
00000000
20030000
32000000
,
03020000
00000000
00000000
00000000
,
00032000
00000000
00003200
00000000
00000302
00000000
00002003
00003000
,
00001001
00000000
00000001
00000000
00000100
00000000
00001000
00010000
,
00001000
00000000
00010000
00000000
00100000
00000000
10000000
00010000
,
10000000
00000000
01000000
00000000
00100000
00000000
00001000
00010000
,
00001000
00000000
00001000
00000000
00010000
00001000
00010000
00000000
,
00011000
00000000
00001000
00000000
00000010
00000000
00000100
00001000
,
00000001
00001010
00010000
00011000
,
00001000
00100000
00001000
00100000
00001000
00010000
00001000
00010000
,
00002000
00000000
00000000
00003000
00010000
00000000
00001000
00000000
,
00010000
00100000
01000000
10000000
,
01000000
00000000
00010000
00010000
00010000
00000000
00100000
00000000
,
01000000
00000000
00010000
00001000
00010000
00000000
00000100
00000000
,
00010000
00001000
00010000
00000000
00001000
00000000
00000010
00000000
,
00000100
00000000
00000010
00000010
00000010
00000000
00000001
00000000
,
00000100
00001000
00010000
00000000
00001000
01000000
00001000
01000000
,
00010000
00100000
00010000
00100000
02000000
00000000
00000000
03000000
,
10010000
00000000
10000000
00100000
00000000
00010000
00001000
00000000
,
00010000
00000100
00001000
00000000
00000100
00000000
00000010
00000001
,
00001000
00000010
00000100
00000000
00001000
00010000
00000000
00100000
,
01000000
00000000
00010000
10000000
01000000
00100000
00001000
00000000
,
00011000
00000000
00010000
00000100
00000000
00000010
00000100
00000000
,
00001000
00000001
00000100
00000000
00001000
00010000
00001000
00000000
,
00011000
00000000
00001000
00001000
01000000
01000000
00000000
00010000
,
10000000
01000000
00010000
00001000
00010000
00100000
01000000
00000000
,
01100000
00000000
00000000
00011000
,
00000110
00000000
00000000
00000000
00000001
00001000
00000001
00001000
,
00000001
00001000
00000001
00000000
00001000
00000000
00000010
00000100
,
00000000
00001000
00000000
00010000
00001000
00000000
01000000
00010000
,
00000000
00100000
00000000
00001000
00010000
00000000
00100000
01000000
,
00000000
00100000
00000000
10000000
01000000
00000000
00100000
00001000
,
00000000
00010000
00000010
00001000
00000100
00000000
00000010
00000001
,
00000000
00001000
00000000
00000100
00000010
00000000
00001000
00010000
,
00000000
01000000
00000000
00100000
00010000
00000000
01000000
00100000
,
00000000
00010000
00001000
00010000
00000100
00010000
00000100
00010000
,
00000100
00000000
00000110
00000000
00001001
00000000
00000001
00000100
,
00000000
00000010
00000100
00001000
00000000
00010000
00000000
00001000
,
01000000
00010000
00100000
00000000
01000000
00000000
00100000
00010000
,
00000000
01000000
00100000
00010000
00001000
00001000
00001000
00000000
,
01100000
00000000
10010000
00000000
00010000
00000000
01000000
00010000
,
00000000
00100000
01000000
00010000
00000000
00001000
00000000
00010000
,
00100000
00010000
00001000
00000000
00000010
00000100
00000010
00000001
,
00001000
00000010
00001000
00000010
00000110
00000000
00000000
00000000
,
00000000
00000000
00011000
00001000
,
00010000
00000000
00000000
00100000
00000000
01000000
00010000
00000000
00000000
00100000
00000000
00000000
,
01000000
00000000
00000000
00100000
00010000
00100000
00010000
00000000
00000000
00001000
00000000
00000000
,
00000010
00000000
00000000
00000100
00000000
00001000
00010000
00000000
00000000
00010000
00000000
00000000
,
00011000
00011000
00010100
00010000
,
00001000
00000000
00000000
00000010
00000000
00001000
00010000
00000000
00000000
00001000
00000000
00000000
,
01000000
00000000
00000000
00001000
00010000
00001000
00010000
00000000
00000000
00001000
00000000
00000000
,
00010000
00000000
00100000
01000000
00000000
00000000
01100000
00000000
00000000
01001000
00000000
00000000
,
00022000
00033000
00010010
00010000
,
00000010
00000000
00010000
00001000
00000000
00000000
00010000
00000000
00000000
01000000
00000000
00000000
,
00010000
00000000
00000000
00001000
00000000
00010000
00001000
00000000
00000000
00000100
00000000
00000000
,
00000010
00000000
00000000
00001000
00000000
00000000
00000100
00000000
00000010
00001000
00000000
00010000
,
00001000
00011000
00001000
00010000
,
01000000
00100000
00010000
01000000
,
00001000
00000100
00000010
00010000
,
00001000
00000000
00000000
00100000
00000000
00000000
00001000
00000000
00001000
00010000
00000000
00010000
,
00001000
00000000
00001000
00010000
00000000
00000000
00011000
00000000
00000000
00000000
00000000
00000000
,
00000000
00000000
00000000
00000000
,
00000000
00000000
00000000
00000000
,
00000000
00000000
00000000
00000000
,
00000000
00000000
00001000
00001000
,
00010000
00000000
00010000
00010000
01000000
00000000
01000000
00000000
,
10000000
00000000
00010000
00010000
10000000
01000000
10000000
01000000
,
00010000
00001000
00010000
00001000
00020000
00000000
00000000
00030000
,
00001000
00000000
00010000
00100000
01000000
00000000
00010000
10000000
,
00000000
01000000
00100000
00000000
00010000
00000000
00100000
00001000
,
00010000
00000000
00001000
00000100
00000010
00000000
00010000
00001000
,
00000000
00000010
00000100
00000000
00001000
00000001
00000100
00001000
,
00010000
00000000
00001000
00010000
00100000
00000000
01000000
00010000
,
00000000
10000000
01000000
00000000
00100000
00001000
00010000
00000000
,
00011000
00000000
00000000
00010010
00000000
00000000
00010000
00001000
,
00000000
00101000
00000000
00001000
00010000
01000000
10000000
00000000
,
00010000
01000000
00000000
10000000
01000000
00000000
00010000
01000000
,
00000000
10000000
01000000
00000000
00010000
01000000
00001000
00000000
,
00010000
00001000
00000000
00000100
00001000
00000000
00010000
00001000
,
00000000
00000010
00001000
00000000
00010000
00001000
00000100
00000000
,
00000002
00000000
00000000
00000023
00000000
00000000
00002030
00000000
,
00000000
00023000
00000000
00000000
00002000
00000000
00033000
00000000
,
00001000
00010000
00001000
00010000
00100000
01000000
00100000
01000000
,
00010000
10000000
01000000
00100000
00010000
00000000
01100000
00000000
,
00100000
01000000
00010000
00001000
,
00010000
00000010
00001000
00000100
,
00000010
00001000
00100000
00001000
,
00022000
00033000
00000000
00000000
;

//--------------- dance-double - Fred-104 ----------------
#NOTES:
     dance-double:
     Fred-104:
     Hard:
     17:
     :
00000000
00000000
00000000
00000000
,
00000000
00000000
00000000
00000000
,
00000000
00000000
00000000
00000000
,
00000000
00000000
00000000
00000000
,
00000000
00000000
00000000
00000000
,
00020000
00000000
00000000
00000000
00000000
00000000
00031000
00000100
,
00000002
00000000
00000023
00000230
,
00020300
00000000
00000000
00000000
,
02030000
00000000
03200000
00000000
00302000
00000000
02003000
03000000
,
01100000
00000000
00100000
00000000
00100000
00000000
10000000
01000000
,
00010000
00000000
00010000
00000000
00010000
00000000
00001000
00000100
,
00000001
00000000
00000001
00000000
00000001
00000000
00000010
00000100
,
00010000
00000000
00000000
00000000
00010000
00000000
00000000
00000000
00001000
00000000
00010000
00000000
00001000
00010000
00001000
00000000
,
00011000
00000000
01001000
00000000
00010100
00000000
00001100
00000100
,
00000101
00000000
00000011
00000000
00001010
00000000
00001001
00001000
,
00000001
00000000
00000100
00000000
00001000
00000000
00010000
00000000
00100000
01000000
00100000
00000000
10000000
00010000
10000000
00000000
,
02000000
00000000
03020000
00000000
00032000
00003000
00011000
00000000
00010000
00000000
00001000
00000000
00000100
00000000
00000010
00000000
,
00000100
00000001
00000100
00000010
00001000
00010000
01000000
00001000
,
01000000
00010000
00100000
00100000
00100000
00001000
00010000
01000000
,
00100000
00010000
01000000
00100000
00001000
00000010
00010000
00001000
,
00000100
00000000
00000010
00000000
00001000
00000001
00000010
00000000
00000100
00000000
00001000
00000000
00000010
00000000
00000100
00000000
,
00001000
00010000
00001000
00001000
00001000
00010000
01000000
00100000
,
00010000
00000000
01000000
00000000
00001000
00010000
00001000
00000000
00010000
00000000
00001000
00000000
00000100
00000000
00000010
00000000
,
00001000
00000000
00000000
00000000
00000100
00000000
00000000
00000000
00000010
00000000
00000000
00000000
00000000
00000000
00000000
00000000
00001000
00000000
00000000
00000000
00010000
00000000
00000000
00000000
00001000
00000000
00000000
00000000
00000000
00000000
00000000
00000000
00020000
00000000
00000000
00000000
00000000
00000000
00000000
00000000
00032000
00003000
00000000
00000000
00000000
00000000
00000000
00000000
00002000
00003000
00000000
00000000
00000000
00000000
00000000
00000000
00000010
00000000
00000000
00000000
00000010
00000000
00000000
00000000
,
00001000
00000100
00010000
00000010
00000100
00001000
00010000
00001000
,
01000000
00001000
00000100
00000010
00001000
00000100
00000010
00001000
,
00010000
00001000
01000000
00010000
00001000
00000100
00010000
00000100
,
00010000
00000000
01000000
00000000
00010000
00000000
00001000
00000000
00010000
00000000
00000010
00000000
00010000
00001000
00010000
00000000
,
00001000
00010000
00100000
01000000
00001000
00100000
01000000
00010000
,
00001000
00010000
00000010
00000100
00001000
00010000
00000100
00010000
,
00011000
00000000
00010010
00010000
00001000
00101000
00000000
00010000
,
00001000
00000000
00001000
00000000
01000000
00000000
01000000
00000000
00001000
00010000
00001000
00000000
00010000
00001000
00010000
00000000
,
00002000
00000000
00003000
00000000
00002000
00000000
00003000
00000000
00000000
00000000
00020000
00000000
00032000
00000000
00003200
00000000
00000300
00000000
00000002
00000000
00000003
00000000
00000200
00000000
00000320
00000000
00000230
00000000
00002300
00000000
00023000
00030000
,
00012000
00000000
00003000
00000000
00002000
00000000
00003000
00000000
00000000
00000000
00020000
00000000
02030000
00000000
03200000
00300000
01000000
00000000
00000000
00000000
01000000
00000000
00000000
00000000
10000000
00000000
00000000
00000000
10000000
00000000
00000000
00000000
,
00010000
01000000
00001000
00000000
00010000
00001000
00010000
00000000
00001000
00000000
00010000
00000100
00001000
00000000
00000100
00000000
,
00000010
00000001
00000010
00000000
00000100
00000000
00001000
00000000
00000001
00000000
00000100
00000000
00001000
00000000
00010000
00000000
,
00100000
00000000
10000000
00000000
01000000
00000000
01000000
00000000
00100000
00000000
00001000
00010000
00001000
00000000
01000000
00000000
,
00001000
00010000
00001000
00000000
00000100
00000000
00000010
00000000
00001000
00000000
00000100
00000000
00000010
00000000
00000001
00000000
,
00001000
00000000
00000000
00000000
00000000
00000000
00000000
00000000
00000010
00000000
00000000
00000000
00000000
00000000
00000000
00000000
00020000
00030000
00000000
00000000
00000000
00000000
00000000
00000000
00020000
00030000
00000000
00000000
00000000
00000000
00000000
00000000
01000000
00000000
00000000
00000000
00000000
00000000
00000000
00000000
00100000
00000000
00000000
00000000
10000000
00000000
00000000
00000000
00010000
00000000
00000000
00000000
00000000
00000000
00000000
00000000
10000000
00000000
00000000
00000000
00000000
00000000
00000000
00000000
,
01000000
00100000
01000000
00000000
00010000
00000000
00001000
00000000
00010000
00000000
00000100
00000000
00000010
00000000
00000100
00000000
,
00000001
00000000
00000100
00000000
00001000
00000000
00001000
00000000
00000001
00000000
00000100
00000010
00000100
00000000
00001000
00000000
,
00010000
00001000
00010000
00000000
00100000
00000000
01000000
00000000
00020000
00000000
20030000
00000000
32000000
00000000
03200000
00000000
,
00301000
00010000
00001000
00000000
00010000
00001000
00010000
00000000
00001000
00000000
00100000
00010000
10000000
00000000
00100000
00000000
,
00010000
00001000
00010000
00000000
00000100
00001000
00000001
00000000
00001000
00000000
00000010
00000000
00000100
00000000
00001000
00000000
,
00010000
00000000
01000000
00000000
00100000
00000000
00100000
00000000
00010000
00000000
10000000
00100000
01000000
00000000
00100000
00000000
,
00010000
00001000
00010000
00000000
00000010
00001000
00000010
00000000
00001000
00000000
00001000
00000000
00001001
00000000
00000000
00000000
,
00001000
00000000
00000100
00000010
00000002
00000000
00002003
00000000
00003001
00000000
00001000
00000100
00010000
00000000
00000100
00000000
,
00001000
00000100
00000010
00000000
00000001
00001000
00000010
00000000
00001000
00000000
00000100
00000000
00000010
00000000
00001000
00000000
,
00010000
01000000
10000000
10000000
10000000
01000000
00100000
00010000
,
00100000
00000000
00000000
00001000
00000000
00000000
00100000
00000000
00000000
00001000
00000000
00000000
00010000
00000000
00000000
00001000
00000000
00000000
00010000
00000000
00000000
00001000
00000000
00000000
00010000
00000000
00000000
00000000
00000000
00000000
00000000
00000000
00001000
00000000
00000000
00000000
00010000
00000000
00000000
00000000
00000000
00000000
00000000
00000000
00011000
00000000
00000000
00000000
,
00000000
00010000
00001000
00000100
00000010
00001000
00000002
00000000
00000000
00000100
00000000
00000000
,
00001000
00000000
00000000
00000013
00000000
00000001
00002000
00000000
00000000
00000100
00000000
00000000
,
01000000
00000000
00000000
00003100
00010000
00001000
00020000
00000000
00000000
00000010
00000000
00000000
,
00100000
00000000
00000000
00030010
00000000
00010000
00001000
00000000
00000000
01000000
00000000
00000000
,
01100000
00000000
00000000
00010000
10000000
00010000
20000000
00000000
00000000
01000000
00000000
00000000
,
00010000
00000000
00000000
30100000
00000000
00010000
00002000
00000000
00000000
00100000
00000000
00000000
,
00000010
00000000
00000000
00013000
00001000
00000010
00000200
00000000
00000000
00001000
00000000
00000000
,
00000001
00000000
00000000
00001300
00000000
00000001
00000100
00000000
00000000
00000100
00000000
00000000
,
00000010
00000000
00010000
00011000
00000000
00000000
00001000
00010000
00001000
01000000
00010000
10000000
,
00010000
00100000
01000000
10000000
00010000
01000000
00100000
10000000
01000000
00100000
00001000
00010000
,
00000100
00000010
00000001
00001000
00000000
00001000
00000001
00000000
00000001
00000100
00001000
00010000
,
00001000
00010000
01000000
10000000
00000000
00000000
10010000
00000000
10000000
01000000
00000000
01000000
,
00010000
00000000
00000000
00001000
00010000
00000010
00010000
00001000
00010000
00000010
00001000
00000001
,
00000010
00000100
00001000
00000100
00010000
00001000
00010000
00001000
00100000
00010000
00100000
01000000
,
10000000
00010000
01000000
00100000
00010000
00001000
00010000
00001000
00000010
00001000
00010000
00001000
,
00010000
00001000
00000100
00001000
00010000
00001000
00010000
00000000
00010000
00001000
00000000
00001000
,
00000100
00000000
00000100
00000010
00001000
00000001
00000010
00000000
00000000
00000000
00000000
00000000
,
00000000
00000000
00000000
00000000
,
00000000
00000000
00000000
00000000
,
00000000
00000000
00000000
00000000
,
00000000
00000000
10010000
10000000
,
01000000
00000000
00100000
00001000
00011000
00000000
00010000
00000000
,
00001000
00000000
00000100
00000001
00000010
00000100
00001000
00000001
,
00000100
00000010
00000100
00000000
00001000
00010000
00001000
00000000
00020000
00000000
00230000
00000000
20300000
30000000
01010000
00000000
,
10000000
00000000
01000000
00100000
00010000
00000000
00100000
00000000
00001000
00010000
00001000
00010000
00001000
00000000
00000000
00000000
,
00010000
00000000
00000100
00001000
00000001
00000100
00000010
00000000
00001000
00000000
00000001
00000000
00000010
00000000
00000010
00000000
,
00000100
00000000
00001000
00000001
00000100
00000000
00001000
00000000
00010000
00001000
00010000
00001000
00010000
00000000
00000000
00000000
,
00001000
00000000
01000000
00010000
10000000
00010000
00100000
00000000
01000000
00000000
10000000
00000000
00010000
10000000
00010000
00000000
,
10000000
00000000
00100000
01000000
00100000
00000000
00010000
00000000
00001000
00010000
00000010
00010000
00001000
00000000
00001000
00000000
,
00010000
00000000
00001000
00010000
00000010
00001000
00000100
00000000
00000010
00000001
00000100
00000000
00000010
00001000
00000001
00000000
,
00000011
00000000
00000000
00000000
00000000
00000000
00001010
00000000
00000000
00000000
00000000
00000000
00000001
00001000
00000100
00000000
,
00000000
00000000
00101000
00000000
00000000
00000000
10010000
00000000
10000000
01000000
00100000
00000000
00010000
00100000
01000000
00000000
,
10000000
00000000
00100000
01000000
00010000
00000000
01000000
00000000
00001000
00010000
00001000
00010000
00001000
00000000
00000000
00000000
,
00000010
00000000
00000100
00001000
00000001
00000100
00000010
00000000
00000100
00000000
00001000
00000000
00010000
00000000
00010000
00000000
,
00001000
00000000
01000000
00010000
10000000
00000000
01000000
00000000
00100000
00010000
10000000
00010000
01000000
00000000
00000000
00000000
,
00010000
00000000
10000000
01000000
00100000
00010000
00100000
00000000
00001000
00000000
00001000
00000000
00010000
00001000
00010000
00000000
,
00012000
00000000
00000000
00023000
00000000
00000000
00230000
00000000
,
00000000
20300000
00000000
00000000
02000000
00000000
33000000
00000000
,
10000000
00100000
00010000
00001000
00000010
00000001
00001000
00000010
,
00010000
00001000
00010000
00001000
00010000
00000100
00010000
00000100
00010000
00001000
01000000
00000000
00010000
10000000
01000000
00000000
,
00100000
00001000
00010000
00001000
00000010
00001000
00010000
01000000
,
00100000
00010000
01000000
00001000
00000100
00000010
00010000
00000100
,
00000010
00001000
00010000
01000000
00100000
00001000
00010000
00000000
,
00022000
00033000
00000000
00000000
;
