#VERSION:0.83;
#TITLE:ADAM;
#ARTIST:P*Light;
#BANNER:ADAM.png;
#BACKGROUND:ADAM-bg.png;
#CDTITLE:./CDTitles/WACCA.png;
#MUSIC:ADAM.ogg;
#SAMPLESTART:97.2;
#SAMPLELENGTH:15;
#BPMS:0=200;

//--------------- dance-single - Fred-104 ----------------
#NOTEDATA:;
#STEPSTYPE:dance-single;
#DESCRIPTION:Fred-104;
#DIFFICULTY:Beginner;
#METER:5;
#CREDIT:Fred-104;
#NOTES:
0000
0000
0000
0000
,
0000
0000
0000
0000
,
0000
0000
0000
0000
,
0000
0000
0000
0000
,
0000
0000
0000
0000
,
1000
0000
0000
0000
,
0001
0000
0000
0000
,
1000
0000
0000
0000
,
0002
0000
0000
0003
,
1001
0000
0000
0000
,
0000
0000
0001
0000
,
1001
0000
0000
0000
,
0000
0000
1000
1000
,
1001
0000
0000
0000
,
0001
0000
1000
0000
,
1001
0000
0000
0000
,
0001
0000
1000
0000
,
0100
0000
0000
0100
,
0010
0000
0000
0010
,
0001
0000
0000
0001
,
1000
0000
0000
1000
,
0001
0000
1000
0000
,
0010
0000
0100
0000
,
0001
0000
0001
0000
,
1001
0000
0000
0000
,
1000
0000
0000
0000
,
0001
0000
0000
0000
,
0010
0000
0000
0000
,
0100
0000
0100
0000
,
1000
0000
0000
0000
,
0001
0000
0000
0000
,
0100
0000
0000
0000
,
0110
0000
0000
0001
,
0000
1000
0000
1000
,
0000
0100
0000
0100
,
0000
1000
0000
1000
,
0000
0001
0000
0001
,
0001
0010
0000
0010
,
0000
0100
0000
0100
,
1000
0000
0001
0000
,
1001
0000
0000
0000
,
0001
0000
1000
0000
,
0100
0000
0010
0010
,
0010
0000
0001
0000
,
1000
0000
0010
0010
,
0010
0000
0100
0000
,
0001
0000
1000
1000
,
1000
0000
0001
0000
,
1000
0000
0002
0003
,
0100
0000
0010
0000
,
0100
0000
0001
0001
,
0001
0000
1000
0000
,
0010
0000
1000
1000
,
1000
0000
0001
0000
,
1000
1000
0100
0100
,
0100
0000
0000
2002
,
0000
0000
0003
3000
,
0002
0000
0000
0000
,
0000
0000
0000
0003
,
2000
0000
0000
3000
,
0002
0000
0000
0003
,
2000
0000
0000
0000
,
0000
0000
0000
3000
,
0002
0000
0000
0003
,
2000
0000
0000
3000
,
1001
0000
0000
0000
,
0001
0000
1000
0000
,
1001
0000
0000
0000
,
1000
0000
0100
0000
,
0110
0000
0000
0000
,
0001
0000
1000
0000
,
1001
0000
0000
0000
,
0001
0000
1000
0000
,
0002
0000
0000
0003
,
2000
0000
0000
3000
,
0020
0000
0000
0030
,
0200
0000
0000
0300
,
0001
0000
1000
0000
,
0100
0000
0010
0000
,
0001
0000
1000
0000
,
1001
0000
0000
0000
,
1000
0000
0100
0000
,
1000
0000
0001
0001
,
0001
0000
0100
0000
,
0010
0000
0100
0100
,
0100
0000
0001
0000
,
1000
0000
0010
0010
,
0010
0000
1000
0000
,
0001
0001
2000
3000
,
0001
0000
1000
0000
,
0100
0100
0010
0010
,
0010
0000
0100
0000
,
1000
1000
0001
0001
,
1000
0000
0110
0000
,
0001
0001
1000
1000
,
1001
0000
0000
0220
,
0000
0000
0000
0330
,
2002
0000
0000
0000
,
3003
0000
0000
0000
;

//--------------- dance-single - Fred-104 ----------------
#NOTEDATA:;
#STEPSTYPE:dance-single;
#DESCRIPTION:Fred-104;
#DIFFICULTY:Easy;
#METER:9;
#CREDIT:Fred-104;
#NOTES:
0000
0000
0000
0000
,
0000
0000
0000
0000
,
0000
0000
0000
0000
,
0000
0000
0000
0000
,
0000
0000
0000
0000
,
1000
0000
0000
0001
0000
0000
0100
0000
,
0010
0000
0100
0100
,
0001
0000
0000
1000
0000
0000
0100
0000
,
0010
0000
0000
0000
0002
0003
2000
3000
,
1001
0000
0000
0000
0000
0001
0000
0000
,
0100
0000
0010
0100
,
0101
0000
0000
0000
0000
1000
0000
0000
,
0100
0000
0010
0000
0100
1000
0100
0000
,
1100
0000
0000
0000
0000
0001
0000
0000
,
1000
0001
0100
0010
,
0110
0000
0000
0000
0000
0001
0000
0000
,
0100
0010
0100
0001
,
1001
0000
0000
0001
0000
0000
0100
0000
,
0010
0000
0000
2020
0000
0000
3030
0000
,
1100
0000
0000
0100
0000
0000
0010
0000
,
0001
0000
0000
0202
0000
0000
0303
0000
,
0001
0001
0010
0010
,
1000
1000
0100
0100
,
0001
1000
0100
0010
,
0002
0003
0002
0003
2002
0000
3003
0000
,
1000
1000
0100
0010
,
0001
1000
0001
0000
0100
0000
0010
0000
,
0100
0100
0001
1000
,
0100
0000
0010
0000
0001
1000
0001
0000
,
0010
0010
0100
1000
,
0010
0000
0100
0000
0010
1000
0010
0000
,
0100
0100
0001
1000
,
0001
0000
0000
1000
0000
0000
1001
0000
,
0001
0001
0010
1000
,
0010
0000
0001
0000
1000
0010
1000
0000
,
0001
0001
0100
1000
,
0100
0000
0001
0000
1000
0100
1000
0000
,
0001
0000
0001
0000
0100
0010
0100
0000
,
0010
1000
0010
0000
0100
0001
0100
0000
,
1001
0000
0000
0001
0000
0000
0100
0000
,
0110
0000
0000
2002
0000
0000
3003
0000
,
2000
3200
0302
0203
,
1300
0000
0100
0000
0010
0001
0010
0000
,
0002
0023
2030
3020
,
0031
0000
0100
0000
0010
1000
0010
0000
,
0200
0302
2003
3200
,
0310
0000
0100
0000
1000
0001
1000
0000
,
0020
0000
0230
0000
0302
0000
2003
3000
,
1001
0000
0000
0110
0000
0000
1001
0000
,
0002
0203
2300
3020
,
0031
0000
1000
0000
0010
0100
0010
0000
,
2000
3020
0032
0203
,
1300
0000
0100
0000
0010
0001
0010
0000
,
0002
2003
3020
0230
,
0310
1000
0100
0010
,
0011
0000
0000
1001
0000
0000
2020
0000
,
0000
0000
0030
3000
,
2002
0000
0000
0000
,
0003
0000
0000
3000
0000
0000
0000
0000
,
2002
0000
0000
3000
0000
0000
0003
0000
,
2002
0000
0000
0003
0000
0000
3000
0000
,
0001
0010
1000
0010
,
0001
0000
1000
0000
0010
0100
0010
0000
,
1000
0100
0001
0100
,
1000
0000
0001
0000
2000
3000
0002
0003
,
1001
0000
0000
0000
0000
1000
0000
0000
,
0100
0000
0010
0100
,
1100
0000
0000
0000
0000
0001
0000
0000
,
0100
0000
0010
0000
0100
0001
0100
0000
,
0101
0000
0000
0000
0000
1000
0000
0000
,
0001
1000
0100
0010
,
0110
0000
0000
0000
0000
1000
0000
0000
,
0100
0010
0100
1000
,
0001
0000
0000
0100
0000
0000
1000
0000
,
1000
0000
0000
0100
0000
0000
0001
0000
,
1000
0010
1000
0010
,
0001
0010
1000
0000
,
1001
0000
0110
0000
,
1001
0000
0110
0000
,
1000
0100
0001
0010
,
2000
3000
2000
3000
2002
0000
3003
0000
,
0002
0203
2300
3020
,
0031
0000
1000
0000
0010
0100
0010
0000
,
2000
3200
0302
0023
,
1030
0001
1000
0000
0010
0100
0010
0000
,
2000
3200
0302
0203
,
0310
0000
0001
0000
1000
0010
0100
0000
,
0020
0000
2030
0000
3002
0000
0023
0030
,
0110
0000
0000
1001
0000
0000
0110
0000
,
2000
3200
0302
0203
,
0310
0000
0001
0000
1000
0010
0100
0000
,
0020
2030
3200
0320
,
0031
1000
0001
0000
0100
0010
0100
0000
,
0110
0000
1001
0000
,
0110
0000
1001
0000
,
0011
0000
0000
1010
0000
0000
0202
0000
,
0000
0000
0303
0000
,
2002
0000
0000
0000
,
3003
0000
0000
0000
;

//--------------- dance-single - Fred-104 ----------------
#NOTEDATA:;
#STEPSTYPE:dance-single;
#DESCRIPTION:Fred-104;
#DIFFICULTY:Medium;
#METER:12;
#CREDIT:Fred-104;
#NOTES:
0000
0000
0000
0000
,
0000
0000
0000
0000
,
0000
0000
0000
0000
,
0000
0000
0000
0000
,
0000
0000
0000
0000
,
0001
0100
0001
1000
0000
0100
0010
0000
,
0001
1000
0010
0000
1000
0001
0010
0000
,
0100
1000
0100
1000
0000
0001
0100
0000
,
0010
0000
1000
0000
0001
0000
0000
0000
0010
0000
0200
0300
2000
0000
3000
0000
,
1001
0000
0000
0001
0000
0100
0100
0000
,
0010
0000
1000
0000
0001
0010
0100
0000
,
1100
0000
0000
0001
0000
1000
1000
0000
,
0010
0000
0100
0000
0001
1000
0001
0000
,
0101
0000
0000
1000
0000
0100
0100
0000
,
0010
0000
0001
0000
1000
0010
0100
0000
,
0110
0000
0000
0010
0000
1000
1000
0000
,
0001
0000
0010
0000
0100
1000
0001
0000
,
1001
0000
1000
0100
0000
0010
0100
0000
,
1000
0000
0001
2000
0000
3000
1100
0000
,
0110
0000
0001
0100
0000
0010
1000
0000
,
0001
0000
1000
0020
0000
0030
0110
0000
,
1000
0000
0100
0000
0001
0100
1000
0000
,
0001
0000
0100
0000
1000
0100
0001
0000
,
1000
0100
1000
0100
0010
0001
0010
0001
,
0200
0300
0200
0300
2002
0000
3003
0000
,
0110
1001
0001
1000
,
0001
0100
0001
0000
1000
0100
1000
0000
,
0011
1001
0001
1000
,
0200
0000
0301
0100
1000
0001
1000
0000
,
1100
0101
1000
0100
,
0010
0100
1000
0000
0001
0100
0010
0000
,
1010
0000
0101
0000
1000
0100
0010
0001
,
0100
0010
1000
0000
0100
0010
0002
0003
,
0011
1010
0101
1100
,
0001
1000
0010
0000
1000
0001
0010
0000
,
1100
0101
1010
0011
,
0110
0000
1000
0100
0001
0100
1000
0000
,
0001
0010
0100
0000
1000
0010
0100
0000
,
0001
0100
0010
0000
1000
0100
0010
0000
,
1001
0000
0000
0110
0000
0000
1001
0000
,
1100
0000
0000
0022
0000
0000
0033
0000
,
2000
3200
0320
0032
,
1003
0001
0100
0000
0010
1000
0001
0000
,
0200
0320
0230
0302
,
1003
0100
0010
0000
0100
0010
0001
0000
,
2000
3200
0302
0203
,
1300
0001
0100
0000
0010
1000
0100
0000
,
0020
0230
2300
3002
,
1003
0100
1000
0001
0100
0001
1001
0000
,
2000
3200
0302
0023
,
1030
0100
0010
0001
0010
0100
1000
0001
,
2000
3020
0032
0023
,
1030
0001
0010
1000
0010
0100
0010
0001
,
2000
3200
0302
0203
,
0310
0001
1000
0010
0100
0001
0010
0100
,
1000
0000
0000
0001
0000
0000
2002
0000
,
0000
0000
3000
0003
,
2002
0000
0000
0000
,
0003
0000
0000
3000
0000
0000
0000
0000
,
2002
0000
0000
3003
0000
0000
0000
0000
,
0220
0000
0000
0330
0000
0000
0000
0000
,
2000
0100
0001
3010
,
0200
0001
1000
0310
,
1000
0000
0100
0010
0000
0001
0100
0000
,
0010
0000
0000
0000
0100
0000
0001
0000
0000
0000
2000
3000
0002
0000
0003
0000
,
1001
0000
0000
1000
0000
0100
0100
0000
,
0010
0000
0001
0000
1000
0010
0100
0000
,
0101
0000
0000
1000
0000
0001
0001
0000
,
0010
0000
0100
0000
1000
0001
1000
0000
,
1100
0000
0000
0001
0000
0100
0100
0000
,
0010
0000
1000
0000
0001
0010
0100
0000
,
0110
0000
0000
0010
0000
0001
0001
0000
,
1000
0000
0010
0000
0100
0001
1000
0000
,
0002
0000
0000
0010
0000
0000
0013
0000
,
2000
0000
0000
0100
0000
0000
3100
0000
,
0001
0010
1000
0100
,
0001
0100
1000
0010
,
0012
0103
2010
3100
,
1002
0103
2001
3010
,
0001
1000
0010
0100
0001
1000
0100
0010
,
0200
0300
0200
0300
2002
0000
3003
0000
,
2000
3200
0310
0011
,
0001
0100
1000
0000
0001
0010
1000
0000
,
0002
0203
0310
1010
,
1000
0010
0100
0000
1000
0100
0001
1000
,
0200
0320
0031
0011
,
0001
1000
0010
0000
0100
0010
1000
0000
,
0200
0320
0130
1100
,
0001
0100
0001
1000
0100
1000
0001
0000
,
2000
3200
0310
1001
,
0001
1000
0010
0000
0100
0010
1000
0000
,
0200
0320
0031
0110
,
1000
0001
0100
0000
0010
1000
0001
0010
,
0100
1100
0001
0101
,
1000
0000
1001
0000
0001
1000
0010
0000
,
0110
0000
0000
1001
0000
0000
0022
0000
,
0000
0000
0000
0033
,
2002
0000
0000
0000
,
3003
0000
0000
0000
;

//--------------- dance-single - Fred-104 ----------------
#NOTEDATA:;
#STEPSTYPE:dance-single;
#DESCRIPTION:Fred-104;
#DIFFICULTY:Hard;
#METER:15;
#CREDIT:Fred-104;
#NOTES:
0000
0000
0000
0000
,
0000
0000
0000
0000
,
0000
0000
0000
0000
,
0000
0000
0000
0000
,
0000
0000
0000
0000
,
1000
0001
1000
0100
0000
0010
0100
1000
,
0001
0100
0010
0001
1000
0100
0001
0000
,
1000
0100
0010
0001
0000
0100
0010
1000
,
0001
0010
0100
0001
1000
0020
0032
0003
,
1001
0000
0000
0000
0000
1100
0000
0000
,
0110
0000
0000
0000
0020
0000
0032
0103
,
0101
0000
0000
0000
0000
0011
0000
0000
,
1000
0000
0010
0000
0100
0001
0100
0001
0100
0000
0010
0000
0100
0000
0001
0000
,
1001
0000
0000
0000
0000
1100
0000
0000
,
0110
0000
0010
0001
2000
0000
3001
0100
,
0110
0000
0000
0000
0000
1010
0000
0000
,
0001
0100
0010
1000
0001
0010
0110
0000
,
1000
0100
1000
1100
0000
0010
0001
1000
,
0001
0100
0001
0202
0000
0000
0303
0000
,
1000
0001
0100
0101
0000
0001
1000
0100
,
0010
0100
1000
2002
0000
0000
3003
0000
,
0001
0010
0001
0010
0001
0100
0001
0100
,
0010
1000
0010
1000
0100
1000
0100
1000
,
0010
0000
0100
0000
0001
1000
0001
1000
0001
0000
0100
0000
1000
0000
0100
0000
,
0002
0000
2003
0000
3001
1000
1001
0000
,
0011
0000
1100
0000
0001
0100
0010
1000
,
0001
0010
0001
0000
1000
0010
1000
0000
0100
0000
0010
0000
0001
0000
1000
0000
,
1010
0000
0101
0000
1000
0100
0010
0001
,
2000
0000
0000
0000
3020
0000
0230
0000
0302
0000
1003
0001
1000
0000
0100
0000
,
0020
0000
0031
1000
0010
0001
0010
0100
,
0001
1000
0001
0000
0010
0100
0010
0100
1000
0000
0001
0000
0100
0000
0001
0000
,
1000
0000
0100
0000
0001
0000
0100
0000
0010
0000
0001
0000
1000
0001
1000
0000
,
0100
0010
0001
0100
0010
1000
1001
0000
,
1000
0010
0100
0001
0010
0100
1000
0001
,
0100
1000
0001
0010
0100
0010
1000
0001
,
1000
0100
0001
0100
0010
1000
0010
0001
,
2000
0000
0000
0000
3010
0000
0100
0000
0001
0000
1000
0100
1000
0000
0001
0000
,
0100
0010
0100
0001
0010
0100
1000
0001
,
0100
0000
0010
0000
1000
0000
0001
0000
0010
0100
0010
0100
0010
0100
0010
0100
,
0010
0000
0001
0011
0000
1000
0010
0100
,
0001
0000
1000
2002
0000
0000
3003
0000
,
1100
0000
1000
0100
0010
0000
0011
0000
,
0001
0000
0100
0000
0001
0000
1000
0000
0100
0000
0010
0000
0100
1000
0100
1000
,
0001
0000
0100
1000
0100
0000
0101
0000
,
0001
0000
0010
0000
0100
0000
1000
0000
0001
0000
1000
0010
1000
0010
1000
0001
,
1000
0000
0001
0100
1000
0100
0010
0000
,
1000
0000
0001
0000
0010
0000
0100
0000
1000
0000
0001
0000
0100
0001
0100
0001
,
1000
0000
0100
0010
0001
1000
0010
0000
,
0100
0100
0010
0010
0100
0010
1001
0000
,
1100
0000
0101
0000
1000
0100
0010
0000
,
0001
0000
1000
0000
0010
0000
0001
0000
0010
0000
0100
0000
0010
1000
0010
1000
,
0001
0000
0110
0000
1000
0001
1000
0000
,
0001
0000
0100
0000
0010
0000
1000
0000
0001
0000
0010
0100
1000
0100
1000
0100
,
0010
0000
0011
0000
0001
1000
0010
0000
,
0100
0001
1000
0100
0010
0001
1000
0010
,
0110
0000
0001
0101
0000
1000
2002
0000
,
0000
0000
3000
0003
,
2000
0000
0000
0000
,
3020
0000
0000
0200
0000
0000
0330
0000
,
0002
0000
0000
2000
0000
0000
3003
0000
,
2000
0000
0000
0002
0000
0000
3003
0000
,
1000
0100
1000
0000
0010
1000
0010
0000
,
0100
0001
0100
0000
0001
0010
0001
0000
,
1000
0100
0001
0100
0000
0010
0001
0000
,
1000
0010
0001
0010
0100
0002
2003
3000
,
1001
0001
0010
0100
0000
1100
1000
0001
,
0100
0010
1000
0001
0010
0100
1000
0000
,
1001
0001
0100
0001
0000
0011
0010
0100
,
1000
0000
0001
0000
0100
0001
0100
0001
0100
0000
0010
0000
0100
0000
0000
0000
,
1001
1000
0001
0010
0000
0110
0100
1000
,
0001
0100
1000
0100
0001
1000
0100
0010
,
0011
0001
1000
0010
0000
1010
1000
0100
,
0010
0000
0001
0000
0010
0100
0010
0100
0010
0000
0001
0000
1001
0000
0000
0000
,
1000
0000
0010
0100
0000
0010
1000
0000
,
0001
0000
0010
0100
0000
1000
0001
0000
,
1001
0000
0001
0100
0000
0010
0100
0000
,
0001
0010
0100
1000
0100
0010
0001
0000
,
1100
0100
0010
0000
0101
0100
0010
0000
,
1010
0010
0100
0000
0011
0010
0100
0000
,
1000
1000
0010
0010
0100
0100
0001
0001
,
2000
0000
3002
0000
1003
0001
1001
0000
,
0110
0000
1001
0000
0001
0100
0001
0000
,
1000
0000
0100
0000
0010
0000
1000
0000
0010
0000
0001
0000
0010
0100
0010
0100
,
1000
0000
1010
0000
0100
0001
1000
0000
,
0001
0000
1000
0000
0100
0000
0001
0000
0100
0000
1000
0001
1000
0010
1000
0010
,
0100
0000
0101
0000
1000
0100
0010
0000
,
0001
0000
1000
0000
0010
0000
0001
0000
0010
0000
0100
0000
0001
1000
0001
1000
,
0001
0000
0110
0000
1000
0001
0100
0000
,
0001
0001
1000
1000
0001
1000
1001
0000
,
0110
0000
1000
0100
0010
0001
1000
0000
,
0001
0000
0100
0000
0010
0000
1000
0000
0100
0000
0010
0000
0100
1000
0100
1000
,
0001
0100
0010
1000
0100
0010
0001
0000
,
0100
0000
0001
0000
0010
0000
0001
0000
1000
0000
0001
0100
0010
0100
0010
0100
,
0001
0110
1000
0110
,
0001
0000
0110
0000
1000
0100
0010
0001
,
1001
0000
1000
1100
0000
0001
0202
0000
,
0000
0000
0000
0303
,
2002
0000
0000
0000
,
3003
0000
0000
0000
;

//--------------- dance-single - Fred-104 ----------------
#NOTEDATA:;
#STEPSTYPE:dance-single;
#DESCRIPTION:Fred-104;
#DIFFICULTY:Challenge;
#METER:17;
#CREDIT:Fred-104;
#NOTES:
0000
0000
0000
0000
,
0000
0000
0000
0000
,
0000
0000
0000
0000
,
0000
0000
0000
0000
,
0000
0000
0000
0000
,
0001
0000
1000
0001
0010
0000
0200
0000
0000
0000
1300
0000
0010
0000
0100
0000
,
0001
0000
0010
0100
1000
0000
0010
0000
1000
0000
0100
0000
0010
0000
0000
0000
,
0001
0000
1000
0001
0100
0000
0020
0000
0000
0000
1030
0000
0100
0000
0010
0000
,
0001
0000
0100
0001
0010
0000
0001
0000
1000
0000
0200
0300
0020
0000
0030
0000
,
0011
0001
1000
0001
0000
0101
0100
0010
,
1000
0000
0001
0000
0010
0000
0100
0000
2000
0000
3002
0000
2003
0000
3020
0030
,
1010
0010
0100
0001
0000
1001
0001
0100
,
0010
0000
1000
0000
0001
1000
0001
1000
0100
0000
0010
0000
0002
0000
0003
0000
,
1100
1000
0001
0100
0000
0110
1000
0001
,
0010
0000
0100
0000
1000
0000
0010
0000
0200
0000
2300
0000
3200
0000
0302
0003
,
1001
0001
0010
0100
0000
1100
1000
0001
,
0100
0000
1000
0000
0100
0010
0100
0010
1000
0000
0001
0000
1001
0000
0000
0000
,
0011
0001
0010
0011
0000
0011
0001
1000
,
1010
1000
0010
2020
0000
0000
3030
0000
,
0101
0001
0100
0101
0000
0101
0001
1000
,
1100
1000
0100
2200
0000
0000
3300
0000
,
1000
0000
0100
0000
0001
0000
0100
0000
0010
0000
1000
0000
0010
0001
1000
0000
,
0001
0000
0100
0000
1000
0000
0100
0000
0010
0000
0001
0000
0010
1000
0001
0000
,
0010
0000
0100
0000
1000
0100
0010
0001
0100
0000
0010
0000
1000
0000
0001
0000
,
0200
0000
0300
0000
0200
0000
0300
0000
0200
0300
0200
0300
1001
0000
0000
0000
,
1100
0000
0101
0000
1000
0100
0001
0100
,
1000
0001
0100
0010
1000
0001
0100
0010
1000
0000
0001
0000
0010
0000
0010
0000
,
0110
0000
1001
0000
0001
0100
1000
0100
,
0002
0000
0000
0000
1003
0000
0100
0000
0010
0000
0100
0001
0100
0000
1000
0000
,
1010
0000
0011
0000
1000
0010
0001
0010
,
1000
0001
0010
0100
1000
0001
0010
0100
1000
0000
0001
0000
0100
0000
0100
0000
,
0110
0000
0000
0000
1001
0000
0001
0000
0010
0100
0010
0100
1000
0000
0001
0000
,
1000
0100
0001
1000
0010
0001
1001
0000
,
2000
0010
3002
0100
1003
0100
0010
0001
,
1000
0001
0100
0001
1000
0001
0010
0001
1000
0000
0100
0000
0010
0000
0001
0000
,
2000
0100
3002
0010
1003
0010
0100
0001
,
2001
0000
0000
0000
3001
0000
0010
0000
1000
0000
0010
0100
0010
0000
0001
0000
,
1000
0010
1000
0000
0001
0010
0001
0000
1000
0100
1000
0000
0001
0100
0001
0000
,
1000
0010
1000
0010
0100
0001
0100
0001
1000
0100
1000
0100
0010
0001
0010
0001
,
1000
0000
1010
0101
0000
1100
0100
0010
,
0011
0000
0110
2002
0000
0000
3003
0000
,
1100
0101
0011
1010
,
1000
0000
0001
0000
0100
0000
1000
0000
0100
0000
0010
0000
1000
0100
0010
0001
,
1000
1010
0011
1001
,
0001
0000
0100
0000
1000
0000
0100
0000
0010
0000
1000
0001
0010
0100
1000
0001
,
1000
0110
0101
1001
,
0001
0000
0100
0000
0010
0000
0001
0000
0010
0000
0100
0000
0010
1000
0001
1000
,
0100
0110
0011
1001
,
1000
0100
1000
0100
0010
0000
0001
0100
0001
0100
0010
0000
1001
0000
0000
0000
,
1000
0100
0001
0100
0010
0000
0011
0000
,
1000
0000
0001
0000
0100
0000
1000
0000
0001
0000
0010
0000
0100
0001
0100
0001
,
1000
0010
0001
0010
0100
0000
1001
0000
,
0001
0000
0010
0000
1000
0000
0001
0000
0100
0000
0010
0001
1000
0001
1000
0001
,
1000
0100
0001
0100
1000
0000
0110
0000
,
0001
0000
0100
0000
1000
0000
0001
0000
0010
0000
0100
0000
0001
1000
0100
0010
,
0001
0000
0000
0110
0000
1000
2002
0000
,
0000
0000
3000
0003
,
2002
0000
0000
0000
,
0003
0000
0000
3000
0000
0000
0000
0000
,
0202
0000
0000
0300
0000
0000
0000
0000
,
2000
0000
0000
0003
0000
0000
3000
0000
,
0002
0100
1000
0010
,
1003
0100
0010
0100
0001
0100
1000
0001
,
1000
0010
0100
1000
0001
0010
0100
0001
,
1000
0000
0100
0000
0001
0000
1000
0000
0010
0000
0200
0300
2000
0000
3000
0000
,
1010
1000
0001
1000
0000
1100
0100
0010
,
0001
0000
1000
0000
0010
0000
0100
0000
0002
0000
2003
0000
3002
0000
0023
0030
,
0011
0010
0100
1000
0000
1001
1000
0100
,
0010
0000
0001
0000
1000
0001
1000
0001
0100
0000
0010
0000
2000
0000
3000
0000
,
0101
0001
1000
0100
0000
0110
0001
1000
,
0010
0000
0100
0000
0001
0000
0010
0000
0200
0000
0302
0000
0203
0000
2300
3000
,
1001
1000
0010
0100
0000
0101
0001
1000
,
0100
0000
0001
0000
0100
0010
0100
0010
0001
0000
1000
0000
1001
0000
0000
0000
,
0001
0100
1000
0100
0010
0100
0001
1000
,
0100
0010
1000
0010
0001
0010
0100
1000
,
0001
0100
1000
0001
0010
1000
0001
0100
,
0010
0001
1000
0100
0010
1000
1001
0000
,
0010
0001
0010
0001
0010
0001
1000
0000
0010
1000
0010
1000
0010
1000
0001
0000
,
0100
0001
0100
0001
0100
0001
1000
0000
0100
1000
0100
1000
0100
1000
0001
0000
,
1000
0100
1000
0100
0010
0001
0010
0001
1000
0001
0100
0010
1000
0010
0100
0001
,
0200
0000
0300
0000
0200
0000
0300
0000
0200
0300
0200
0300
1001
0000
0000
0000
,
2001
0100
0001
3010
,
0100
0000
0001
0000
1000
0000
0100
0000
0001
0000
0100
0000
1000
0100
1000
0001
,
0200
1000
0010
0301
,
1000
0000
0100
0000
0001
0000
1000
0000
0010
0000
0001
0010
0100
1000
0001
0100
,
0020
1000
0001
0130
,
0001
0000
1000
0000
0100
0000
0010
0000
1000
0000
0010
0000
0001
1000
0010
0100
,
0002
0100
0010
1003
,
0001
0100
0010
1000
0001
0000
1000
0100
0010
0001
1000
0000
1001
0000
0000
0000
,
0002
0000
0100
0000
2003
0000
0010
0000
3001
0000
1000
0001
1000
0000
0000
0000
,
0001
0000
1000
0010
0100
0000
1000
0000
0100
0000
0001
0000
1000
0100
0010
0001
,
1000
0000
0010
0001
1000
0000
0100
0000
0010
1000
0001
0000
1001
0000
0000
0000
,
0001
0000
0100
0010
0001
0000
1000
0000
0100
0000
0001
1000
0100
0010
0001
1000
,
0001
0100
0110
0000
1000
0100
0110
0000
,
0001
0000
0010
0000
0110
0000
0000
0000
1000
0000
0010
0001
0010
0000
1000
0000
,
1001
0000
1100
0101
0000
0011
1010
0000
,
1000
0001
0010
0100
1000
0001
0010
0100
1000
0001
0100
0010
0100
0000
0000
0000
,
2002
0000
0000
0000
,
3003
0000
0000
0000
;

//--------------- dance-double - Fred-104 ----------------
#NOTEDATA:;
#STEPSTYPE:dance-double;
#DESCRIPTION:Fred-104;
#DIFFICULTY:Easy;
#METER:9;
#CREDIT:Fred-104;
#NOTES:
00000000
00000000
00000000
00000000
,
00000000
00000000
00000000
00000000
,
00000000
00000000
00000000
00000000
,
00000000
00000000
00000000
00000000
,
00000000
00000000
00000000
00000000
,
10000000
00000000
00000000
01000000
00000000
00000000
00100000
00000000
,
00001000
00010000
00001000
00000010
,
00000100
00000000
00000000
00001000
00000000
00000000
00000001
00000000
,
00000100
00000000
00001000
00000000
00020000
00030000
00002000
00003000
,
00011000
00000000
00000000
00000000
00000000
01000000
00000000
00000000
,
00010000
00000000
10000000
01000000
,
01100000
00000000
00000000
00000000
00000000
00001000
00000000
00000000
,
00010000
00000000
00001000
00000000
00010000
00000010
00010000
00000000
,
00011000
00000000
00000000
00000000
00000000
00000010
00000000
00000000
,
00001000
00000001
00000010
00000100
,
00001100
00000000
00000000
00000000
00000000
00010000
00000000
00000000
,
00001000
01000000
00001000
00010000
,
00011000
00000000
00000000
00000100
00000000
00000000
00010000
00000000
,
00011000
00000000
00000000
02002000
00000000
00000000
03003000
00000000
,
00011000
00000000
00000000
01000000
00000000
00000000
00010000
00000000
,
10010000
00000000
00000000
22000000
00000000
00000000
33000000
00000000
,
10000000
01000000
00010000
00001000
,
00000100
00000001
00001000
00000010
,
00000100
00001000
00010000
00001000
,
00020000
00030000
00020000
00030000
00022000
00000000
00033000
00000000
,
00001000
00001000
00010000
00100000
,
10000000
00000000
00010000
00000000
00100000
01000000
00100000
00000000
,
00001000
00001000
00010000
00000100
,
00000010
00000000
00000001
00000000
00000100
00000010
00000100
00000000
,
00000001
00000001
00000010
00001000
,
00010000
00100000
10000000
00010000
,
00100000
00100000
01000000
00100000
,
00001000
00000000
00000000
00010000
00000000
00000000
00011000
00000000
,
00020000
00032000
00003020
00000230
,
00001300
00000000
00000001
00000000
00000100
00000010
00000100
00000000
,
00002000
00023000
00230000
02300000
,
03010000
00000000
10000000
00000000
01000000
00100000
01000000
00000000
,
00200000
00302000
00023000
00032000
,
01003000
00001000
00010000
00000100
,
00001100
00000000
00000000
00000001
00000000
00000000
00000100
00000000
,
00000110
00000000
00000000
00002002
00000000
00000000
00003003
00000000
,
00000002
00000203
00002300
00023000
,
00031000
00000000
00010000
00000000
00100000
01000000
00100000
00000000
,
20000000
32000000
03200000
00302000
,
00013000
00000000
00000010
00000000
00001000
00000010
00001000
00000000
,
00000200
00000320
00000230
00002300
,
00003001
00000000
00000100
00000000
00000010
00001000
00000010
00000000
,
00020000
00000000
00032000
00000000
02003000
00000000
03002000
00003000
,
00011000
00000000
00000000
01100000
00000000
00000000
10010000
00000000
,
20000000
32000000
03020000
00032000
,
00003010
00000000
00000100
00000000
00001000
00000100
00010000
00000000
,
00002000
00003200
00000302
00002003
,
00003010
00000000
00000100
00000000
00001000
00010000
00100000
00000000
,
20000000
30020000
00230000
02300000
,
03100000
00001000
00010000
00001000
,
00011000
00000000
00000000
00000110
00000000
00000000
00002002
00000000
,
00000000
00000000
00003000
00000003
,
00002002
00000000
00000000
00000000
,
00003000
00000000
00000000
00000003
00000000
00000000
00000000
00000000
,
00022000
00000000
00000000
00030000
00000000
00000000
00003000
00000000
,
20020000
00000000
00000000
30000000
00000000
00000000
00030000
00000000
,
10000000
01000000
00010000
00001000
,
00010000
00000000
00100000
00000000
10000000
00010000
01000000
00000000
,
00010000
00100000
00001000
00000010
,
00000001
00000000
00000100
00000000
00002000
00003000
00020000
00030000
,
00011000
00000000
00000000
00000000
00000000
00000100
00000000
00000000
,
00001000
00000000
00000001
00000100
,
00000110
00000000
00000000
00000000
00000000
00010000
00000000
00000000
,
00001000
00000000
00010000
00000000
00001000
00100000
00001000
00000000
,
00011000
00000000
00000000
00000000
00000000
00100000
00000000
00000000
,
00010000
10000000
00100000
01000000
,
01010000
00000000
00000000
00000000
00000000
00001000
00000000
00000000
,
00010000
00000100
00010000
00001000
,
00011000
00000000
00000000
00001000
00000000
00000000
01000000
00000000
,
01100000
00000000
00000000
00100000
00000000
00000000
10000000
00000000
,
11000000
00000000
00000000
00100000
00000000
00000000
00001000
00000000
,
00010000
00001000
00000100
00000001
,
00001001
00000000
00000110
00000000
,
00011000
00000000
01100000
00000000
,
10010000
10000000
01000000
00100000
,
00002000
00003000
00002000
00003000
00022000
00000000
00033000
00000000
,
00002000
00023000
02030000
03200000
,
00301000
00000000
00010000
00000000
01000000
10000000
01000000
00000000
,
20000000
30200000
00320000
00032000
,
00013000
00000000
01000000
00000000
00100000
00010000
00001000
00000000
,
00000200
00000320
00000032
00002003
,
00003010
00000000
00000100
00000000
00001000
00010000
00001000
00000000
,
00020000
00000000
00230000
00000000
20300000
00000000
32000000
03000000
,
01100000
00000000
00000000
00011000
00000000
00000000
00000110
00000000
,
00000002
00000203
00002300
00003200
,
00000301
00000010
00000100
00000000
00010000
00001000
00010000
00000000
,
00002000
00023000
02030000
03200000
,
00310000
01000000
10000000
00000000
01000000
00100000
10000000
00000000
,
11000000
00000000
01010000
00000000
,
00011000
00000000
00001010
00000000
,
00000011
00000000
00000000
00001001
00000000
00000000
00002200
00000000
,
00000000
00000000
00003300
00000000
,
00000220
00000000
00000000
00000000
,
00000330
00000000
00000000
00000000
;

//--------------- dance-double - Fred-104 ----------------
#NOTEDATA:;
#STEPSTYPE:dance-double;
#DESCRIPTION:Fred-104;
#DIFFICULTY:Medium;
#METER:13;
#CREDIT:Fred-104;
#NOTES:
00000000
00000000
00000000
00000000
,
00000000
00000000
00000000
00000000
,
00000000
00000000
00000000
00000000
,
00000000
00000000
00000000
00000000
,
00000000
00000000
00000000
00000000
,
00010000
00001000
00010000
00000010
00000000
00001000
00000001
00000000
,
00000010
00000100
00001000
00000000
00000100
00010000
00001000
00000000
,
01000000
00001000
00010000
00001000
00000000
00100000
00010000
00000000
,
10000000
00000000
01000000
00000000
00010000
00000000
00000000
00000000
00001000
00000000
00000020
00000030
00000002
00000000
00000003
00000000
,
00001001
00000000
00000000
00000001
00000000
00000010
00000010
00000000
,
00000100
00010000
00002000
00013000
,
00011000
00000000
00000000
01000000
00000000
00010000
00010000
00000000
,
10000000
00000000
01000000
00100000
00001000
00010000
00001000
00000000
,
00011000
00000000
00000000
00001000
00000000
00010000
00010000
00000000
,
00001000
00000000
00010000
00000000
00100000
10000000
01000000
00000000
,
01100000
00000000
00000000
00100000
00000000
00001000
00001000
00000000
,
00010000
00001000
00000100
00000000
00000001
00001000
00000100
00000000
,
00000110
00000000
00000000
00000011
00000000
00000000
00001010
00000000
,
00011000
00000000
00000000
02020000
00000000
00000000
03030000
00000000
,
11000000
00000000
00000000
10100000
00000000
00000000
00110000
00000000
,
00011000
00000000
00000000
00020020
00000000
00000000
00030030
00000000
,
00001000
00000000
00010000
00000000
01000000
10000000
01000000
00000000
,
00010000
00000000
00001000
00000000
00000100
00000001
00000100
00000000
,
00001000
00010000
01000000
00100000
00010000
01000000
00100000
10000000
,
00020000
00030000
00020000
00030000
20020000
00000000
30030000
00000000
,
11000000
01010000
10000000
00100000
,
10000000
00100000
00010000
00001000
00000100
00000010
00001000
00000000
,
00000110
00000000
00001001
00000000
00000001
00001000
00000100
00000000
,
00011000
00000000
00010000
00001000
00000010
00001000
00010000
00000000
,
00011000
00010010
00010000
00000100
,
00001000
00000001
00000010
00001000
00010000
01000000
00100000
00000000
,
00110000
00000000
10100000
00000000
10000000
01000000
00100000
00000000
,
00001000
00001000
00000000
00010000
00000000
00001000
00011000
00000000
,
00011000
00010010
00011000
00101000
,
00010000
00001000
00000100
00000001
00001000
00000100
00000010
00000000
,
00000011
00001010
00000101
00001100
,
00001001
00000000
00000001
00000100
00001000
00010000
00001000
00000000
,
00010000
00001000
00100000
00000000
00010000
10000000
00100000
00000000
,
01000000
00010000
10000000
00100000
00010000
00001000
00010000
00100000
,
01000000
00000000
00010000
10000000
00000000
01000000
00100000
00001000
,
00010000
00000000
00001000
00022000
00000000
00000000
00033000
00000000
,
00020000
00032000
00003020
00000230
,
00010300
00001000
00000100
00000001
00001000
00000100
00000010
00000000
,
00000002
00000203
00002300
00023000
,
00031000
00010000
01000000
00100000
00010000
00100000
00001000
00000000
,
00020000
00230000
20300000
32000000
,
03100000
00001000
00010000
00001000
00000010
00000001
00000010
00000000
,
00000200
00002300
00003002
00000203
,
00001300
00010000
01000000
10000000
00100000
00010000
00001000
00000000
,
00011000
00010010
00011000
00101000
,
00010000
00001000
00000100
00000001
00001000
00000100
00000010
00000000
,
00000011
00001010
00000101
00001100
,
00000001
00000100
00000010
00000100
00001000
00010000
00001000
00000000
,
00011000
01001000
01010000
10010000
,
10000000
01000000
00010000
00001000
00010000
01000000
10000000
00000000
,
11000000
00000000
00000000
01010000
00000000
00000000
20020000
00000000
,
00000000
00000000
00030000
30000000
,
22000000
00000000
00000000
00000000
,
30000000
00000000
00000000
03000000
00000000
00000000
00000000
00000000
,
02020000
00000000
00000000
03000000
00000000
00000000
00030000
00000000
,
00022000
00000000
00000000
00030000
00000000
00000000
00003000
00000000
,
00020000
00001000
00000010
00031000
,
00020000
00001000
00100000
00031000
,
00010000
00001000
00000010
00000001
00000000
00001000
00000010
00000000
,
00000100
00000000
00000001
00000000
00000010
00000000
00001000
00000000
00010000
00000000
02000000
03000000
20000000
00000000
30000000
00000000
,
10010000
00000000
00000000
10000000
00000000
00100000
00100000
00000000
,
01000000
00001000
00020000
00031000
,
00011000
00000000
00000000
00000100
00000000
00001000
00001000
00000000
,
00000001
00000000
00000100
00000010
00010000
00001000
00010000
00000000
,
00011000
00000000
00000000
00010000
00000000
00001000
00001000
00000000
,
00010000
00000000
00001000
00000000
00000010
00000001
00000100
00000000
,
00000110
00000000
00000000
00000010
00000000
00010000
00010000
00000000
,
00001000
00010000
01000000
00000000
10000000
00010000
01000000
00000000
,
01100000
00000000
00000000
10000000
00000000
01000000
00100000
00000000
,
00011000
00000000
00000000
00010000
00000000
00000100
00001000
00000000
,
00000001
00001000
00000010
00000000
00001000
00000001
00000010
00000000
,
00000100
00001000
00000100
00010000
00001000
01000000
00001000
00000000
,
00011000
00000010
00011000
01000000
,
00011000
00000100
00011000
00100000
,
00001000
00010000
00001000
01000000
00100000
10000000
00010000
00100000
,
02000000
03000000
02000000
03000000
20020000
00000000
30030000
00000000
,
20000000
32000000
03010000
00011000
,
00010000
00001000
00000010
00000001
00000010
00000100
00001000
00000010
,
00000200
00002300
00013000
00011000
,
00001000
00010000
01000000
00100000
00010000
00001000
00000100
00000010
,
00000200
00002300
00003100
00000110
,
00001000
00000010
00000001
00000010
00001000
00000001
00000010
00001000
,
00020000
00230000
10300000
10010000
,
10000000
01000000
00010000
10000000
00100000
00010000
10010000
00000000
,
20000000
30200000
00310000
00011000
,
00001000
00010000
00100000
00010000
00001000
00010000
00000100
00010000
,
00002000
00023000
00030010
00001010
,
00001000
00000100
00000001
00000100
00001000
00000001
00000100
00000000
,
00000110
00010000
00011000
01000000
,
01100000
00000000
10010000
00000000
10000000
01000000
00010000
00001000
,
00011000
00000000
00000010
00010000
00000000
00001000
00022000
00000000
,
00000000
00000000
00033000
00000000
,
00022000
00000000
00000000
00000000
,
00033000
00000000
00000000
00000000
;

//--------------- dance-double - Fred-104 ----------------
#NOTEDATA:;
#STEPSTYPE:dance-double;
#DESCRIPTION:Fred-104;
#DIFFICULTY:Hard;
#METER:16;
#CREDIT:Fred-104;
#NOTES:
00000000
00000000
00000000
00000000
,
00000000
00000000
00000000
00000000
,
00000000
00000000
00000000
00000000
,
00000000
00000000
00000000
00000000
,
00000000
00000000
00000000
00000000
,
00001000
00010000
00100000
01000000
00000000
00010000
10000000
01000000
,
00010000
00001000
00000100
00000010
00001000
00000001
00000010
00000000
,
00000100
00000010
00000001
00000100
00000000
00000010
00000100
00001000
,
00010000
00100000
01000000
00010000
10000000
00020000
00230000
00300000
,
00011000
00000000
00000000
00000000
00000000
00010010
00000000
00000000
,
00000101
00000000
00000000
00000000
00020000
00000000
00032000
00013000
,
00011000
00000000
00000000
00000000
00000000
11000000
00000000
00000000
,
00010000
00000000
01000000
00000000
00001000
00010000
00000010
00001000
00000001
00000000
00000010
00000000
00000100
00000000
00000000
00000000
,
00000011
00000000
00000000
00000000
00000000
00011000
00000000
00000000
,
10100000
00000000
10000000
01000000
00200000
00000000
00301000
00010000
,
00011000
00000000
00000000
00000000
00000000
00000110
00000000
00000000
,
00001000
00000000
00000100
00000000
00000010
00000001
00000010
00000001
00000100
00000000
00000010
00000000
00000110
00000000
00000000
00000000
,
00010000
00001000
00010000
00010010
00000000
00010000
00001000
00100000
,
00010000
00100000
01000000
22000000
00000000
00000000
33000000
00000000
,
10000000
01000000
00100000
00101000
00000000
00001000
00010000
00000010
,
00001000
00000001
00000010
00000220
00000000
00000000
00000330
00000000
,
00000001
00000000
00000010
00000000
00000001
00000000
00000010
00000000
00000100
00000000
00001000
00000000
00000100
00010000
00000100
00010000
,
00001000
00000000
01000000
00000000
00001000
00000000
01000000
00000000
00010000
00000000
10000000
00000000
00010000
10000000
00010000
10000000
,
01000000
00000000
00100000
00000000
00001000
00010000
00001000
00010000
00001000
00000000
00000100
00000000
00000010
00000000
00001000
00000000
,
00000002
00000000
00002003
00000000
00003100
00010000
00011000
00000000
,
01100000
00000000
10010000
00000000
10000000
01000000
00010000
00000100
,
00000010
00000001
00001000
00000010
00000100
00001000
00010000
00001000
,
01001000
00000000
00010100
00000000
00010000
00001000
00000010
00000001
,
00002000
00000000
00000000
00000000
00003002
00000000
00000203
00000000
00002300
00000000
00013000
00001000
00010000
00000000
01000000
00000000
,
20000000
00000000
31000000
00100000
00001000
00000010
00000100
00001000
,
00000001
00000100
00000001
00000000
00001000
00000100
00001000
00000100
00010000
00000000
00001000
00000000
00010000
00000000
00100000
00000000
,
01000000
00000000
00010000
00000000
00100000
00000000
01000000
00000000
00010000
00000000
00001000
00000000
00000100
00000010
00001000
00000000
,
00000100
00000010
00001000
00010000
00100000
01000000
00020000
00000000
,
10030000
00100000
00001000
00000010
00000100
00000001
00001000
00000001
,
00000010
00001000
00010000
01000000
00100000
01000000
10000000
00010000
,
01000000
00100000
00001000
00000010
00010000
00001000
00000100
00000001
,
00000020
00000000
00000000
00000000
00000031
00000000
00000010
00000000
00000100
00000000
00010000
00001000
00010000
00000000
00100000
00000000
,
10000000
00010000
00100000
00010000
00001000
00000100
00000010
00000001
,
00001000
00000000
00000010
00000000
00000100
00000000
00001000
00000000
00010000
00001000
00010000
00001000
00100000
00001000
00100000
00001000
,
00010000
00000000
00001000
01001000
00000000
00001000
00010000
00100000
,
10000000
00000000
01000000
02200000
00000000
00000000
03300000
00000000
,
11000000
00000000
00011000
00000000
00010000
00000010
00010000
00000000
,
00001000
00000000
00010000
00000000
00100000
00000000
01000000
00000000
00010000
00000000
00001000
00000000
00000010
00000100
00000010
00000100
,
00000001
00000000
00000110
00000000
00010000
00001000
00010000
00000000
,
00000100
00000000
00000010
00000000
00001000
00000000
00010000
00000000
01000000
00000000
00100000
00010000
10000000
00010000
10000000
00010000
,
01000000
00000000
01100000
00000000
10000000
01000000
00010000
00000000
,
00001000
00000000
00000100
00000000
00000001
00000000
00001000
00000000
00000100
00000000
00000010
00000000
00001000
00010000
00001000
00010000
,
00001000
00000000
01100000
00000000
00010000
01000000
00100000
00000000
,
10000000
10000000
01000000
01000000
00010000
00001000
00011000
00000000
,
01010000
00000000
00010000
10000000
10000000
01000000
00100000
00000000
,
00001000
00000000
00010000
00000000
00100000
00000000
10000000
00000000
01000000
00000000
00100000
00000000
00001000
00010000
00001000
00010000
,
00000010
00000000
00001000
00000001
00001000
00000100
00000001
00000000
,
00000100
00000000
00000010
00000000
00000001
00000000
00000100
00000000
00001000
00000000
00010000
00001000
01000000
00001000
01000000
00001000
,
00010000
00000000
00001000
00100000
00001000
00010000
01000000
00000000
,
10000000
00010000
01000000
00100000
00001000
00000010
00000100
00000001
,
00001001
00000000
00000100
00000110
00000000
00010000
00022000
00000000
,
00000000
00000000
00003000
00030000
,
00002000
00000000
00000000
00000000
,
02003000
00000000
00000000
00000000
,
03020000
00000000
00000000
20030000
00000000
00000000
00000000
00000000
,
32000000
00000000
00000000
03200000
00000000
00000000
00300000
00000000
,
00001000
00010000
00000010
00001000
00010000
01000000
00100000
10000000
,
01000000
00001000
00000100
00010000
00001000
00000010
00000001
00000000
,
00001000
00000010
00000100
00001000
00010000
00100000
01000000
00000000
,
00010000
00000000
00100000
00000000
01000000
00000000
00010000
00000000
00001000
00000000
00000020
00000030
00000200
00000000
00000300
00000000
,
00001001
00000001
00000010
00000100
00000000
00011000
00001000
01000000
,
00010000
00100000
01000000
10000000
01000000
00100000
00001000
00000000
,
00011000
00010000
00000010
00001000
00000000
00001100
00000100
00000010
,
00000001
00000000
00000100
00000000
00001000
00010000
00001000
00010000
00100000
00000000
01000000
00000000
00010000
00000000
00000000
00000000
,
10010000
10000000
01000000
00100000
00000000
00011000
00010000
00000010
,
00010000
00000100
00010000
00001000
00010000
00100000
00010000
00001000
,
00011000
00010000
00000100
00001000
00000000
00001001
00000001
00000010
,
00000100
00000000
00010000
00000000
00001000
01000000
00001000
01000000
00100000
00000000
10000000
00000000
10010000
00000000
00000000
00000000
,
10000000
00000000
01000000
00100000
00000000
00001000
00010000
00000000
,
00000100
00000000
00000010
00000001
00000000
00000100
00000010
00000000
,
00001001
00000000
00000001
00000100
00000000
00001000
00010000
00000000
,
00001000
00010000
00100000
10000000
01000000
00100000
00001000
00000000
,
00011000
00010000
00000100
00000000
00011000
00001000
01000000
00000000
,
00011000
00010000
00000010
00000000
00011000
00001000
00100000
00000000
,
00001000
00010000
01000000
00100000
00010000
10000000
00100000
00010000
,
00002000
00000000
00023000
00000000
00031000
00010000
00011000
00000000
,
00101000
00000000
00010010
00000000
00010000
00001000
00000100
00000000
,
00000001
00000000
00000010
00000000
00000100
00000000
00000001
00000000
00000100
00000000
00000010
00000000
00000001
00001000
00000001
00001000
,
00000010
00000000
00000110
00000000
00010000
00001000
00010000
00000000
,
00001000
00000000
00010000
00000000
00100000
00000000
10000000
00000000
00010000
00000000
00100000
01000000
10000000
01000000
10000000
01000000
,
00100000
00000000
00011000
00000000
00010000
00001000
00000100
00000000
,
00000010
00000000
00010000
00000000
00001000
00000000
00000010
00000000
00000100
00000000
00001000
00000000
00000100
00010000
00000100
00010000
,
00001000
00000000
01100000
00000000
00010000
01000000
00100000
00000000
,
10000000
10000000
00010000
00010000
10000000
00010000
10010000
00000000
,
11000000
00000000
10000000
00100000
00010000
00001000
00000010
00000000
,
00000001
00000000
00000100
00000000
00001000
00000000
00010000
00000000
00100000
00000000
01000000
00000000
00100000
10000000
00100000
10000000
,
01000000
00100000
00001000
00010000
00001000
00000100
00000001
00000100
,
00001000
00000000
00010000
00000000
00001000
00000000
00010000
00000000
00100000
00000000
01000000
00010000
10000000
01000000
00100000
00010000
,
00100000
00011000
00000010
00011000
,
01000000
00000000
00011000
00000000
00010000
00001000
00000100
00000001
,
00001001
00000000
00010000
00011000
00000000
01000000
02200000
00000000
,
00000000
00000000
00000000
03300000
,
20020000
00000000
00000000
00000000
,
30030000
00000000
00000000
00000000
;

//--------------- dance-double - Fred-104 ----------------
#NOTEDATA:;
#STEPSTYPE:dance-double;
#DESCRIPTION:Fred-104;
#DIFFICULTY:Challenge;
#METER:18;
#CREDIT:Fred-104;
#NOTES:
00000000
00000000
00000000
00000000
,
00000000
00000000
00000000
00000000
,
00000000
00000000
00000000
00000000
,
00000000
00000000
00000000
00000000
,
00000000
00000000
00000000
00000000
,
00010000
00000000
00000100
00001000
00000010
00000000
00000200
00000000
00000000
00000000
00000301
00000000
00000100
00000000
00000010
00000000
,
00000100
00000000
00001000
00010000
00100000
00000000
10000000
00000000
01000000
00000000
00010000
00000000
00001000
00000000
00000000
00000000
,
00010000
00000000
00000100
00000010
00000001
00000000
00002000
00000000
00000000
00000000
00003001
00000000
00000100
00000000
00001000
00000000
,
00010000
00000000
00100000
10000000
01000000
00000000
00100000
00000000
01000000
00000000
00020000
00030000
00002000
00000000
00003000
00000000
,
00011000
00010000
00000100
00000010
00000000
00001001
00001000
00000010
,
00000100
00001000
00010000
00100000
10000000
00100000
00010000
00001000
,
00011000
00010000
00000100
00010000
00000000
00011000
00001000
00010000
,
01000000
00000000
10000000
00000000
01000000
00100000
00010000
00100000
00001000
00000000
00010000
00000000
00010010
00000000
00000000
00000000
,
00101000
00001000
00010000
00000010
00000000
00001001
00001000
00000100
,
00001000
00000010
00000100
00001000
00010000
00100000
10000000
00010000
,
10010000
10000000
00100000
00010000
00000000
00011000
00001000
00000100
,
00000001
00000000
00001000
00000000
00000100
00000010
00001000
00010000
01000000
00000000
00100000
00000000
10010000
00000000
00000000
00000000
,
11000000
10000000
01000000
11000000
00000000
01100000
00100000
00001000
,
00011000
00010000
00001000
00022000
00000000
00000000
00033000
00000000
,
00010010
00000010
00001000
00001001
00000000
00000101
00000100
00001000
,
00011000
00010000
01000000
22000000
00000000
00000000
33000000
00000000
,
10000000
00000000
00100000
00000000
00001000
00000000
00000010
00000000
00010000
00000000
00001000
00000000
00000100
00000001
00001000
00000000
,
00000001
00000000
00000010
00000000
00010000
00000000
00100000
00000000
00001000
00000000
00010000
00000000
01000000
10000000
00010000
00000000
,
01000000
00000000
00001000
00000000
00010000
00001000
00000010
00000100
00001000
00000000
00000001
00000000
00000100
00000000
00001000
00000000
,
00020000
00000000
00030000
00000000
00020000
00000000
00030000
00000000
00020000
00030000
00020000
00030000
00011000
00000000
00000000
00000000
,
10010000
00000000
00011000
00000000
00010000
00001000
00000010
00001000
,
00010000
00001000
01000000
00001000
00010000
00000100
00001000
00000010
00000100
00000000
00001000
00000000
00010000
00000000
00001000
00000000
,
00011000
00000000
10010000
00000000
10000000
00100000
00001000
00000010
,
00020000
00000000
00000000
00000000
00031000
00000000
00000010
00000000
00000100
00000000
00001000
00010000
00100000
00000000
01000000
00000000
,
10010000
00000000
00011000
00000000
10000000
00100000
00010000
00001000
,
00010000
00001000
00000100
00000010
00001000
00000100
00000010
00000001
00001000
00000000
00000010
00000000
00010000
00000000
00001000
00000000
,
00011000
00000000
00000000
00000000
01100000
00000000
00010000
00000000
10000000
01000000
00010000
01000000
00100000
00000000
00010000
00000000
,
10000000
00100000
00010000
00001000
00000100
00000001
00001001
00000000
,
00000001
00000100
00010000
01000000
00001000
00010000
00100000
01000000
,
00100000
10000000
01000000
00100000
00001000
00010000
00000100
00000010
00000100
00000000
00001000
00000000
00000010
00000000
00001000
00000000
,
00000001
00000010
00010000
00100000
00001000
00010000
00100000
01000000
,
00020000
00000000
00000000
00000000
10030000
00000000
01000000
00000000
00010000
00000000
00001000
00000100
00000010
00000000
00001000
00000000
,
00000001
00000010
00001000
00000000
00010000
00100000
10000000
00000000
10000000
01000000
00010000
00000000
00001000
00000100
00000001
00000000
,
00001000
00000001
00000100
00000010
00001000
00000100
00010000
00001000
01000000
00010000
10000000
01000000
00100000
00001000
00010000
00001000
,
01000000
00000000
10100000
01010000
00000000
00011000
00010000
00000100
,
00000110
00000000
00001100
00000022
00000000
00000000
00000033
00000000
,
00001001
00011000
10010000
00011000
,
00010000
00000000
00001000
00000000
00000100
00000000
00000010
00000000
00000100
00000000
00001000
00000000
00010000
00001000
00000010
00000001
,
00001000
00001001
00011000
10010000
,
00001000
00000000
00010000
00000000
01000000
00000000
00100000
00000000
00010000
00000000
00100000
00001000
00010000
00001000
00000100
00000001
,
00001000
00001001
00011000
10010000
,
00001000
00000000
00010000
00000000
00100000
00000000
10000000
00000000
00010000
00000000
00100000
00000000
01000000
00100000
00001000
00010000
,
00001000
00001001
00011000
10010000
,
00101000
00001000
00010000
00010010
00010000
00001000
00011000
00000000
,
01001000
00000000
00010010
00000000
00011000
00010000
00001000
00000000
,
00010000
00000000
00100000
00000000
10000000
00000000
01000000
00000000
00100000
00000000
00001000
00000000
00010000
00001000
00000100
00000010
,
00001000
00000000
00001100
00000000
00000101
00000100
00000010
00000000
,
00001000
00000000
00000001
00000000
00000100
00000000
00001000
00000000
00010000
00000000
00100000
01000000
00100000
10000000
01000000
00100000
,
01000000
00000000
11000000
00000000
00110000
00100000
00001000
00000000
,
00010000
00000000
00001000
00000000
00000010
00000000
00000100
00000000
00001000
00000000
00010000
00000000
00100000
01000000
10000000
00100000
,
10000000
00000000
00001000
00010000
00000000
00000001
00002002
00000000
,
00000000
00000000
00003000
00000003
,
00002002
00000000
00000000
00000000
,
00000003
00000000
00000000
00003000
00000000
00000000
00000000
00000000
,
00022000
00000000
00000000
00003000
00000000
00000000
00000000
00000000
,
00002000
00000000
00000000
00030000
00000000
00000000
00003000
00000000
,
00010000
00001000
00000010
00000001
00001000
00000010
00000100
00001000
,
00010000
00100000
01000000
10000000
01000000
00100000
10000000
00010000
,
10000000
01000000
00010000
00001000
00000010
00000001
00001000
00000000
,
00000001
00000000
00000100
00000000
00001000
00000000
00010000
00000000
00100000
00000000
20000000
30000000
00020000
00000000
00030000
00000000
,
00011000
00001000
01000000
00100000
00000000
10010000
00010000
00100000
,
01000000
00010000
00001000
00000010
00000001
00000010
00001000
00010000
,
00011000
00001000
01000000
00001000
00000000
00011000
00010000
00001000
,
00000100
00000000
00000001
00000000
00000100
00000010
00001000
00000010
00010000
00000000
00001000
00000000
00101000
00000000
00000000
00000000
,
00010010
00010000
00001000
00100000
00000000
10010000
00010000
01000000
,
00010000
00100000
01000000
00010000
00001000
00000010
00000001
00001000
,
00001001
00000001
00000010
00001000
00000000
00011000
00010000
01000000
,
10000000
00000000
00010000
00000000
01000000
00100000
00010000
00001000
00000100
00000000
00000010
00000000
00001001
00000000
00000000
00000000
,
00000001
00000100
00001000
00010000
00100000
01000000
00010000
00000000
,
10000000
01000000
00100000
01000000
00010000
00001000
00000100
00000000
,
00000001
00001000
00000100
00000010
00001000
00010000
01000000
00100000
,
00010000
10000000
00100000
00001000
00000010
00010000
00001000
00000000
,
00010000
00001000
00000100
00000000
00000010
00001000
00000001
00000000
00000100
00001000
00010000
00000000
00100000
01000000
00010000
00000000
,
10000000
00100000
00010000
00000000
00001000
00000100
00000010
00000000
00000100
00000001
00001000
00000100
00000010
00000100
00010000
00000000
,
00001000
00100000
01000000
10000000
00100000
01000000
00010000
00100000
00001000
00010000
00000100
00001000
00000010
00000100
00000001
00000010
,
00000200
00000000
00000300
00000000
00000200
00000000
00000300
00000000
00000200
00000300
00000200
00000300
00001001
00000000
00000000
00000000
,
00000002
00000100
00002003
00000010
00003001
00001000
00000001
00000000
,
00001000
00000000
00000010
00000000
00000100
00000000
00001000
00000000
00010000
00000000
00100000
00000000
10000000
00010000
00100000
01000000
,
20000000
01000000
30020000
00100000
10030000
01000000
00100000
00000000
,
00001000
00000000
00010000
00000000
00100000
00000000
01000000
00000000
00100000
00000000
10000000
00010000
00100000
00001000
00010000
00001000
,
00000200
00000001
00000320
00001000
00000130
00000001
00001001
00000000
,
00000001
00000000
00001000
00000000
00000010
00000000
00001000
00000000
00010000
00000000
01000000
00000000
00100000
10000000
01000000
00100000
,
02000000
10000000
03200000
00010000
01300000
10000000
10010000
00000000
,
10000000
01000000
00010000
00001000
00000010
00000000
00000001
00000100
00001000
00010000
00100000
00000000
11000000
00000000
00000000
00000000
,
00020000
00000000
01000000
00000000
20030000
00000000
00100000
00000000
30010000
00000000
10000000
01000000
00100000
00000000
00000000
00000000
,
00001000
00000000
00010000
00001000
00000100
00000000
00000001
00000000
00000100
00000000
00010000
00000000
01000000
00001000
01000000
00001000
,
00010000
00000000
00001000
00010000
00100000
00000000
01000000
00000000
00010000
10000000
01000000
00000000
01100000
00000000
00000000
00000000
,
00010000
00000000
10000000
01000000
00100000
00000000
00010000
00000000
00001000
00000000
00000100
00000010
00000001
00000100
00001000
00010000
,
00001000
10010000
00010000
00001001
,
00010000
00000000
00000000
00000000
00011000
00000000
00000000
00000000
00001000
00000000
00010000
00100000
10000000
00000000
01000000
00000000
,
01100000
00000000
00000000
00011000
00000000
00000000
00000110
00000000
,
00000001
00000100
00001000
00010000
00100000
00000000
10000000
01000000
00010000
00001000
00000010
00000001
00001000
00000000
00000000
00000000
,
00002002
00000000
00000000
00000000
,
00003003
00000000
00000000
00000000
;
