#TITLE:ABSOLUTE;
#ARTIST:dj TAKA;
#GENRE:EPIC TRANCE;
#BANNER:ABSOLUTE.png;
#BACKGROUND:ABSOLUTE-bg.png;
#CDTITLE:./CDTitles/bm IIDX 4th style.png;
#MUSIC:ABSOLUTE.ogg;
#SAMPLESTART:20.001;
#SAMPLELENGTH:15;
#BPMS:0=144,270=133,271=120,272=112,273=89,274=85,275=71,275.5=50,276=80;
#STAGE:22;

//--------------- dance-single - Fred-104 ----------------
#NOTES:
     dance-single:
     Fred-104:
     Beginner:
     3:
     :
0000
0000
0000
0000
,
0000
0000
0000
0000
,
0000
0000
0000
0000
,
1000
0000
0000
0000
,
0001
0000
0000
0000
,
1000
0000
0000
0000
,
0001
0000
0000
0000
,
1000
0000
0001
0000
,
1001
0000
0000
0000
,
0000
0000
0000
0000
,
0000
0000
0000
0000
,
0000
0000
0000
0000
,
0100
0000
0001
0000
,
0100
0000
0010
0000
,
0100
0000
0001
0000
,
1000
0000
0001
0000
,
0001
0000
1000
0000
,
0010
0000
0100
0000
,
0001
0000
1000
0000
,
0001
0000
1000
0000
,
1000
0000
0001
0000
,
2000
0000
0000
3000
,
0001
0000
0100
0000
,
0002
0000
0000
0003
,
0100
0000
0010
0000
,
0200
0000
0000
0300
,
0001
0000
0010
0000
,
0002
0000
0000
0003
,
0000
0000
0000
0000
,
1000
0000
0010
0000
,
0100
0000
0001
0001
,
0001
0000
1000
0000
,
0010
0000
0100
0100
,
0100
0000
0001
0000
,
1000
0000
1000
1000
,
1000
0000
0001
0000
,
0100
0000
0001
0001
,
0001
0000
0000
0000
,
1000
0000
0001
0000
,
1000
0000
0010
0000
,
0001
0000
1000
0000
,
0001
0000
0010
0000
,
1000
0000
0001
0000
,
1000
0000
0100
0000
,
0001
0000
1000
0000
,
0001
0000
0100
0000
,
1000
0000
0010
0000
,
2000
0000
3000
0000
,
0001
0000
0100
0000
,
0020
0000
0030
0000
,
0100
0000
0001
0000
,
2000
0000
3000
0000
,
0001
0000
0010
0000
,
0200
0000
0300
0000
,
1000
0000
0001
0001
,
0001
0000
0100
0000
,
0010
0000
1000
1000
,
1000
0000
0001
0000
,
0100
0000
0001
0001
,
0001
0000
0100
0000
,
0010
0000
0100
0100
,
0100
0000
0001
0000
,
1000
0000
0010
0000
,
0100
0100
0100
0000
,
0001
0000
1000
0000
,
0001
0001
0001
0000
,
1000
0000
0010
0000
,
0200
0000
0300
0000
,
2002
0000
0000
0000
,
0003
0000
0000
0000
,
3000
0000
0000
0000
;

//--------------- dance-single - Fred-104 ----------------
#NOTES:
     dance-single:
     Fred-104:
     Easy:
     7:
     :
0000
0000
0000
0000
,
0000
0000
0000
0000
,
0000
0000
0000
0000
,
1001
0000
0000
0000
,
0110
0000
0000
0000
,
1001
0000
0000
0000
,
0110
0000
0000
0000
,
1001
0000
0110
0000
,
1001
0000
0001
0000
,
0100
0000
0010
0000
,
1000
0000
0010
0000
,
0100
0100
0001
1000
,
0001
0010
0010
0100
,
2000
0000
3020
0000
,
0130
0001
1000
0001
,
0002
0000
2003
0000
,
3010
0010
0100
0001
,
2000
0000
3200
0000
,
1300
0010
0100
0001
,
0200
0000
0320
0000
,
0130
0001
0100
0010
,
0100
0001
2000
0000
,
3001
0010
0100
1000
,
0001
0100
0010
0010
,
1000
0010
0100
0001
,
0010
0001
1000
1000
,
0001
0010
1000
0010
,
0001
1000
0010
0001
,
0000
0000
0000
0010
,
1000
0001
1000
0010
,
0200
0000
0301
1000
,
0001
0010
0100
1000
,
0002
0000
0103
0010
,
0100
0001
1000
0100
,
0020
0000
0031
1000
,
0010
0100
0010
1000
,
0200
0000
0000
0000
0310
0000
0001
1000
,
0000
0000
0000
0000
,
0001
0100
0010
0100
,
0001
0100
0001
0000
1000
0000
1000
0000
,
0010
0100
0010
1000
,
0100
0010
0100
0000
0010
0000
0001
0000
,
1000
0001
0100
0010
,
0100
0010
0100
0000
0001
0000
1000
0000
,
0001
0100
0010
1000
,
0002
0000
2000
3003
,
0001
0000
0000
0000
0010
0100
0010
0000
,
1000
0000
0000
0000
0100
1000
0100
0000
,
0010
0000
0000
0000
0001
0100
0001
0000
,
0100
0000
0000
0000
0010
0100
0010
0000
,
1000
0100
0010
0001
,
0100
0010
0100
0001
,
1000
0010
0100
0001
,
2000
0000
0002
3003
,
0001
0100
0010
0100
,
0001
0000
0100
0000
0010
1000
0010
0000
,
1000
0100
0010
0100
,
1000
0000
0001
0000
0100
0001
0100
0000
,
0010
0100
0010
0010
,
1000
0000
0001
0000
0100
0001
0100
0000
,
0001
0010
0100
1000
,
0020
0000
0200
0330
,
0001
0000
0100
0000
0010
0100
0010
0000
,
1000
0000
1001
0000
,
0100
0000
0001
0000
1000
0001
1000
0000
,
0001
0000
0110
0000
,
1000
0000
0100
0000
1000
0100
1000
0000
,
0001
0100
1000
0000
,
0010
0000
0001
1000
,
2002
0000
0003
0000
,
3000
0000
0000
0000
;

//--------------- dance-single - Fred-104 ----------------
#NOTES:
     dance-single:
     Fred-104:
     Medium:
     10:
     :
0000
0000
0000
0000
,
0000
0000
0000
0000
,
0000
0000
0000
0000
,
1001
0000
0000
0000
0000
0000
0000
0100
,
0110
0000
0000
0000
,
1001
0000
0000
0000
0000
0000
0000
0001
,
1001
0000
0000
0000
,
1010
0000
0101
0000
,
1001
0000
0001
0000
,
1000
0010
0100
0100
,
0001
0010
0100
1000
,
0001
1000
0001
1000
0010
0100
0100
0000
,
0001
0100
0001
0100
0010
1000
0100
0010
,
0002
0000
1003
0010
,
0100
0001
0100
0001
0100
0010
0100
1000
,
0200
0000
0301
1000
,
0001
0010
0001
1000
0001
0100
0010
0100
,
0020
0000
1030
0100
,
0010
0001
1000
0001
0100
0001
1000
0001
,
0200
0000
0310
0100
,
0001
0000
0000
0100
0000
0000
0010
0000
1000
0000
0000
0100
0000
0000
0010
0000
,
0001
0000
1000
0100
0001
0000
1000
0010
,
0001
0000
0000
1000
0000
0000
0010
0000
0100
0000
0000
0001
0000
0000
1000
0000
,
0100
0000
0001
0100
1000
0000
0001
0010
,
1000
0000
0000
0010
0000
0000
0100
0000
0001
0000
0000
1000
0000
0000
0100
0000
,
0010
0000
0001
0100
0010
0000
0001
0010
,
0100
0000
0000
1000
0000
0000
0001
0000
0100
0000
0000
0010
0000
0000
1000
0000
,
0100
0000
1000
0000
0001
0000
0100
0010
,
0000
0000
0000
0000
0000
0000
0000
0000
0000
0000
0000
0001
0100
0000
0010
0000
,
1000
0000
0000
0100
0000
0000
1000
0000
0010
0000
0000
0100
0000
0000
0001
0000
,
0200
2300
3200
0302
,
0013
0000
0000
0100
0000
0000
0001
0000
0100
0000
0000
0010
0000
0000
1000
0000
,
0002
0000
2003
0000
3010
0100
0002
0000
,
1003
0000
0000
0010
0000
0000
0100
0000
1000
0000
0000
0100
0000
0000
0001
0000
,
0020
0000
0032
0000
1003
0001
0200
0000
,
0301
0000
0000
0100
0000
0000
0010
0000
1000
0000
0000
0100
0000
0000
0010
0000
,
0001
0000
0100
0000
0010
0000
1000
0001
,
0000
0000
0000
0000
0000
0000
0000
0000
0000
0000
0001
1000
0001
0000
0000
0000
,
1000
0100
0001
0100
,
1000
0010
0100
0001
,
0001
1000
0010
0100
0001
0010
1000
0010
,
0100
1000
0010
1000
0002
0000
0000
0000
,
1003
0010
0100
0001
,
0010
0100
1000
1000
,
0010
0100
1000
0001
1000
0010
0100
0001
,
0010
0100
1000
0001
0200
0000
0000
0000
,
0301
0000
0101
0000
0001
0100
0010
0000
,
1000
0000
1100
0000
1000
0100
0010
0000
,
0001
0000
0011
0000
0001
0100
0010
0000
,
1000
0000
1010
0000
1000
0010
0100
0000
,
0001
0000
0010
0000
1000
0010
0001
0000
,
1000
0000
0010
0000
0001
0010
1000
0000
,
0001
0000
0100
0000
1000
0100
0001
0000
,
0200
1000
0310
0110
,
0100
0001
0010
0000
0001
0100
0010
0000
,
1000
0100
0010
0000
0001
0100
0010
0000
,
1000
0100
0001
0000
1000
0010
0001
0000
,
0010
1000
0100
0000
0010
0001
1000
0000
,
0001
0010
0100
1000
0010
0100
0001
0000
,
1000
0100
0010
0100
0001
0100
1000
0000
,
0001
0010
1000
0010
0001
1000
0001
0000
,
1000
0100
0010
0001
0100
0010
0200
0000
,
0301
0100
0001
0100
1000
0100
1000
0100
,
0002
0010
1003
1001
,
1000
0010
1000
0010
0001
0010
0001
0010
,
2000
0100
3001
1001
,
0001
0200
1300
0100
0001
0010
1000
0010
,
0002
0100
1003
1001
,
0100
0010
1000
0010
0100
0001
0010
0100
,
2200
0000
0300
0000
,
3000
0000
0000
0000
;

//--------------- dance-single - Fred-104 ----------------
#NOTES:
     dance-single:
     Fred-104:
     Hard:
     13:
     :
0000
0000
0000
0000
,
0000
0000
0000
0000
,
0000
0000
0000
0000
,
0110
0000
0000
0000
0000
0000
0000
0100
,
1001
0000
0000
0000
,
1010
0000
0000
0000
0000
0000
0000
0001
,
0101
0000
0000
0000
,
1100
0000
0011
0000
,
1001
0001
0100
0010
,
1000
0100
0010
0001
,
1000
0100
0010
0001
1000
0010
0100
0001
,
1000
0000
0100
1000
0000
0100
1000
0000
0001
0100
0000
0001
0100
0000
0000
0010
0000
0000
0100
0000
0000
0100
0000
0000
,
0001
0000
0100
0001
0100
0000
0010
0000
1000
0000
0100
1000
0100
0000
0020
0000
,
1000
0001
0100
0031
,
0100
0000
0010
0100
0010
0000
1000
0000
0100
0000
1000
0001
1000
0000
0200
0000
,
0001
1000
0001
0310
,
1000
0000
0001
0010
0001
0000
0010
0000
0100
0000
0010
0100
0010
0000
0200
0000
,
1000
0001
0010
1300
,
0001
0000
0100
0010
0100
0000
0001
0000
1000
0000
0100
0010
0100
0000
1000
0000
,
0010
0000
0000
0000
0100
0000
0010
0000
0100
0010
0100
0010
0100
0000
0000
0000
,
0001
0000
1000
0100
0020
0000
0032
0000
0103
0000
0001
0010
0200
0000
0320
0000
,
0031
0100
0010
0100
1000
0100
0010
1000
,
0001
0000
1000
0001
0020
0000
0032
0000
0103
0000
0001
0100
0020
0000
2030
0000
,
3001
0100
1000
0100
0001
0010
0100
1000
,
0001
0000
1000
0010
0200
0000
0302
0000
2003
0000
3001
0100
0020
0000
2030
0000
,
3100
0010
1000
0010
0001
1000
0010
0100
,
0001
0000
0100
0010
2000
0000
3200
0000
0310
0000
0001
0010
0200
0000
2300
0000
,
3010
0000
0100
0000
0001
0000
1000
0000
0100
0000
0010
0000
0001
1000
0001
0000
,
0000
0000
0000
0000
0000
0000
0000
0000
0000
0000
0000
0001
0100
0000
0001
0000
,
1000
0000
0010
0100
0000
0000
0100
0000
0001
0000
0010
0100
0000
0000
0100
0000
,
1000
0000
0100
0000
1000
0100
1000
0100
0000
0001
0100
0001
0200
0000
0000
0000
,
1300
0000
0010
0100
0000
0000
0010
0000
0001
0000
0010
0100
0000
0000
0010
0000
,
1000
0000
0010
0000
0100
0000
0001
0010
0000
0010
0100
0000
1000
0001
1000
0001
,
1000
0000
0001
0100
0000
0000
0001
0000
0010
0000
0100
1000
0000
0000
0010
0000
,
0100
0000
0001
0000
0100
0010
0000
0010
0100
0001
0000
0001
1000
0100
0000
0100
,
0010
0000
0001
0100
0000
0000
0010
0000
0100
0000
0001
1000
0000
0000
0001
0000
,
0010
0000
0001
0000
1000
0001
1000
0000
0001
0100
0010
0100
0001
0000
0001
0000
,
0000
0000
0000
0000
0000
0000
0000
0000
0000
0000
0001
1000
0010
0000
0100
0000
,
0001
0010
0001
0100
0001
1000
0010
0200
,
0001
0000
1000
0000
0310
0100
1000
0100
,
0001
0000
0010
0000
0001
0000
0001
1000
0001
0000
1000
0000
0010
0000
1000
0001
,
1000
0000
0100
0000
0010
0000
0001
0000
0100
0010
0100
0010
0200
0000
0000
0000
,
0301
0100
0010
0100
0001
1000
0001
0200
,
1000
0000
0001
0000
0310
1000
0001
0100
,
0001
0000
0000
0000
0000
0000
0000
0000
0100
0000
0000
0000
0000
0000
0000
0000
0020
0030
0000
0000
0000
0000
0000
0000
0020
0030
0000
0000
0000
0000
0000
0000
0001
0000
0000
0000
0000
0000
0000
0000
1000
0000
0000
0000
0000
0000
0000
0000
0200
0300
0000
0000
0000
0000
0000
0000
0200
0300
0000
0000
0000
0000
0000
0000
,
0001
0000
0000
0000
0000
0000
0000
0000
0020
0030
0000
0000
0000
0000
0000
0000
0020
0030
0000
0000
0000
0000
0000
0000
1000
0000
0000
0000
0000
0000
0000
0000
0001
0000
0000
0000
1000
0000
0000
0000
0001
0000
0000
0000
1000
0000
0000
0000
0002
0000
0000
0000
0000
0000
0000
0000
0000
0000
0000
0000
0000
0000
0000
0000
,
1003
0000
0100
0000
0001
0000
0000
0000
1000
0010
1000
0000
0010
0000
0001
0000
,
1000
0000
0100
0000
0001
0000
0000
0000
1000
0010
1000
0000
0010
0000
0001
0000
,
1000
0000
0100
0000
0010
0000
0000
0000
1000
0010
0100
0000
1000
0000
1000
0000
,
0001
0000
0100
0000
0010
0000
0000
0000
0001
0010
0100
0000
0001
0000
1000
0000
,
0001
0000
0100
0000
0010
0000
0100
0000
0001
0100
0001
0000
0010
0000
0100
0000
,
1000
0000
0010
0000
0100
0000
0001
0000
1000
0100
1000
0000
0100
0000
0010
0000
,
0001
0000
0100
0000
0001
0000
0010
0000
0100
0010
0100
0000
1000
0000
0001
0000
,
2000
0010
3001
1001
,
0001
0000
0100
0000
0010
0000
0000
0000
1000
0100
1000
0100
1000
0000
0000
0000
,
0001
0000
0010
0000
0100
0000
0000
0000
0010
0100
0010
0100
0010
0000
0000
0000
,
0100
0000
1000
0000
0001
0000
0000
0000
0100
0001
0100
0001
0100
0000
0000
0000
,
0001
0000
0010
0000
0100
0000
0000
0000
1000
0100
1000
0100
1000
0000
0000
0000
,
0001
0000
0100
0000
0010
0000
0000
0000
1000
0100
0010
0001
1000
0000
0000
0000
,
0001
0000
0100
0000
0010
0000
0000
0000
0100
0001
1000
0001
0100
0000
0000
0000
,
0001
0000
0010
0000
0100
0000
0000
0000
1000
0010
0100
0001
0100
0000
0000
0000
,
0002
0203
0302
0203
0320
2030
3020
2030
,
3001
0000
0100
0010
0100
0000
0001
0000
1000
0000
0100
0010
0100
0000
1000
0000
,
0001
0000
0000
0000
0000
0000
0000
0000
1000
0000
0000
0000
0000
0000
0000
0000
0200
0300
0000
0000
0000
0000
0000
0000
0200
0300
0000
0000
0000
0000
0000
0000
0001
0000
0000
0000
0000
0000
0000
0000
0020
0030
0000
0000
0000
0000
0000
0000
0020
0030
0000
0000
0000
0000
0000
0000
1000
0000
0000
0000
0000
0000
0000
0000
,
0001
0000
1000
0001
1000
0000
0100
0000
0010
0000
0100
0010
0100
0000
1000
0000
,
0001
0000
0000
0000
0000
0000
0000
0000
0200
0300
0000
0000
0000
0000
0000
0000
0200
0300
0000
0000
0000
0000
0000
0000
1000
0000
0000
0000
0000
0000
0000
0000
0001
0000
0000
0000
0000
0000
0000
0000
1000
0000
0000
0000
0000
0000
0000
0000
0200
0300
0000
0000
0000
0000
0000
0000
0200
0300
0000
0000
0000
0000
0000
0000
,
0001
0000
0010
0001
0100
0000
0010
0000
1000
0000
0100
0010
0100
0000
1000
0000
,
0010
0001
1000
0100
0001
0010
1000
0000
,
1000
0010
0100
0001
0010
0100
1000
0001
,
2002
0000
0003
0000
,
3000
0000
0000
0000
;

//--------------- dance-double - Fred-104 ----------------
#NOTES:
     dance-double:
     Fred-104:
     Easy:
     7:
     :
00000000
00000000
00000000
00000000
,
00000000
00000000
00000000
00000000
,
00000000
00000000
00000000
00000000
,
10010000
00000000
00000000
00000000
00000000
00000000
00000000
00100000
,
01100000
00000000
00000000
00000000
,
00011000
00000000
00000000
00000000
00000000
00000000
00000000
00000100
,
00000110
00000000
00000000
00000000
,
00001001
00000000
00000110
00000000
,
00001001
00000000
00000001
00000000
,
00000100
00000010
00001000
00000100
,
00010000
00001000
01000000
00010000
,
00100000
00000000
00001000
00000000
00010000
00001000
00010000
00000000
,
00001000
00000000
00100000
00000000
01000000
00000000
10000000
00010000
,
20000000
00000000
30010000
00010000
,
10000000
00000000
00100000
00000000
00010000
00000000
00010000
00001000
,
00020000
00000000
00031000
00001000
,
00010000
00000000
00000100
00000000
00000010
00000000
00001000
00000001
,
00002000
00000000
00003001
00000001
,
00000001
00000000
00000010
00000000
00000100
00000000
00001000
00000010
,
00000200
00000000
00000310
00000010
,
00001000
00000000
00000001
00000000
00000100
00000010
00000100
00000000
,
00010000
00000000
00001000
00100000
,
00010000
00000000
10000000
00000000
00010000
01000000
00010000
00000000
,
10000000
00000000
01000000
00100000
,
00001000
00000000
00010000
00000000
00000100
00000010
00000100
00000000
,
00001000
00000000
00000001
00000100
,
00000010
00000000
00001000
00000000
00010000
00001000
00010000
00000000
,
00100000
00000000
10000000
01000000
,
00000000
00000000
00000000
01000000
,
00100000
01000000
10000000
00100000
,
01100000
00000000
00010000
00001000
,
00010000
00001000
00000100
00000001
,
00001001
00000000
00000100
00000010
,
00000010
00000001
00001000
00000100
,
00011000
00000000
00000010
00000000
,
00010000
00001000
00100000
00010000
,
10010000
00000000
00000000
00000000
01000000
00000000
00100000
01000000
,
00000000
00000000
00000000
00000000
,
10000000
00000000
01000000
00000000
,
00100000
00010000
00010000
00000000
,
00001000
00010000
00000100
00001000
,
00000010
00000100
00000010
00000000
00000200
00000000
00000000
00000000
,
00000301
00000000
00000100
00000000
,
00000001
00000010
00000100
00001000
,
00000010
00000100
00000001
00001000
,
00000010
00010000
00000010
00000000
00020000
00000000
00031000
00000000
,
00001000
00100000
01000000
00100000
,
00001000
00000100
00010000
00000100
,
00001000
00000010
00000100
00000001
,
00000100
00000010
00000001
00000100
,
00010000
00001000
00100000
10010000
,
01000000
00010000
00001000
00010000
,
00011000
00000000
00000100
00001000
,
00001010
00000000
00002000
00023000
,
00130000
10000000
01000000
00100000
,
00010000
00100000
10000000
00100000
,
00010000
00000000
01000000
00000000
00010000
00000000
00001000
00000100
,
00000001
00000100
00000010
00000100
,
00000001
00001000
00000010
00010000
,
00001000
00100000
01000000
00100000
,
00010000
10000000
00100000
01000000
,
00010000
00100000
00001000
00001000
,
00010000
00001000
00010000
00000000
00000100
00000000
00000010
00000100
,
00000010
00000000
00000010
00000100
,
00000001
00001000
00000001
00000000
00000100
00000000
00000010
00010000
,
00000010
00000000
00001000
00000100
,
00010000
00001000
00010000
00000000
00100000
00000000
01000000
10000000
,
01000000
00000000
00100000
10000000
,
00100000
01000000
00001000
00010000
,
00022000
00000000
00003000
00000000
,
00030000
00000000
00000000
00000000
;

//--------------- dance-double - Fred-104 ----------------
#NOTES:
     dance-double:
     Fred-104:
     Medium:
     10:
     :
00000000
00000000
00000000
00000000
,
00000000
00000000
00000000
00000000
,
00000000
00000000
00000000
00000000
,
00001001
00000000
00000000
00000000
00000000
00000000
00000000
00010000
,
00011000
00000000
00000000
00000000
,
10010000
00000000
00000000
00000000
00000000
00000000
00000000
01000000
,
01100000
00000000
00000000
00000000
,
00011000
00000000
00000110
00000000
,
00001001
00000000
00000000
00000001
00000000
00000010
00000000
00001000
,
00000000
00010000
00000000
00100000
00000000
10000000
00000000
01000000
,
00000000
00010000
00000000
00001000
00000000
00000100
00000000
00000001
,
00001000
00000000
00000001
00000000
00000100
00000010
00000100
00000000
,
00000001
00000100
00001000
00000000
00010000
01000000
10000000
00000000
,
00020000
00000000
01030000
00100000
,
10000000
01000000
00010000
00000000
00001000
00000100
00000001
00000000
,
00002000
00000000
00003010
00000100
,
00000001
00000010
00001000
00000000
00010000
00100000
10000000
00000000
,
00020000
00000000
01030000
00100000
,
10000000
00100000
00010000
00000000
00001000
00000010
00000001
00000000
,
00002000
00000000
00003010
00000100
,
00000001
00000000
00000000
00000100
00000000
00000000
00001000
00000000
00010000
00000000
00000000
01000000
00000000
00000000
10000000
00000000
,
00020000
01000000
00100000
01030000
,
00010000
00000000
00000000
10000000
00000000
00000000
00100000
00000000
00010000
00000000
00000000
00001000
00000000
00000000
00000010
00000000
,
00000002
00000100
00000010
00000103
,
00000001
00000000
00000000
00000010
00000000
00000000
00001000
00000000
00010000
00000000
00000000
00100000
00000000
00000000
10000000
00000000
,
00020000
00100000
01000000
00130000
,
00010000
00000000
00000000
10000000
00000000
00000000
01000000
00000000
00010000
00000000
00000000
00001000
00000000
00000000
00000100
00000000
,
00000002
00000100
00000010
00001003
,
00000000
00000000
00000000
00000000
00000000
00000000
00000000
00000000
00000000
00000000
00000000
00001000
00010000
00000000
00000000
00000000
,
00002000
00000000
00000000
00023000
00000000
00000000
00230000
00000000
02300000
00000000
00000000
23000000
00000000
00000000
30020000
00000000
,
01030000
00100000
10000000
01000000
,
00020000
00000000
00000000
00032000
00000000
00000000
00003020
00000000
00000230
00000000
00000000
00000302
00000000
00000000
00002003
00000000
,
00003001
00000010
00001000
00010000
,
02000000
00000000
00000000
23000000
00000000
00000000
30200000
00000000
02300000
00000000
00000000
03020000
00000000
00000000
00030200
00000000
,
00000310
00000001
00001000
00000010
,
00000200
00000000
00000000
00000302
00000000
00000000
00002003
00000000
00023000
00000000
00000000
00230000
00000000
00000000
02300000
00000000
,
13000000
00010000
01000000
00100000
,
00000000
00000000
00000000
00000000
00000000
00000000
00000000
00000000
00000000
00000000
00001000
00010000
00001000
00000000
00000000
00000000
,
01000000
00010000
00001000
00000100
,
00000001
00000100
00000001
00000000
00001000
00000100
00001000
00000000
,
00000001
00000010
00001000
00000000
00010000
00100000
10000000
00000000
,
00010000
01000000
00100000
10000000
00020000
00000000
10030000
00000000
,
10010000
00100000
00010000
00001000
,
00000010
00000001
00001000
00000100
,
00000001
00000100
00001000
00000000
00010000
01000000
10000000
00000000
,
00010000
01000000
00100000
10000000
01000000
00000000
01100000
00000000
,
10000000
00010000
00100000
01000000
00010000
00001000
00000010
00001000
,
00000010
00000001
00000100
00000010
00001000
00000000
00001001
00000000
,
00000100
00001000
00010000
01000000
10000000
01000000
00010000
01000000
,
00100000
10000000
00010000
01000000
00100000
00000000
10010000
00000000
,
00100000
00001000
01000000
00010000
00100000
00001000
00010000
00000010
,
00001000
00000100
00010000
00001000
00010000
00000000
00011000
00000000
,
00010000
00001000
00100000
00000000
00001000
00010000
00000010
00000000
,
00001020
00000100
00000001
00001030
,
00000001
00000000
00000010
00000000
00001000
00010000
00100000
00000000
,
10000000
00000000
00100000
00000000
00010000
00001000
00000010
00000000
,
00000001
00000000
00000100
00000000
00001000
00010000
01000000
00000000
,
10000000
00000000
01000000
00000000
00010000
00001000
00000100
00000000
,
00001001
00000000
00000001
00000000
00000100
00001000
00010000
00000000
,
01100000
00000000
10000000
00000000
01000000
00010000
00001000
00000000
,
00000110
00000000
00000001
00000000
00000010
00001000
00010000
00000000
,
00100000
10000000
00010000
01000000
00100000
10000000
01000000
00000000
,
00100000
00001000
00010000
00001000
00000010
00001000
00010000
00000000
,
00002000
01000000
00000100
00103000
,
00001000
00010000
00001000
01000000
00001000
00010000
00000100
00000000
,
00020000
00000100
01000000
00030100
,
00010000
00100000
01000000
00001000
00010000
00000100
00000010
00000100
,
00002000
00010000
00000010
00013000
,
00001000
00010000
01000000
10000000
00100000
00001000
00000100
00000010
,
00000022
00000000
00000030
00000000
,
00000003
00000000
00000000
00000000
;

//--------------- dance-double - Fred-104 ----------------
#NOTES:
     dance-double:
     Fred-104:
     Hard:
     13:
     :
00000000
00000000
00000000
00000000
,
00000000
00000000
00000000
00000000
,
00000000
00000000
00000000
00000000
,
00011000
00000000
00000000
00000000
00000000
00000000
00000000
01000000
,
01100000
00000000
00000000
00000000
,
00011000
00000000
00000000
00000000
00000000
00000000
00000000
00000010
,
00000110
00000000
00000000
00000000
,
00001001
00000000
00011000
00000000
,
10010000
00010000
01000000
00100000
,
10000000
01000000
00100000
00001000
,
00010000
00001000
00000010
00000001
00001000
00000010
00000100
00000001
,
00000100
00000000
00000010
00000100
00000000
00000010
00000100
00000000
00000001
00000100
00000000
00000001
00000100
00000000
00000000
00000010
00000000
00000000
00000010
00000000
00000000
00001000
00000000
00000000
,
00010000
00000000
00000010
00001000
00000010
00000000
00010000
00000000
00001000
00000000
00100000
00010000
00100000
00000000
00001000
00000000
,
00020000
00000100
01000000
00030100
,
00010000
00000000
00000100
00001000
00000100
00000000
00010000
00000000
00001000
00000000
01000000
00010000
01000000
00000000
00001000
00000000
,
00020000
00000010
00100000
00030010
,
00001000
00000000
01000000
00010000
01000000
00000000
00001000
00000000
00010000
00000000
00000100
00001000
00000100
00000000
00010000
00000000
,
00002000
00100000
00000010
00103000
,
00001000
00000000
00100000
00010000
00100000
00000000
00001000
00000000
00010000
00000000
00000010
00001000
00000010
00000000
00010000
00000000
,
00002000
01000000
00000100
01003000
,
00001000
00000000
00100000
01000000
00200000
00000000
00302000
00000000
00013000
00000000
00000010
00000100
00000020
00000000
00020030
00000000
,
00032000
00100000
00003010
00011000
,
00010000
00000000
00000010
00000100
00000020
00000000
00020030
00000000
00031000
00000000
00100000
01000000
00200000
00000000
00302000
00000000
,
00023000
00000010
00130000
00011000
,
00001000
00000000
01000000
00100000
02000000
00000000
03002000
00000000
00013000
00000000
00000100
00000010
00000200
00000000
00020300
00000000
,
00032000
01000000
00003100
00011000
,
00010000
00000000
00000100
00000010
00000200
00000000
00020300
00000000
00031000
00000000
01000000
00100000
02000000
00000000
03002000
00000000
,
00023000
00000000
00000100
00000000
01030000
00000000
00001000
00010000
,
00000000
00000000
00000000
00000000
00000000
00000000
00000000
00000000
00000000
00000000
00000000
00000001
00000100
00000000
00000010
00000000
,
00001000
00000000
00000001
00000010
00000000
00000000
00000100
00000000
00010000
00000000
00001000
00010000
00000000
00000000
00001000
00000000
,
00100000
00000000
00010000
00000000
10000000
00010000
10000000
00010000
00000000
01000000
00010000
01000000
00200000
00000000
00000000
00000000
,
10300000
00000000
01000000
00100000
00000000
00000000
00001000
00000000
00010000
00000000
00100000
00001000
00000000
00000000
00010000
00000000
,
00000100
00000000
00001000
00000000
00000100
00000000
00000010
00000100
00000000
00000100
00000001
00000000
00001000
00000001
00001000
00000001
,
00001000
00000000
00000010
00000100
00000000
00000000
00000001
00000000
00000010
00000000
00001000
00010000
00000000
00000000
00001000
00000000
,
00000100
00000000
00001000
00000000
00010000
00001000
00000000
00001000
00100000
00010000
00000000
00010000
01000000
00100000
00000000
00100000
,
10000000
00000000
00010000
00100000
00000000
00000000
01000000
00000000
10000000
00000000
00100000
01000000
00000000
00000000
00010000
00000000
,
10000000
00000000
01000000
00000000
00100000
01000000
00100000
00000000
00001000
00010000
00000100
00010000
00001000
00000000
00010000
00000000
,
00000000
00000000
00000000
00000000
00000000
00000000
00000000
00000000
00000000
00000000
10000000
00010000
10000000
00000000
00100000
00000000
,
01000000
00010000
10000000
01000000
00100000
00001000
00010000
01000000
,
00002000
00000000
00100000
00000000
00000010
00000000
00103000
00001000
,
00010000
00000000
00001000
00000000
00000100
00000000
00000010
00000100
00000010
00000000
00000001
00000000
00001000
00000000
00000001
00000100
,
00000001
00000000
00000100
00000000
00001000
00000000
00010000
00000000
00001000
00010000
00001000
00010000
00002000
00000000
00000000
00000000
,
00013000
00100000
01000000
10000000
00010000
00100000
01000000
00001000
,
00020000
00000000
00000100
00000000
01000000
00000000
00030100
00010000
,
00001000
00000000
00000000
00000000
00000000
00000000
00000000
00000000
00100000
00000000
00000000
00000000
00000000
00000000
00000000
00000000
00020000
00030000
00000000
00000000
00000000
00000000
00000000
00000000
00020000
00030000
00000000
00000000
00000000
00000000
00000000
00000000
00001000
00000000
00000000
00000000
00000000
00000000
00000000
00000000
01000000
00000000
00000000
00000000
00000000
00000000
00000000
00000000
00020000
00030000
00000000
00000000
00000000
00000000
00000000
00000000
00020000
00030000
00000000
00000000
00000000
00000000
00000000
00000000
,
00001000
00000000
00010000
00000000
00001000
00000000
00000100
00000000
00000010
00000100
00000010
00000100
00000020
00000000
00000000
00000000
,
00000031
00000000
00000100
00000000
00000010
00000000
00000000
00000000
00001000
00000001
00001000
00000000
00000010
00000000
00001000
00000000
,
00000100
00000000
00010000
00000000
00001000
00000000
00000000
00000000
01000000
00100000
01000000
00000000
00001000
00000000
00010000
00000000
,
00000100
00000000
00001000
00000000
00000010
00000000
00000000
00000000
00010000
00001000
00010000
00000000
00000010
00000000
00001000
00000000
,
00000100
00000000
00010000
00000000
00001000
00000000
00000000
00000000
00100000
01000000
00100000
00000000
00001000
00000000
00010000
00000000
,
00100000
00000000
01000000
00000000
10000000
00000000
00010000
00000000
01000000
00100000
01000000
00000000
00010000
00000000
10000000
00000000
,
01000000
00000000
00010000
00000000
00001000
00000000
00000100
00000000
00000010
00000100
00000010
00000000
00000001
00000000
00001000
00000000
,
00000001
00000000
00000100
00000000
00000010
00000000
00000100
00000000
00000001
00001000
00000001
00000000
00000010
00000000
00000100
00000000
,
00020000
01000000
10030000
00110000
,
00001000
00000000
00010000
00000000
00000100
00000000
00000000
00000000
00001000
00000010
00000100
00000001
00001000
00000000
00000000
00000000
,
00000001
00000000
00000010
00000000
00000100
00000000
00000000
00000000
00010000
00001000
00010000
00000010
00010000
00000000
00000000
00000000
,
00001000
00000000
01000000
00000000
00010000
00000000
00000000
00000000
00100000
00010000
00100000
01000000
10000000
00000000
00000000
00000000
,
00010000
00000000
01000000
00000000
00100000
00000000
00000000
00000000
10000000
01000000
00100000
00001000
00010000
00000000
00000000
00000000
,
00001000
00000000
00000100
00000000
00000001
00000000
00000000
00000000
00000100
00001000
00000010
00000100
00000001
00000000
00000000
00000000
,
00000100
00000000
00001000
00000000
00010000
00000000
00000000
00000000
01000000
00100000
10000000
00100000
01000000
00000000
00000000
00000000
,
00010000
00000000
10000000
00000000
01000000
00000000
00000000
00000000
00100000
01000000
00010000
01000000
00100000
00000000
00000000
00000000
,
20000000
32000000
03200000
00320000
00032000
00003200
00000320
00000032
,
00001003
00000000
00000100
00000010
00000100
00000000
00010000
00000000
00001000
00000000
01000000
00100000
01000000
00000000
00010000
00000000
,
00001000
00000100
00000001
00001000
00000001
00000100
00001000
00010000
,
01000000
00000000
00010000
00100000
00010000
00000000
00001000
00000000
00000100
00000000
00001000
00000010
00001000
00000000
00010000
00000000
,
00001000
00010000
00100000
10000000
00010000
01000000
00100000
01000000
,
00010000
00000000
10000000
01000000
00100000
00000000
00001000
00000000
00010000
00000000
00000010
00001000
00000100
00000000
00010000
00000000
,
00000100
00001000
00000001
00000100
00000010
00001000
00000001
00000000
,
00000001
00000010
00000100
00010000
00001000
00100000
01000000
10000000
,
20020000
00000000
00030000
00000000
,
30000000
00000000
00000000
00000000
;
