#VERSION:0.83;
#TITLE:ABSOLUTE (saminun mix);
#ARTIST:あさり(saminun);
#ARTISTTRANSLIT:asari(saminun);
#BANNER:ABSOLUTE (saminun mix).png;
#BACKGROUND:ABSOLUTE (saminun mix)-bg.png;
#CDTITLE:./CDTitles/SDVX EXCEED GEAR.png;
#MUSIC:ABSOLUTE (saminun mix).ogg;
#SAMPLESTART:23.017;
#SAMPLELENGTH:15;
#BPMS:0=146,270=135,271=122,272=114,273=91,274=87,275=61,276=82;
#BGSTAGE:16;

//--------------- dance-single - Fred-104 ----------------
#NOTEDATA:;
#STEPSTYPE:dance-single;
#DESCRIPTION:Fred-104;
#DIFFICULTY:Beginner;
#METER:3;
#CREDIT:Fred-104;
#NOTES:
0000
0000
0000
0000
,
0000
0000
0000
0000
,
0000
0000
0000
0000
,
0000
0000
0000
0000
,
0000
0000
0000
0000
,
0000
0000
0000
0000
,
1000
0000
0001
0000
,
1000
0000
1000
0000
,
0001
0000
1000
0000
,
0001
0000
1000
0000
,
0001
0000
1000
0000
,
0002
0000
0003
0000
,
1000
0000
0001
0000
,
1000
0000
0001
0001
,
0001
0000
1000
0000
,
0020
0000
0030
0000
,
1000
0000
0001
0000
,
0020
0030
0200
0300
,
0010
0000
0001
0000
,
2000
0000
3000
0000
,
0001
0000
1000
0000
,
0001
0000
0100
0000
,
0010
0000
1000
0000
,
0001
0000
1000
0000
,
0001
0000
0000
0000
,
1000
0000
0001
0001
,
0001
0000
1000
0000
,
0002
0003
2000
3000
,
0001
0000
1000
0000
,
0100
0000
0010
0010
,
0010
0000
0001
0000
,
2000
0000
3000
0000
,
0001
0000
1000
0000
,
0020
0000
0030
0000
,
1000
0000
0001
0000
,
0020
0030
0002
0003
,
1000
0000
0001
0000
,
1001
0000
0000
0000
,
1000
0000
0000
0000
,
0001
0000
0000
0000
,
1000
0000
0000
0000
,
0001
0000
0000
0000
,
0010
0000
0000
0000
,
0010
0000
0000
0000
,
0100
0000
0100
0000
,
0100
0000
0100
0000
,
1000
0000
0000
0000
,
0001
0000
0100
0000
,
0001
0000
0100
0000
,
0001
0000
1000
0000
,
0001
0000
0000
0000
,
1000
0000
0001
0000
,
1000
0000
0100
0000
,
1000
0000
0001
0000
,
0000
1000
0000
1000
,
0000
0001
0000
1000
,
0000
0001
0000
1000
,
0000
0001
0000
1000
,
1000
0000
0001
0000
,
1000
0000
0001
0000
,
2000
3000
0002
0003
,
2000
0000
3000
0000
,
0001
0000
1000
0000
,
0002
0000
0003
0000
,
1000
0000
0001
0000
,
0010
0000
0100
0000
,
1000
0000
0001
0000
,
1000
0000
0001
0000
,
2000
0000
0000
3000
,
2002
0000
0003
0000
,
3000
0000
0000
0000
;

//--------------- dance-single - Fred-104 ----------------
#NOTEDATA:;
#STEPSTYPE:dance-single;
#DESCRIPTION:Fred-104;
#DIFFICULTY:Easy;
#METER:7;
#CREDIT:Fred-104;
#NOTES:
0000
0000
0000
0000
,
0000
0000
0000
0000
,
0000
0000
0000
0000
,
0000
0000
0000
0000
,
0000
0000
0000
0000
,
0000
0000
0000
0000
,
0001
0001
0010
0001
,
0020
0000
0130
0000
,
1000
1000
0001
1000
,
0020
0000
1030
0000
,
1000
0001
1000
0100
,
0010
0010
0001
0001
,
2000
3020
0230
0302
,
0023
0000
0230
0000
1300
1000
1000
0000
,
0001
0100
0001
1000
,
0200
0000
0320
0000
,
0031
1000
0010
1000
,
0002
0203
2300
3020
,
0031
1000
0100
0010
,
0002
0000
2003
0000
,
3001
0000
1000
0000
0001
0100
0001
0000
,
1000
0000
0100
0000
0010
0001
0010
0000
,
0001
0000
0000
0100
0000
0000
1000
0000
,
1000
0000
0000
0010
0000
0000
0001
0000
,
0002
0000
1003
1000
,
1000
0002
2003
3001
,
1001
0000
0000
1000
0000
0000
0200
0000
,
0320
0032
2003
3002
,
1003
0000
0000
0000
0001
0000
0100
0010
,
0100
0001
1000
0001
,
1001
0000
0001
1000
,
0100
0100
0010
0100
,
0110
0000
0010
0001
,
1000
1000
0001
1000
,
1001
0000
0001
0100
,
0002
0203
0320
1030
,
1001
0000
0110
0000
,
2002
0000
0000
3003
,
1000
0000
0010
0000
,
0001
0000
0100
1000
,
0001
0000
1000
0000
,
0100
0000
0010
0000
,
1001
0000
0001
1000
,
0001
0010
0100
1000
,
1000
0000
0001
0000
,
1000
1000
1000
2000
,
3001
0000
0001
0000
1000
0100
1000
0000
,
0001
0100
0010
0100
,
0100
0000
0000
0000
0001
0000
0000
0000
1000
0000
0000
1000
0000
0000
1000
0000
,
0001
0000
1000
0100
1000
0000
0001
0100
,
0001
1000
0100
1000
,
0001
0000
0000
0001
0000
0000
0001
0000
,
0010
0000
0000
0000
0100
0000
0000
0000
0010
0000
0000
0010
0000
0000
0010
0000
,
0100
1000
0001
1001
,
0001
0000
0000
0001
0000
0000
0001
0000
1000
0000
0000
1000
0000
0000
1000
0000
,
0010
1000
0001
0010
,
0100
0000
0000
0100
0000
0000
0100
0000
1000
0000
0000
1000
0000
0000
1000
0000
,
0001
0000
0100
0000
0001
0010
0001
0000
,
1000
0000
0000
1100
0000
0000
0000
0000
0001
0000
0000
0101
0000
0000
0000
0000
,
1000
0000
0000
1010
0000
0000
0000
0000
0001
0000
0000
0011
0000
0000
0000
0000
,
2000
3002
2003
3010
,
0210
0302
2003
3200
,
0310
0001
0010
0000
0001
0100
0001
0000
,
1000
0100
1000
0001
,
0100
0001
0100
0000
0001
1000
0001
0000
,
1000
0100
0010
0001
,
1000
0010
1000
0000
0001
0010
0001
0000
,
1000
0010
0100
0001
,
1000
0000
0100
0000
0010
0000
0100
1000
,
2002
0000
3000
0000
,
0003
0000
0000
0000
;

//--------------- dance-single - Fred-104 ----------------
#NOTEDATA:;
#STEPSTYPE:dance-single;
#DESCRIPTION:Fred-104;
#DIFFICULTY:Medium;
#METER:11;
#CREDIT:Fred-104;
#NOTES:
0000
0000
0000
0000
,
0000
0000
0000
0000
,
0000
0000
0000
0000
,
0000
0000
0000
0000
,
0000
0000
0000
0000
,
0000
0000
0000
0000
,
0001
0000
0000
0001
0000
0000
0001
0000
1000
0000
0000
1000
0000
0000
1000
0000
,
0100
0010
0001
0000
,
1000
0000
0000
1000
0000
0000
1000
0000
0010
0000
0000
0010
0000
0000
0100
0000
,
0001
0001
1000
1000
,
0001
0100
1000
0000
1000
0100
0001
0000
,
0001
0010
1000
0010
1000
0010
0001
0000
,
1000
0100
0002
0000
1003
0010
0002
0000
,
1003
0000
0100
0000
0010
0000
0001
0000
1000
0000
0001
1000
0001
0000
0000
0000
,
1000
0100
0010
0100
1000
0001
0100
0010
,
0200
0001
1000
0310
,
0100
0001
1000
0001
0010
0100
1000
0001
,
2000
3002
0203
0320
,
1030
0001
0010
0100
0010
0001
1000
0001
,
0200
0010
1000
0301
,
0100
0010
0100
0001
1000
0100
0020
0000
,
0031
1000
0010
1000
0100
0010
0001
1000
,
0001
0000
1000
0010
0100
0001
1000
1000
,
0001
0100
0010
0100
1000
0100
0001
0000
,
2000
0100
3100
0011
,
1000
0000
0000
0010
0100
0010
0100
0000
0000
0001
0000
0000
,
1000
0010
0100
0001
0010
0100
0010
0001
,
0200
0320
0230
0302
,
1003
0010
0100
0010
1000
0100
0010
0001
,
0100
0000
0110
0000
0010
1000
0001
0000
,
1000
0100
0001
0100
1000
0001
1000
0010
,
0200
0001
1000
0301
,
1000
0010
0100
0001
1000
0100
0001
0100
,
0010
0000
0001
1000
0100
0010
0001
1000
,
0001
0100
1000
0100
0010
0001
0010
1000
,
0002
0023
0230
2300
,
3001
0000
0000
0001
0100
0000
0000
0100
0010
0000
0000
0010
1000
0000
0000
1000
,
0001
0000
0001
0000
1000
0001
1000
0000
,
1001
0000
1000
0000
,
0010
0000
0100
0002
,
2003
0000
3100
0000
,
0020
0032
2003
3002
,
0103
0010
0110
0000
,
0001
0000
0000
1000
0000
0000
0100
0000
1100
0000
0000
0001
1000
0000
0000
0000
,
0011
0001
1000
0010
0100
0001
1000
0100
,
1000
0010
0100
0001
1000
1000
1000
0000
,
0001
0000
0000
0100
0000
0000
0010
0000
0000
0000
1000
0000
0100
0000
0010
0000
,
0001
0000
0000
1000
0000
0000
0010
0000
1000
0000
0000
0001
0010
0000
0000
0000
,
0100
0000
0010
0000
0001
1000
0001
0000
0100
0000
0000
0010
0000
0000
0100
0000
,
0001
0000
0000
0001
0000
0000
1000
0000
0100
0000
0000
0000
1000
0000
0001
1000
,
0001
0000
0000
0010
0000
0000
0001
0000
1000
0000
0000
0000
0010
0000
0100
0000
,
0001
0000
0000
1000
0000
0000
0100
0000
0000
0000
0001
0000
0100
0000
0010
0000
,
0100
0000
0000
0000
0000
0000
1000
0000
0001
0000
0000
0100
0000
0000
0100
0000
,
0020
1000
1030
1001
,
0001
0000
0000
0010
0000
0000
1000
0000
1000
0000
0000
0010
0000
0000
0001
0000
,
0001
0010
0001
1000
0100
0010
0001
1000
,
0001
0000
0000
0100
0000
0000
1000
0000
1000
0000
0000
0100
0000
0000
0001
0000
,
0001
0000
0010
0000
0100
0000
0000
1000
0000
0010
0000
0000
0100
0000
0100
0000
,
0001
0000
0000
0011
0000
0000
0100
0000
1000
0000
0000
1010
0000
0000
0100
0000
,
0001
0000
0000
0101
0000
0000
0010
0000
1000
0000
0000
1100
0000
0000
0010
0000
,
0002
0203
0320
2030
3002
2003
3020
0230
,
0302
2003
3200
0320
0032
0023
0230
2300
,
3001
0100
0010
0100
0001
1000
0100
0010
,
0002
0000
0100
0000
1000
0000
0013
0001
,
0100
0001
1000
0100
0010
0100
0001
0100
,
2000
0000
0010
0000
3010
0100
0001
1000
,
0100
0010
0001
0100
0010
1000
0100
0001
,
0100
0010
0100
1000
,
0001
0010
1000
0010
0001
1000
0010
1000
,
2002
0000
3000
0000
,
0003
0000
0000
0000
;

//--------------- dance-single - Fred-104 ----------------
#NOTEDATA:;
#STEPSTYPE:dance-single;
#DESCRIPTION:Fred-104;
#DIFFICULTY:Hard;
#METER:14;
#CREDIT:Fred-104;
#NOTES:
0000
0000
0000
0000
,
0000
0000
0000
0000
,
0000
0000
0000
0000
,
0000
0000
0000
0000
,
0000
0000
0000
0000
,
0000
0000
0000
0000
,
1000
0000
0000
0010
0000
0000
1000
0000
0100
0000
0000
0010
0000
0000
0001
0000
,
1000
0010
0100
0100
,
0001
0000
0000
0010
0000
0000
0100
0000
1000
0000
0000
0001
0000
0000
0100
0000
,
0010
0000
1000
0000
0001
1000
0001
0000
,
1000
0000
1000
0010
0000
0000
1000
0000
0001
0000
0001
0010
0000
0000
0001
0000
,
1000
0001
0100
0001
,
2000
3200
0302
0203
0320
2030
3020
0032
,
1003
0000
0001
0100
0001
0000
1000
0100
1000
0000
0001
1000
0002
0003
0002
0003
,
1000
0000
0100
0010
0100
0000
0010
0000
0001
0000
0100
0010
0100
0000
0020
0000
,
1000
0000
0100
0000
1030
0001
0100
0010
,
1000
0000
0001
0010
0001
0000
1000
0000
0010
0000
0100
0000
0001
1000
0001
1000
,
0200
0320
0032
2003
,
3001
0000
0100
0001
0100
0000
0010
0000
0100
0000
0001
1000
0001
0000
0200
0000
,
0010
0000
0001
0000
0310
1000
0001
0010
,
0100
1000
0100
0000
0010
0100
0010
0000
0001
1000
0001
1000
0002
0000
0000
0000
,
1003
0100
1000
0000
0001
0010
0001
0000
1000
0001
1000
0001
0010
0000
0010
0000
,
0200
0000
0000
0000
1300
0010
1000
0000
0001
0100
0001
0000
1000
0100
1000
0000
,
0001
0000
0100
0010
0100
0000
0010
1000
0010
1000
0010
0000
1000
0001
1000
0000
,
0020
0000
0000
0000
0100
0000
0000
0000
0130
0000
0100
0001
2000
0000
0000
0000
,
3002
0000
0000
1003
0001
1000
0100
0010
0001
1000
0010
0100
,
0010
0000
1000
0000
0001
0010
0001
0000
1000
0000
0001
0100
0001
0000
0010
0100
,
0020
0032
2003
3002
,
0103
0010
1000
0001
0010
0100
1000
0010
,
1010
0000
0000
0000
0101
0000
0000
0000
1000
0010
1000
0000
0001
0010
0001
1000
,
0010
0000
1000
0001
0010
0000
0001
0000
1000
0000
0001
1000
0010
0000
1000
0000
,
0001
0000
0100
0001
0100
0001
0100
0000
0010
0100
0000
0100
0010
0000
1000
0000
,
0001
0000
0010
0100
1000
0000
0001
0000
0100
0000
0001
1000
0100
0000
0010
0000
,
0001
0000
1000
0010
1000
0100
1000
0000
0001
0100
0000
0100
0010
0000
0100
0000
,
0001
0000
1000
0001
0100
0000
0001
0000
1000
0000
0100
0000
0010
0001
1000
0001
,
2000
3002
2003
3002
,
1003
0010
0000
0010
0100
0001
0000
0001
1000
0100
0000
0100
0010
0001
0000
0001
,
1000
0100
1000
0100
0010
0100
0010
0100
0010
0001
0010
0001
1000
0001
1000
0000
,
0001
0100
0010
1000
,
0001
0010
0100
2000
,
3002
0100
0010
0103
,
0002
2003
3020
0230
,
0301
0010
0100
1000
1010
0000
1000
0001
,
0020
0130
0020
0031
0102
0000
1003
0000
,
1001
0000
0001
0000
0100
0000
0010
0000
0100
0000
0001
0100
0000
1000
0100
0000
,
0001
1000
0001
1000
0001
0010
0001
0010
0100
1000
0100
1000
0002
0000
0000
0000
,
1003
0000
0100
0000
1100
0000
0000
0000
0001
0000
1000
0100
1000
0001
1000
0001
,
1000
0000
0000
0010
0000
0000
0100
0000
0101
0000
0000
0000
0001
0000
0010
0000
,
0100
1000
0100
0000
1000
0001
1000
0000
0001
0000
0100
0010
0000
0010
0100
0000
,
0001
0000
0000
0000
1000
0000
0010
0000
0100
0000
0000
0000
0010
0000
1000
0001
,
1000
0000
0000
0100
0000
0000
1000
0000
1000
0000
0001
0100
0001
1000
0001
1000
,
0100
0000
0000
1000
0000
0000
0001
0000
1001
0000
0000
0000
1000
0001
1000
0001
,
2000
0000
0000
0000
3100
0000
1000
0001
0200
0000
0000
0320
0000
0000
0230
0000
,
0301
0000
0000
0001
1000
0000
0000
0000
0010
0100
0010
0000
1000
0000
1000
0000
,
0001
0000
0010
0001
0000
1000
0010
0000
1000
0000
0100
1000
0000
0001
0100
0000
,
0010
1000
0001
0000
1000
0000
0010
0000
0100
0001
0100
0000
0010
0000
1000
0000
,
0001
0000
1000
0010
0000
1000
0010
0000
0100
0000
0001
0010
0000
0001
0010
0000
,
0100
0000
1000
0000
0001
0000
0100
0010
0000
0010
1000
0000
0001
0010
0001
0000
,
1001
0000
0000
1010
0000
0000
0101
0000
1100
0000
0000
0011
0000
0000
1001
0000
,
1100
0000
0000
0101
0000
0000
1001
0000
1010
0000
0000
0011
0000
0000
1001
0000
,
0001
0000
1000
0100
1000
0000
0001
0010
0001
0000
0100
0010
0100
0000
0001
0000
,
2000
3020
0032
0023
0230
2300
3200
0302
,
1003
0000
0100
1000
0001
0000
0100
0000
0001
0000
0010
0001
1000
0000
0001
0000
,
1000
0000
0000
0010
0100
0000
0001
0000
0010
0100
0000
0100
0010
0000
0001
0000
,
1000
0000
0001
1000
0100
0000
1000
0000
0001
0000
0100
0000
0010
0100
0001
0100
,
0020
0000
0000
0000
0000
0000
1030
0100
1000
0100
1000
0001
0100
0001
0100
0000
,
0001
0000
0010
0100
0010
0000
0001
0010
0001
0000
1000
0010
1000
0000
0001
0100
,
0001
1000
0100
1000
0001
0100
0010
1000
,
0001
0100
1000
0100
0010
1000
0100
0010
,
0022
0000
0030
0000
,
0003
0000
0000
0000
;

//--------------- dance-single - Fred-104 ----------------
#NOTEDATA:;
#STEPSTYPE:dance-single;
#DESCRIPTION:Fred-104;
#DIFFICULTY:Challenge;
#METER:17;
#CREDIT:Fred-104;
#NOTES:
0000
0000
0000
0000
,
0000
0000
0000
0000
,
0000
0000
0000
0000
,
0000
0000
0000
0000
,
0000
0000
0000
0000
,
0000
0000
0000
0000
,
1000
0000
0100
0001
0000
0000
0101
0000
0001
0000
0100
1000
0000
0000
1100
0000
,
0001
0000
0100
0000
0110
0010
1000
0001
,
1000
0000
0010
0001
0000
0000
0011
0000
0001
0000
0010
1000
0000
0000
1010
0000
,
1000
0000
0100
0000
0010
0000
0001
0100
0000
0010
0100
0000
0001
1000
0001
0000
,
1001
0000
1000
0100
0000
0100
0001
0000
1001
0000
0001
0100
0000
0100
1000
0000
,
0001
0100
0001
0000
1000
0100
1000
0000
0001
0100
0010
1000
0001
0000
0001
0000
,
2000
0000
0000
3001
0100
0001
2000
0000
0000
3001
0010
0100
2000
0000
0000
3001
1000
0001
0200
0000
0000
0320
0000
0000
,
1030
0000
1000
0100
0001
0000
0001
0100
1000
0000
1000
0100
0010
0000
0011
0000
,
2000
0000
0000
3001
0100
0001
2000
0000
0000
3200
0000
0000
0320
0000
0000
0031
1000
0010
2000
0000
0000
3002
0000
0000
,
0013
0100
0010
0000
0010
1000
0010
0000
0010
0001
0010
0100
1000
0001
1000
0000
,
0002
0000
0000
0000
0000
0000
0013
0000
0100
0000
1000
0000
0002
0000
0000
0000
0000
0000
0203
0000
0000
0000
0000
0000
0320
0000
0000
0000
0000
0000
2030
0000
0000
0000
0000
0000
3100
0000
0000
0010
0000
0000
0001
0000
0000
1000
0000
0000
,
0002
0000
0000
0000
0000
0000
0000
0000
0000
0000
0000
0000
0000
0000
0000
0003
0012
0000
0000
0000
0000
0000
0000
0000
0000
0000
0000
0000
0000
0000
0000
0003
0102
0000
0000
0000
0000
0000
0000
0000
0000
0000
0000
0000
0000
0000
0000
0003
1002
0000
0000
0000
0000
0000
0000
0000
0000
0000
0000
0000
0000
0000
0000
0000
,
2003
0000
0000
3010
1000
0010
0200
0000
0000
0302
0000
0000
2003
0000
0000
3100
0010
0001
0020
0000
0000
0032
0000
0000
,
0103
0010
0100
0000
0100
1000
0100
0000
0100
0001
0100
1000
0100
0010
0100
0000
,
0001
1000
0100
1000
0010
0100
0001
0100
0010
1000
0100
0010
0002
0000
0000
0000
,
0103
0010
0100
0001
1000
0100
0010
0001
1000
0001
0100
0001
1000
0100
0010
0100
,
1000
0000
0001
0100
0100
1000
0001
0000
0100
0010
1000
0001
0010
0100
1000
0001
,
1000
0000
0000
0000
0000
0000
0001
0000
1000
0000
0001
0000
0100
0000
0000
0000
0000
0000
0001
0000
1000
0000
0100
0000
1000
0000
0000
0001
0000
0000
0100
0000
0000
0010
0000
0000
1000
0000
0000
0001
0000
0000
1000
0000
0000
0000
0000
0000
,
0001
0000
0000
0010
0100
1000
0001
0000
1000
0000
0010
1000
0002
0000
0000
0003
,
1001
0000
0000
1000
0100
0100
0001
0010
0010
1000
0100
0100
,
0001
0000
1000
0010
0010
0001
1000
0000
0001
1000
0010
0100
0001
0010
0100
0010
,
0001
0000
1000
0010
0200
0000
0000
0000
0301
1000
0001
0000
2000
0000
0000
0000
,
3001
0000
0000
0010
0001
1000
0001
0000
0100
0010
1000
0001
0010
0100
0010
0001
,
1000
0000
0010
1000
1001
0000
0001
0100
0010
1000
0001
1000
0001
0010
0100
0010
,
0002
0000
0000
1003
0010
1000
0002
0000
0000
0203
0000
0000
0320
0000
0000
1030
0001
0010
0002
0000
0000
0023
0000
0000
,
0130
0000
1000
0001
0010
0100
0010
0001
1000
0010
1000
0001
0010
0100
1000
0001
,
0200
0000
0000
0310
1000
0001
2000
0000
0000
3020
0000
0000
0230
0000
0000
0301
1000
0100
0020
0000
0000
0032
0000
0000
,
1003
0000
0001
0100
0010
0100
1000
0100
0010
0100
0001
1000
0100
0010
0001
1000
,
0002
0000
0000
0000
0000
0000
1003
0000
0010
0000
1000
0000
0002
0000
0000
0000
0000
0000
0023
0000
0000
0000
0000
0000
0230
0000
0000
0000
0000
0000
0320
0000
0000
0000
0000
0000
0031
0000
0000
0100
0000
0000
0010
0000
0000
1000
0000
0000
,
0002
0000
0000
0000
0000
0000
0000
0000
0000
0000
0000
0000
0000
0000
0000
0003
0102
0000
0000
0000
0000
0000
0000
0000
0000
0000
0000
0000
0000
0000
0000
0003
0012
0000
0000
0000
0000
0000
0000
0000
0000
0000
0000
0000
0000
0000
0000
0003
1002
0000
0000
0000
0000
0000
0000
0000
0000
0000
0000
0000
0000
0000
0000
0000
,
1003
0100
1000
0001
0100
0010
1000
0001
0010
0100
1000
0010
0100
0010
1000
0100
,
1000
0001
1000
0010
1000
0100
1000
0001
1000
0001
0010
0001
0100
0001
0010
0001
,
1000
0000
0001
0000
,
0010
0000
1000
0100
,
0001
0000
1000
0000
,
2000
0000
3200
0000
0320
0000
0032
0003
,
1001
1000
0100
0010
0110
0010
0001
1000
,
0001
0000
0100
0010
1000
0000
0100
0010
0001
0000
0100
0010
1000
0000
0001
0000
,
0011
0000
0010
0000
0001
0000
1000
0000
0001
0000
0100
1000
0000
0100
0001
0000
,
1000
0000
0010
0000
1000
0000
0001
0000
0000
1000
0000
0000
0001
0000
0010
0000
0001
0000
1000
0000
0000
0001
0000
0000
1000
0000
0100
0000
0010
0000
0001
0000
0010
0000
0100
0000
1000
0000
0000
0000
0000
0000
0000
0000
0000
0000
0000
0000
,
1001
0000
0001
0100
0010
0000
0100
0000
0001
0000
1000
0100
0010
0001
0010
0100
,
1000
0000
0000
0010
0000
0000
1000
0000
1100
0000
0000
0000
1001
0000
0001
1000
,
0010
0100
0001
0100
0010
0001
0010
0100
0001
0000
1000
0100
0000
0010
0001
1000
,
0001
0000
0000
0000
0000
0000
0100
0000
0000
0001
0000
0000
1000
0000
0000
0000
0000
0000
0200
0000
0000
0000
0000
0000
0320
0000
0000
0000
0000
0000
0031
0000
0000
1000
0000
0000
0001
0000
0000
0000
0000
0000
1000
0000
0100
0000
1000
0000
,
0001
0000
0000
0000
0000
0000
0100
0000
0000
0010
0000
0000
1000
0000
0000
0000
0000
0000
0001
0000
0000
0000
0000
0000
0010
0000
0000
0000
0000
0000
0001
0000
0100
0000
0010
0000
0100
0000
0000
0001
0000
0000
1000
0000
0000
0100
0000
0000
,
0010
0000
0001
0100
0000
1000
0100
0000
0110
0000
0000
0000
0001
1000
0001
1000
,
0100
0000
0010
0000
1000
0000
0010
0100
0010
0000
0001
0100
0000
0010
1000
0000
,
1001
0000
0000
0001
1000
0000
0100
0010
0001
1000
0010
0100
0001
1000
0100
1000
,
0001
0000
0001
0100
0000
0100
1000
0000
1001
0000
1000
0100
0000
0100
0001
0000
,
1000
0010
0100
0010
1000
0100
0010
0001
0010
0100
1000
0001
0100
0010
1000
0000
,
1001
0000
0001
0010
0000
0010
1000
0000
1001
0000
1000
0010
0000
0010
0001
0000
,
1000
0000
0100
0000
1000
0000
0001
1000
0000
0010
0100
0010
1000
0001
1000
0100
,
1100
0000
0000
0101
0000
0000
1010
0000
0011
0000
0000
1010
0000
0000
0101
0000
,
1100
0000
0000
0101
0000
0000
1010
0000
0101
0000
0000
1100
0000
0000
0110
0000
,
2001
0000
0000
3001
0010
0001
2000
0000
0000
3001
1000
0100
0020
0000
0000
0031
1000
0010
2000
0000
0000
3002
0000
0000
,
2003
0000
3010
1000
0200
0000
0310
0001
0200
0000
0310
1000
0100
0000
0110
0000
,
0020
0000
0000
0031
0100
0010
2000
0000
0000
3002
0000
0000
0023
0000
0000
0130
1000
0001
2000
0000
0000
3002
0000
0000
,
0103
0000
0010
1000
0010
0100
0001
0000
1000
0100
0010
0001
1000
0010
0100
0001
,
2000
0000
0000
0000
0000
0000
3001
0000
0100
0000
0010
0000
0200
0000
0000
0000
0000
0000
0302
0000
0000
0000
0000
0000
2003
0000
0000
0000
0000
0000
3100
0000
0010
0000
0001
0000
1000
0000
0000
0010
0000
0000
0100
0000
0000
0001
0000
0000
,
2000
0000
0000
0000
0000
0000
0000
0000
0000
0000
0000
0000
0000
0000
0000
0000
0000
0000
3001
0000
0100
0000
0001
0000
1000
0000
0000
0100
0000
0000
0010
0000
0000
0100
0000
0000
0001
0000
0000
0100
0000
0000
0010
0000
0000
0001
0000
0000
,
1000
0000
0000
0000
0000
0000
0001
0000
1000
0000
0100
0000
1000
0000
0000
0000
0000
0000
0001
0000
0000
1000
0000
0000
0100
0000
0000
0000
0000
0000
0010
0000
0000
0001
0000
0000
1000
0000
0000
0000
0000
0000
0001
0000
0000
1000
0000
0000
,
0010
0000
0100
0001
1000
0001
0010
0000
0100
0000
1000
0000
0001
0000
1000
0000
,
1001
0000
0000
0000
0000
0000
0001
0000
0100
0000
1000
0000
0100
0000
0000
0000
0000
0000
0001
0000
0000
0010
0000
0000
0110
0000
0000
0000
0000
0000
0100
0000
1000
0000
0001
0000
1000
0000
0000
0000
0000
0000
0010
0000
0000
0100
0000
0000
,
0202
0000
0300
0000
,
0003
0000
0000
0000
;

//--------------- dance-double - Fred-104 ----------------
#NOTEDATA:;
#STEPSTYPE:dance-double;
#DESCRIPTION:Fred-104;
#DIFFICULTY:Easy;
#METER:7;
#CREDIT:Fred-104;
#NOTES:
00000000
00000000
00000000
00000000
,
00000000
00000000
00000000
00000000
,
00000000
00000000
00000000
00000000
,
00000000
00000000
00000000
00000000
,
00000000
00000000
00000000
00000000
,
00000000
00000000
00000000
00000000
,
00001000
00001000
00010000
00001000
,
00020000
00000000
00031000
00000000
,
00010000
00001000
00000100
00000001
,
00002000
00000000
00003001
00000000
,
00001000
00000001
00000100
00000010
,
00000100
00001000
00010000
00010000
,
00002000
00023000
00230000
02300000
,
03020000
00000000
20030000
00000000
30010000
10000000
00010000
00000000
,
10000000
01000000
00100000
00001000
,
00020000
00000000
00032000
00000000
,
00013000
00001000
00000010
00000100
,
00002000
00003002
00000203
00000302
,
00001003
00000001
00000100
00001000
,
00020000
00000000
00230000
00000000
,
01300000
00000000
00010000
00000000
10000000
01000000
10000000
00000000
,
00100000
00000000
00010000
00000000
00001000
00010000
00001000
00000000
,
00100000
00000000
00000000
00001000
00000000
00000000
00010000
00000000
,
00001000
00000000
00000000
00000100
00000000
00000000
00000001
00000000
,
00002000
00000000
00003100
00000010
,
00000001
00000200
00002300
00013000
,
00011000
00000000
00000000
00010000
00000000
00000000
00000010
00000000
,
00002000
00003200
00000320
00000032
,
00000103
00000000
00000000
00000000
00001000
00000000
00010000
00001000
,
00010000
00100000
01000000
00010000
,
10010000
00000000
10000000
01000000
,
00100000
00001000
00010000
00000100
,
00010100
00000000
00010000
00001000
,
00010000
00000010
00001000
00000001
,
00001001
00000000
00000001
00000100
,
00002000
00023000
02030000
13000000
,
10010000
00000000
01100000
00000000
,
00022000
00000000
00000000
00033000
,
00010000
00000000
00000100
00000000
,
00000010
00000000
00000001
00000100
,
00001000
00000000
00010000
00000000
,
01000000
00000000
10000000
00000000
,
10010000
00000000
10000000
00100000
,
10000000
01000000
00100000
00001000
,
00010000
00000000
00010000
00000000
,
00001000
00010000
00001000
00020000
,
00030100
00000000
00010000
00000000
00000100
00001000
00000100
00000000
,
00000010
00000001
00001000
00000010
,
00010000
00000000
00000000
00000000
00001000
00000000
00000000
00000000
00010000
00000000
00000000
00010000
00000000
00000000
00010000
00000000
,
00001000
00000000
00010000
00100000
01000000
00000000
00010000
10000000
,
00010000
10000000
01000000
00010000
,
00001000
00000000
00000000
00010000
00000000
00000000
00001000
00000000
,
01000000
00000000
00000000
00000000
00001000
00000000
00000000
00000000
00010000
00000000
00000000
00010000
00000000
00000000
00010000
00000000
,
00001000
01000000
00010000
10010000
,
10000000
00000000
00000000
10000000
00000000
00000000
01000000
00000000
00100000
00000000
00000000
00100000
00000000
00000000
00001000
00000000
,
00010000
00001000
01000000
00001000
,
00010000
00000000
00000000
00010000
00000000
00000000
00001000
00000000
00000100
00000000
00000000
00000100
00000000
00000000
00000001
00000000
,
00001000
00000000
00000010
00000000
00010000
00001000
01000000
00000000
,
00100000
00000000
00000000
01100000
00000000
00000000
00000000
00000000
01000000
00000000
00000000
01010000
00000000
00000000
00000000
00000000
,
00001000
00000000
00000000
00011000
00000000
00000000
00000000
00000000
00000100
00000000
00000000
00000110
00000000
00000000
00000000
00000000
,
00002000
00003002
00000203
00002300
,
00023000
00032000
00203000
00302000
,
00013000
00001000
00010000
00000000
00100000
01000000
00100000
00000000
,
10000000
01000000
00100000
00001000
,
00010000
00001000
00010000
00000000
00001000
00010000
00000100
00000000
,
00001000
00000100
00000010
00000001
,
00000100
00000010
00000100
00000000
00001000
00010000
00001000
00000000
,
01000000
00001000
00010000
00000100
,
00010000
00000000
00001000
00000000
00010000
00000000
00100000
10000000
,
20020000
00000000
00030000
00000000
,
30000000
00000000
00000000
00000000
;

//--------------- dance-double - Fred-104 ----------------
#NOTEDATA:;
#STEPSTYPE:dance-double;
#DESCRIPTION:Fred-104;
#DIFFICULTY:Medium;
#METER:11;
#CREDIT:Fred-104;
#NOTES:
00000000
00000000
00000000
00000000
,
00000000
00000000
00000000
00000000
,
00000000
00000000
00000000
00000000
,
00000000
00000000
00000000
00000000
,
00000000
00000000
00000000
00000000
,
00000000
00000000
00000000
00000000
,
00001000
00000000
00000000
00010000
00000000
00000000
00010000
00000000
00001000
00000000
00000000
00001000
00000000
00000000
00010000
00000000
,
00000100
00000010
00000001
00000000
,
00000100
00000000
00000000
00000100
00000000
00000000
00000100
00000000
00001000
00000000
00000000
00001000
00000000
00000000
00001000
00000000
,
00010000
01000000
10000000
00010000
,
01000000
00100000
00010000
00000000
00001000
00100000
00001000
00000000
,
00010000
00000100
00010000
00001000
00010000
00000010
00010000
00000000
,
00001000
00010000
00002000
00000000
00003100
00000001
00000020
00000000
,
00000130
00000000
00001000
00000000
00000010
00000000
00010000
00000000
00001000
00000000
00010000
00001000
00010000
00000000
00000000
00000000
,
00000010
00001000
00000001
00000010
00000100
00000010
00001000
00010000
,
00002000
00010000
00000010
00013000
,
00001000
00010000
00100000
10000000
00010000
00100000
01000000
10000000
,
00020000
02030000
03200000
00320000
,
00031000
00010000
00000100
00010000
00001000
00010000
00100000
00010000
,
00002000
00100000
00010000
00103000
,
00001000
00010000
00100000
01000000
00010000
10000000
02000000
00000000
,
03100000
00001000
00010000
00001000
00100000
01000000
10000000
00010000
,
01000000
00000000
00010000
10000000
01000000
00100000
00001000
00001000
,
00010000
00000100
00000010
00000001
00001000
00000010
00000100
00000000
,
00000002
00001000
00001003
00001001
,
00000001
00000000
00000000
00000100
00000010
00000100
00000010
00000000
00000000
00000100
00000000
00000000
,
00001000
00010000
00100000
01000000
00010000
10000000
01000000
00100000
,
00002000
00023000
00030020
00020030
,
00031000
00010000
01000000
00100000
00010000
10000000
00100000
00010000
,
00001000
00000000
00011000
00000000
00001000
01000000
00100000
00000000
,
10000000
01000000
00010000
00001000
00010000
00000100
00001000
00000001
,
00000200
00001000
00000010
00000301
,
00001000
00000100
00000010
00000100
00001000
00000010
00000100
00001000
,
00010000
00000000
00001000
00000000
00010000
00001000
00000010
00000100
,
00001000
00000100
00000010
00001000
00010000
01000000
00100000
00010000
,
20000000
32000000
03200000
00320000
,
10030000
00000000
00000000
10000000
00100000
00000000
00000000
00100000
00010000
00000000
00000000
00010000
00001000
00000000
00000000
00001000
,
00010000
00000000
00000010
00000000
00010000
00001000
00010000
00000000
,
00011000
00000000
00010000
00000000
,
00000100
00000000
00000010
00000002
,
00000203
00000000
00002300
00000000
,
00023000
02030000
23000000
30020000
,
01030000
00100000
10010000
00000000
,
00010000
00000000
00000000
10000000
00000000
00000000
01000000
00000000
01100000
00000000
00000000
00010000
10000000
00000000
00000000
00000000
,
10010000
10000000
01000000
00100000
00001000
00010000
00001000
00000100
,
00001000
00010000
00000010
00010000
00001000
00001000
00001000
00000000
,
00010000
00000000
00000000
00001000
00000000
00000000
00000010
00000000
00000000
00000000
00000001
00000000
00000010
00000000
00000100
00000000
,
00001000
00000000
00000000
00000010
00000000
00000000
00010000
00000000
00001000
00000000
00000000
00100000
00001000
00000000
00000000
00000000
,
00010000
00000000
00100000
00000000
01000000
00010000
01000000
00000000
00010000
00000000
00000000
10000000
00000000
00000000
01000000
00000000
,
00100000
00000000
00000000
00001000
00000000
00000000
00010000
00000000
00001000
00000000
00000000
00000000
00010000
00000000
00100000
01000000
,
00100000
00000000
00000000
10000000
00000000
00000000
00100000
00000000
01000000
00000000
00000000
00000000
00100000
00000000
00010000
00000000
,
00001000
00000000
00000000
00000010
00000000
00000000
00000001
00000000
00001000
00000000
00000010
00000000
00000100
00000000
00001000
00000000
,
00010000
00000000
00000000
00000000
00000000
00000000
00001000
00000000
00100000
00000000
00000000
10000000
00000000
00000000
00100000
00000000
,
00001000
00010000
00001000
00100000
00001000
00010000
00011000
00000000
,
00001000
00000000
00000000
00010000
00000000
00000000
01000000
00000000
00100000
00000000
00000000
00010000
00000000
00000000
10000000
00000000
,
00100000
01000000
00100000
00010000
00000010
00010000
00001000
00010000
,
00000100
00000000
00000000
00001000
00000000
00000000
00000100
00000000
00000010
00000000
00000000
00000001
00000000
00000000
00001000
00000000
,
00000010
00000100
00001000
00010000
00001000
00100000
00001000
00000000
,
00001000
00000000
00000000
01001000
00000000
00000000
01000000
00000000
00010000
00000000
00000000
10010000
00000000
00000000
10000000
00000000
,
01000000
00000000
00000000
01100000
00000000
00000000
00100000
00000000
00001000
00000000
00000000
00011000
00000000
00000000
00010000
00000000
,
00002000
00023000
02030000
03200000
02300000
23000000
32000000
03020000
,
00032000
02003000
03002000
00003200
00000302
00002003
00003020
00000230
,
00000301
00001000
00000100
00000010
00001000
00010000
00001000
01000000
,
00002000
00000000
00100000
00000000
00000010
00000000
00103000
00001000
,
00010000
00001000
00010000
00100000
01000000
00010000
00001000
00000010
,
00020000
00000000
00001000
00000000
00031000
00010000
01000000
00100000
,
00010000
01000000
00100000
00010000
00001000
00010000
00001000
00000010
,
00000100
00001000
00000010
00000100
,
00001000
01000000
00010000
00100000
01000000
00010000
00001000
00000000
,
00022000
00000000
00003000
00000000
,
00030000
00000000
00000000
00000000
;

//--------------- dance-double - Fred-104 ----------------
#NOTEDATA:;
#STEPSTYPE:dance-double;
#DESCRIPTION:Fred-104;
#DIFFICULTY:Hard;
#METER:14;
#CREDIT:Fred-104;
#NOTES:
00000000
00000000
00000000
00000000
,
00000000
00000000
00000000
00000000
,
00000000
00000000
00000000
00000000
,
00000000
00000000
00000000
00000000
,
00000000
00000000
00000000
00000000
,
00000000
00000000
00000000
00000000
,
00010000
00000000
00000000
00001000
00000000
00000000
00000100
00000000
00000001
00000000
00000000
00000010
00000000
00000000
00000100
00000000
,
00000010
00001000
00010000
00100000
,
10000000
00000000
00000000
00010000
00000000
00000000
10000000
00000000
01000000
00000000
00000000
00010000
00000000
00000000
00001000
00000000
,
00100000
00000000
00001000
00000000
00010000
00001000
00010000
00000000
,
00000010
00000000
00001000
00000010
00000000
00000000
00000100
00000000
00000001
00000000
00000100
00000001
00000000
00000000
00001000
00000000
,
00000100
00000010
00001000
00010000
,
00002000
00023000
00230000
02300000
03200000
00320000
00032000
00023000
,
00030100
00000000
00010000
00001000
00010000
00000000
00000010
00001000
00000010
00000000
00010000
00001000
00010000
00000000
00001000
00000000
,
00010000
00000000
00100000
01000000
00100000
00000000
10000000
00000000
00010000
00000000
10000000
01000000
10000000
00000000
00010000
00000000
,
00200000
00000000
10000000
00000000
01000000
00000000
00310000
10000000
,
01000000
00000000
00100000
00010000
00100000
00000000
00001000
00000000
00010000
00000000
00000010
00000000
00001000
00000100
00001000
00000100
,
00000020
00000000
00000032
00000000
00002003
00003001
00002000
00000000
,
00003001
00000000
00000100
00000010
00000100
00000000
00000001
00000000
00000010
00000000
00000100
00001000
00000100
00000000
00010000
00000000
,
00002000
00000000
00100000
00000000
00000010
00000000
00103000
00001000
,
00010000
00001000
00010000
00000000
01000000
00100000
01000000
00000000
10000000
00010000
10000000
00010000
02000000
00000000
00000000
00000000
,
03001000
00010000
00001000
00000000
00010000
00000010
00010000
00000000
00001000
00100000
00001000
00100000
00001000
00000000
00010000
00000000
,
00002000
00000000
00000000
00000000
00013000
00001000
00010000
00000000
00000100
00001000
00000100
00000000
00010000
00001000
00010000
00000000
,
00000010
00000000
00001000
00000010
00001000
00000000
00000001
00000010
00000001
00001000
00000010
00010000
00001000
00010000
00001000
00000000
,
00020000
00000000
00000000
00000000
00001000
00000000
00000000
00000000
00031000
00000000
00010000
00100000
02000000
00000000
00000000
00000000
,
03020000
00000000
00000000
10030000
01000000
00100000
00001000
00010000
00000100
00000010
00000001
00001000
,
00000001
00000000
00001000
00000000
00000010
00010000
00000010
00000000
00001000
00000100
00001000
00000100
00000010
00000000
00000001
00000000
,
00000200
00002300
00023000
00032000
,
00013000
01000000
00100000
00001000
01000000
00100000
00010000
00001000
,
00011000
00000000
00000000
00000000
00010100
00000000
00000000
00000000
00010000
00001000
00010000
00000000
00000010
00001000
00000010
00001000
,
00000001
00000000
00000010
00000100
00000010
00000000
00001000
00000000
00010000
00000000
00001000
01000000
00001000
00000000
00010000
00000000
,
00001000
00000000
00100000
00010000
00100000
00010000
00100000
00000000
01000000
10000000
00000000
00010000
00100000
00000000
01000000
00000000
,
00010000
00000000
00001000
00010000
00001000
00000000
00100000
00000000
00001000
00000000
00010000
00000010
00010000
00000000
00001000
00000000
,
00000100
00000000
00000010
00000100
00000010
00000100
00000001
00000000
00001000
00000100
00000000
00000010
00000100
00000000
00001000
00000000
,
00000010
00000000
00010000
00001000
00010000
00000000
00100000
00000000
10000000
00000000
00010000
00000000
00100000
01000000
00100000
01000000
,
00020000
00032000
02003000
03002000
,
00013000
00001000
00000000
00001000
00000100
00000010
00000000
00000010
00001000
00000001
00000000
00000001
00000100
00001000
00000000
00001000
,
00010000
00001000
00010000
00001000
01000000
00010000
01000000
00010000
10000000
01000000
10000000
01000000
00100000
00010000
00100000
00000000
,
00001000
00000000
00010000
00000000
,
01000000
00000000
10000000
00200000
,
00320000
00030000
00002000
00003000
,
00020000
00032000
00003020
00000230
,
00001300
00000010
00010000
00001000
00011000
00000000
00001000
00010000
,
00002000
00010000
02003000
00100000
03002000
00010000
00013000
00000000
,
00011000
00000000
00010000
00000000
00001000
00000000
00000100
00000000
00000001
00000000
00001000
00000100
00000000
00000100
00001000
00000000
,
00000001
00000010
00000001
00000010
00000100
00001000
00000100
00010000
00001000
00010000
00001000
00010000
00002000
00000000
00000000
00000000
,
00013000
00000000
00001000
00000000
00011000
00000000
00000000
00000000
00001000
00000000
01000000
00010000
10000000
00010000
10000000
01000000
,
00100000
00000000
00000000
00001000
00000000
00000000
00010000
00000000
00011000
00000000
00000000
00000000
00001000
00000000
00010000
00000000
,
01000000
00100000
01000000
00000000
10000000
01000000
10000000
00000000
01000000
00000000
00010000
00001000
00000000
00001000
00010000
00000000
,
00001000
00000000
00000000
00000000
00100000
00000000
00001000
00000000
00000010
00000000
00000000
00000000
00000100
00000000
00001000
00000001
,
00001000
00000000
00000000
00000001
00000000
00000000
00001000
00000000
00000100
00000000
00001000
00000001
00000100
00000001
00001000
00000010
,
00000100
00000000
00000000
00000001
00000000
00000000
00001000
00000000
00001100
00000000
00000000
00000000
00010000
00001000
00010000
00001000
,
00020000
00000000
00000000
00000000
00030010
00000000
00010000
00001000
00020000
00000000
00000000
02030000
00000000
00000000
23000000
00000000
,
31000000
00000000
00000000
00100000
00000000
00000000
00001000
00010000
00000010
00000000
00010000
00000000
00001000
00000000
00010000
00000000
,
01000000
00000000
10000000
00010000
00000000
00010000
01000000
00000000
00100000
00000000
00010000
00001000
00000000
00001000
00010000
00000000
,
00001000
00010000
00001000
00000000
00000100
00000000
00000001
00000000
00000010
00000100
00000010
00000000
00000100
00000000
00010000
00000000
,
00001000
00000000
00010000
00000100
00000000
00000100
00001000
00000000
00000010
00000000
00010000
00001000
00000000
00001000
01000000
00000000
,
00001000
00000000
00010000
00000000
00100000
00000000
01000000
00010000
00000000
10000000
01000000
00000000
00100000
00001000
00010000
00000000
,
00011000
00000000
00000000
00001010
00000000
00000000
00000001
00000000
00000101
00000000
00000000
00001100
00000000
00000000
00010000
00000000
,
00011000
00000000
00000000
00110000
00000000
00000000
10000000
00000000
11000000
00000000
00000000
01010000
00000000
00000000
00001000
00000000
,
00010000
00000000
00001000
00010000
00001000
00000000
00010000
00000010
00010000
00000000
00000100
00001000
00000100
00000000
00000010
00000000
,
00000002
00000203
00000320
00002030
00023000
02030000
03200000
20300000
,
30010000
00000000
00100000
01000000
00100000
00000000
01000000
00000000
10000000
00000000
00010000
01000000
00010000
00000000
00100000
00000000
,
01000000
00000000
00000000
00010000
00001000
00000000
00000010
00000000
00000001
00001000
00000000
00000010
00000100
00000000
00001000
00000000
,
00010000
00000000
00001000
01000000
00001000
00000000
00010000
00000000
01000000
00000000
00100000
00000000
00001000
00010000
00001000
00010000
,
00002000
00000000
00000000
00000000
00000000
00000000
01003000
00010000
01000000
00010000
10000000
00010000
10000000
01000000
00100000
00000000
,
00001000
00000000
00010000
00001000
00010000
00000000
00100000
01000000
00100000
00000000
00010000
00001000
00010000
00000000
00001000
01000000
,
00010000
01000000
00100000
00010000
00001000
00000100
00000010
00001000
,
00000100
00000010
00001000
00010000
01000000
00100000
00001000
00010000
,
00022000
00000000
00030000
00000000
,
00003000
00000000
00000000
00000000
;

//--------------- dance-double - Fred-104 ----------------
#NOTEDATA:;
#STEPSTYPE:dance-double;
#DESCRIPTION:Fred-104;
#DIFFICULTY:Challenge;
#METER:17;
#CREDIT:Fred-104;
#NOTES:
00000000
00000000
00000000
00000000
,
00000000
00000000
00000000
00000000
,
00000000
00000000
00000000
00000000
,
00000000
00000000
00000000
00000000
,
00000000
00000000
00000000
00000000
,
00000000
00000000
00000000
00000000
,
00010000
00000000
00001000
00100000
00000000
00000000
00101000
00000000
00001000
00000000
00010000
00000010
00000000
00000000
00010010
00000000
,
00010000
00000000
00001000
00000000
00011000
00001000
00010000
01000000
,
10000000
00000000
00100000
00010000
00000000
00000000
00011000
00000000
00001000
00000000
00010000
00000100
00000000
00000000
00001001
00000000
,
00000001
00000000
00000010
00000000
00000100
00000000
00001000
00000001
00000000
00000100
00001000
00000000
00010000
00001000
00010000
00000000
,
00011000
00000000
00001000
00010000
00000000
00100000
00010000
00000000
00011000
00000000
00010000
00001000
00000000
00000010
00001000
00000000
,
00010000
00001000
00010000
00000000
00001000
00010000
00100000
00000000
01000000
00010000
10000000
01000000
00100000
00000000
00001000
00000000
,
00020000
00000000
00000000
00030100
00001000
00000100
00002000
00000000
00000000
00003001
00000100
00000001
00000200
00000000
00000000
00001300
00010000
00001000
00020000
00000000
00000000
00230000
00000000
00000000
,
01300000
00000000
00010000
10000000
01000000
00000000
00010000
00001000
00000100
00000000
00000001
00000010
00000100
00000000
00001100
00000000
,
00000002
00000000
00000000
00000103
00000001
00001000
00000002
00000000
00000000
00000023
00000000
00000000
00000230
00000000
00000000
00010300
00001000
00010000
00002000
00000000
00000000
02003000
00000000
00000000
,
03001000
00010000
01000000
00000000
00100000
00010000
01000000
00000000
00100000
00010000
00001000
00000000
00010000
00000010
00001000
00000000
,
00000200
00000000
00000000
00000000
00000000
00000000
00000310
00000000
00000001
00000000
00000010
00000000
00000002
00000000
00000000
00000000
00000000
00000000
00000203
00000000
00000000
00000000
00000000
00000000
00002300
00000000
00000000
00000000
00000000
00000000
02003000
00000000
00000000
00000000
00000000
00000000
03100000
00000000
00000000
10000000
00000000
00000000
00010000
00000000
00000000
00100000
00000000
00000000
,
00002000
00000000
00000000
00000000
00000000
00000000
00000000
00000000
00000000
00000000
00000000
00000000
00000000
00000000
00000000
00003000
01002000
00000000
00000000
00000000
00000000
00000000
00000000
00000000
00000000
00000000
00000000
00000000
00000000
00000000
00000000
00003000
00002100
00000000
00000000
00000000
00000000
00000000
00000000
00000000
00000000
00000000
00000000
00000000
00000000
00000000
00000000
00003000
00012000
00000000
00000000
00000000
00000000
00000000
00000000
00000000
00000000
00000000
00000000
00000000
00000000
00000000
00000000
00003000
,
00001000
00000000
00000000
01000000
00001000
01000000
00001000
00000000
00000000
00010000
00000000
00000000
00001000
00000000
00000000
00000010
00000001
00000010
00000001
00000000
00000000
00000010
00000000
00000000
,
00000100
00001000
00000100
00000000
00010000
00000100
00001000
00000000
00000100
00000010
00000001
00000100
00001000
00010000
00001000
00000000
,
00010000
00001000
00010000
00001000
01000000
00010000
01000000
00010000
10000000
01000000
00100000
00010000
20000000
00000000
00000000
00000000
,
30010000
00100000
01000000
00100000
00001000
00010000
00000100
00010000
00001000
00010000
00000010
00001000
00000010
00000100
00000001
00001000
,
00000001
00000000
00001000
00000100
00000100
00000001
00001000
00000000
00000001
00000010
00000100
00001000
00000100
00010000
00001000
01000000
,
00001000
00000000
00000000
00000000
00000000
00000000
00010000
00000000
00001000
00000000
00010000
00000000
00001000
00000000
00000000
00000000
00000000
00000000
00100000
00000000
00010000
00000000
10000000
00000000
00100000
00000000
00000000
01000000
00000000
00000000
00010000
00000000
00000000
00100000
00000000
00000000
01000000
00000000
00000000
00010000
00000000
00000000
00001000
00000000
00000000
00000000
00000000
00000000
,
00010000
00000000
00000000
01000000
00010000
00001000
00010000
00000000
00001000
00000000
00000100
00000001
00000020
00000000
00000000
00000030
,
00000110
00000000
00000000
00000001
00000100
00001000
00010000
00100000
10000000
01000000
00010000
00001000
,
00010000
00000000
00001000
00001000
00000010
00010000
00001000
00000000
00010000
00001000
00010000
01000000
00100000
00010000
10000000
00100000
,
00010000
00000000
00001000
00010000
00002000
00000000
00000000
00000000
00003100
00000010
00001000
00000000
00000002
00000000
00000000
00000000
,
00001003
00000000
00000000
00000001
00000010
00000100
00001000
00000000
00000001
00001000
00000010
00010000
00001000
00100000
00001000
00010000
,
00001000
00000000
00010000
00001000
00011000
00000000
00010000
00000000
00001000
00100000
00010000
01000000
00010000
00100000
01000000
10000000
,
00020000
00000000
00000000
10030000
01000000
10000000
02000000
00000000
00000000
03020000
00000000
00000000
00032000
00000000
00000000
00013000
00000100
00010000
00000200
00000000
00000000
00002300
00000000
00000000
,
00003100
00000000
00000010
00000001
00001000
00000010
00010000
00001000
00000100
00000010
00001000
00000010
00000100
00000001
00001000
00000000
,
00000002
00000000
00000000
00001003
00000100
00001000
00000200
00000000
00000000
00020300
00000000
00000000
00032000
00000000
00000000
01003000
00010000
10000000
00020000
00000000
00000000
00230000
00000000
00000000
,
01300000
00000000
10000000
00010000
01000000
00001000
00010000
00001000
00010000
01000000
00100000
01000000
10000000
00010000
10000000
00000000
,
02000000
00000000
00000000
00000000
00000000
00000000
03100000
00000000
00010000
00000000
00100000
00000000
00020000
00000000
00000000
00000000
00000000
00000000
00032000
00000000
00000000
00000000
00000000
00000000
00003200
00000000
00000000
00000000
00000000
00000000
00000320
00000000
00000000
00000000
00000000
00000000
00000031
00000000
00000000
00000100
00000000
00000000
00000010
00000000
00000000
00001000
00000000
00000000
,
00000200
00000000
00000000
00000000
00000000
00000000
00000000
00000000
00000000
00000000
00000000
00000000
00000000
00000000
00000000
00000300
00000210
00000000
00000000
00000000
00000000
00000000
00000000
00000000
00000000
00000000
00000000
00000000
00000000
00000000
00000000
00000300
00001200
00000000
00000000
00000000
00000000
00000000
00000000
00000000
00000000
00000000
00000000
00000000
00000000
00000000
00000000
00000300
00000201
00000000
00000000
00000000
00000000
00000000
00000000
00000000
00000000
00000000
00000000
00000000
00000000
00000000
00000000
00000000
,
00001300
00000001
00001000
00000001
00000100
00001000
00000100
00001000
00010000
00100000
00010000
00100000
10000000
00010000
10000000
00010000
,
10000000
01000000
00100000
00010000
00100000
00001000
00010000
00000100
00001000
00000100
00000010
00000001
00001000
00000010
00000100
00000001
,
00001000
00000000
00000001
00000000
,
00000100
00000000
00001000
00010000
,
00100000
00000000
10000000
00000000
,
02000000
00000000
03020000
00000000
00032000
00000000
00023000
00030000
,
00011000
00001000
00010000
00100000
10100000
00000000
10000000
00010000
,
10000000
00000000
01000000
00100000
00001000
00000000
00010000
00100000
01000000
00000000
00010000
00100000
01000000
00000000
00010000
00000000
,
00011000
00000000
00001000
00000000
00010000
00000000
00000010
00000000
00001000
00000000
00000100
00000010
00000000
00000001
00001000
00000000
,
00000001
00000000
00000000
00000010
00000000
00000000
00000100
00000000
00000000
00001000
00000000
00000000
00000100
00000000
00000000
00010000
00000000
00000000
00001000
00000000
00000000
01000000
00000000
00000000
00010000
00000000
10000000
00000000
00010000
00000000
10000000
00000000
00010000
00000000
10000000
00000000
00010000
00000000
00000000
00000000
00000000
00000000
00000000
00000000
00000000
00000000
00000000
00000000
,
01100000
00000000
00010000
10000000
01000000
00000000
00100000
00000000
00001000
00000000
00010000
00001000
00000010
00000001
00000010
00000001
,
00000100
00000000
00000000
00001000
00000000
00000000
00010000
00000000
00011000
00000000
00000000
00000000
00011000
00000000
00001000
00010000
,
00100000
01000000
00100000
01000000
00010000
10000000
00010000
10000000
01000000
00000000
00100000
00001000
00000000
00001000
00010000
00001000
,
00000100
00000000
00000000
00000000
00000000
00000000
00000001
00000000
00000000
00001000
00000000
00000000
00000100
00000000
00000000
00000000
00000000
00000000
00000020
00000000
00000000
00000000
00000000
00000000
00000032
00000000
00000000
00000000
00000000
00000000
00001003
00000000
00000000
00000001
00000000
00000000
00000010
00000000
00000000
00000000
00000000
00000000
00000100
00000000
00001000
00000000
00000100
00000000
,
00001000
00000000
00000001
00000010
00000100
00000000
00000010
00000000
00001000
00000000
00010000
00001000
01000000
00001000
00010000
00001000
,
00100000
00000000
00000000
01000000
00000000
00000000
10000000
00000000
10010000
00000000
00000000
00000000
01000000
10000000
00010000
01000000
,
00100000
00000000
10000000
00000000
01000000
00000000
00010000
00001000
00010000
00000000
00000010
00000100
00000000
00001000
00010000
00000000
,
00011000
00000000
00000000
00001000
00010000
00000000
00000010
00001000
00000100
00000010
00000001
00001000
00000010
00000100
00000001
00000000
,
00001001
00000000
00000001
00000100
00000000
00000100
00001000
00000000
00011000
00000000
00001000
00010000
00000000
00010000
01000000
00000000
,
10000000
00010000
10000000
01000000
00100000
00010000
00100000
00000000
00001000
00010000
00000010
00001000
00000010
00010000
00001000
00000000
,
00011000
00000000
00010000
00001000
00000000
00000010
00001000
00000000
00011000
00000000
00010000
00001000
00000000
00000100
00001000
00000000
,
00010000
00000000
00001000
00000000
00000100
00000000
00000001
00000010
00000000
00000010
00000100
00001000
00000010
00000100
00000001
00001000
,
00000001
00000000
00000000
00000101
00000000
00000000
00001100
00000000
00011000
00000000
00000000
00110000
00000000
00000000
10100000
00000000
,
11000000
00000000
00000000
01010000
00000000
00000000
00011000
00000000
00001010
00000000
00000000
00000011
00000000
00000000
00001001
00000000
,
00000002
00000000
00000000
00000013
00000100
00000010
00000200
00000000
00000000
00010300
00001000
00010000
00002000
00000000
00000000
01003000
00010000
01000000
00020000
00000000
00000000
20030000
00000000
00000000
,
30020000
00000000
10030000
00100000
02000000
00000000
03100000
00010000
00002000
00000000
00003100
00000001
00000010
00000000
00000110
00000000
,
00002000
00000000
00000000
00003001
00000100
00000001
00000200
00000000
00000000
00002300
00000000
00000000
00023000
00000000
00000000
00031000
01000000
00001000
02000000
00000000
00000000
03002000
00000000
00000000
,
00013000
00000000
00001000
00100000
00010000
00100000
01000000
00000000
10000000
00010000
01000000
00100000
00010000
00001000
00010000
00000000
,
00000020
00000000
00000000
00000000
00000000
00000000
00001030
00000000
00000001
00000000
00001000
00000000
00000200
00000000
00000000
00000000
00000000
00000000
00000320
00000000
00000000
00000000
00000000
00000000
00000032
00000000
00000000
00000000
00000000
00000000
00001003
00000000
00000010
00000000
00001000
00000000
00000010
00000000
00000000
00001000
00000000
00000000
00000010
00000000
00000000
00010000
00000000
00000000
,
00002000
00000000
00000000
00000000
00000000
00000000
00000000
00000000
00000000
00000000
00000000
00000000
00000000
00000000
00000000
00000000
00000000
00000000
00013000
00000000
00001000
00000000
00010000
00000000
00001000
00000000
00000000
01000000
00000000
00000000
00010000
00000000
00000000
01000000
00000000
00000000
00001000
00000000
00000000
00010000
00000000
00000000
00000100
00000000
00000000
00010000
00000000
00000000
,
00001000
00000000
00010000
01000000
00010000
00000000
00001000
00000100
00001000
00000000
00010000
01000000
00010000
00000000
00001000
00000100
,
00001000
00000000
00010000
00000000
00001000
00000000
00010000
00000000
00100000
01000000
00010000
00000000
10000000
00000000
00010000
00000000
,
10010000
00000000
00000000
00000000
00000000
00000000
00010000
00000000
10000000
00000000
01000000
00000000
00100000
00000000
00000000
00000000
00000000
00000000
00001000
00000000
00000000
00000000
00000000
00000000
00011000
00000000
00000000
00000000
00000000
00000000
00010000
00000000
00001000
00000000
00000100
00000000
00000001
00000000
00000000
00000000
00000000
00000000
00001000
00000000
00000000
00000001
00000000
00000000
,
00002002
00000000
00000003
00000000
,
00003000
00000000
00000000
00000000
;
