#TITLE:AA;
#SUBTITLE:;
#ARTIST:D.J.Amuro;
#TITLETRANSLIT:;
#SUBTITLETRANSLIT:;
#ARTISTTRANSLIT:;
#GENRE:RENAISSANCE;
#CREDIT:;
#MUSIC:AA.ogg;
#BANNER:AA.png;
#BACKGROUND:AA-bg.png;
#CDTITLE:./CDTitles/bm IIDX 11 IIDX RED.png;
#SAMPLESTART:14.025;
#SAMPLELENGTH:15.000;
#SELECTABLE:YES;
#OFFSET:0.000;
#BPMS:0.000=154.000;
#STOPS:;
#STAGE:22;
#BGCHANGES:;
#FGCHANGES:;

//--------------- dance-single - Fred-104 ----------------
#NOTES:
     dance-single:
     Fred-104:
     Beginner:
     3:
     0,0,0,0,0:
0000
0000
0000
0000
,
0000
0000
0000
0000
,
0000
0000
0000
0000
,
0000
0000
0000
0000
,
0000
0000
0000
0000
,
1000
0000
1000
0000
,
0001
0000
0001
0000
,
0100
0000
0100
0000
,
0110
0000
0000
0000
,
0001
0000
1000
0000
,
0001
0000
1000
0000
,
0010
0000
0000
0100
,
0100
0000
0010
0000
,
0100
0000
0001
0000
,
1000
0000
0001
0000
,
1000
0000
0010
0000
,
0100
0000
0010
0000
,
0100
0000
0000
0000
,
0001
0000
0000
0000
,
1000
0000
0000
0000
,
0001
0001
0001
0000
,
1000
0000
0000
0000
,
0010
0000
0000
0000
,
0100
0000
0000
0000
,
0001
0000
1000
0000
,
0001
0000
1000
0000
,
0001
0000
0001
0000
,
0100
0000
0100
0000
,
0010
0000
0010
0000
,
1000
0000
1000
0000
,
0001
0000
1000
0000
,
0001
0000
0001
0000
,
1000
0000
0001
0000
,
1001
0000
0000
0000
,
1000
0000
0000
0000
,
0001
0000
0000
0000
,
0100
0000
0000
0000
,
0010
0000
0000
0000
,
1000
0000
0000
0000
,
0001
0000
0000
0000
,
0010
0000
0000
0000
,
0100
0000
0000
1000
,
1000
0000
0000
0000
,
0001
0000
0001
0000
,
0100
0000
0000
0000
,
0001
0000
0100
0000
,
0010
0000
0000
0000
,
1000
0000
0000
0000
,
0001
0000
1000
0000
,
1001
0000
0000
0000
,
0001
0000
0100
0000
,
0001
0000
0001
0000
,
0100
0000
0010
0000
,
0010
0000
1000
0000
,
0001
0000
1000
0000
,
0001
0000
1000
0000
,
0001
0000
1000
0000
,
0001
0001
0001
0000
,
1000
0000
0001
0000
,
1000
0000
1000
0000
,
0100
0000
0100
0000
,
0010
0000
0010
0000
,
0001
0000
0001
0000
,
1000
0000
0001
0000
,
1000
0000
1000
0000
,
0001
0000
1000
0000
,
0001
0000
0001
0001
,
0001
0000
1000
0000
,
0010
0000
0100
0100
,
0100
0000
0001
0000
,
1000
0000
0001
0000
,
1000
0000
0010
0000
,
0100
0000
0001
0000
,
1000
1000
1000
1000
,
1001
0000
0000
0000
;

//--------------- dance-single - Fred-104 ----------------
#NOTES:
     dance-single:
     Fred-104:
     Easy:
     7:
     0,0,0,0,0:
0000
0000
0000
0000
,
0000
0000
0000
0000
,
0000
0000
0000
0000
,
0000
0000
0000
0000
,
0000
0000
0000
0000
,
1000
0010
0000
0010
,
0100
0001
0000
1000
,
0001
0100
0000
0010
,
0100
0100
0010
1000
,
0001
0001
0100
0010
,
1000
0000
0010
0000
,
0001
0000
0000
0100
,
0100
1000
0010
0100
,
0001
0000
1000
0000
,
0010
0010
1000
0001
,
0100
0000
0010
0010
,
0100
0001
1000
0000
,
0001
0000
0100
0010
,
0100
0000
0001
1000
,
0010
0000
1000
0100
,
0010
0000
0001
1000
,
0001
0000
0100
0010
,
0001
0000
0100
0010
,
1000
0000
0001
1000
,
0010
1000
0010
0000
0100
0001
0100
0000
,
0001
1000
0010
0010
,
1000
0010
0100
0000
,
0001
0100
0001
0001
,
0100
0000
0010
0000
1000
0100
1000
0000
,
0001
0100
0010
1000
,
0100
0010
0001
1000
,
0001
0100
0001
0010
,
0001
0100
0001
0000
1000
0010
1000
0000
,
1001
0000
0000
0000
,
1020
0000
0230
0000
,
0302
0000
0023
0000
,
0230
0000
2300
0000
,
3002
0203
2300
3200
,
0302
0000
0203
0000
,
0320
0000
2030
0000
,
3002
0000
0203
0000
,
0320
2030
3002
0103
,
0110
0000
0000
0010
0000
0100
0010
0000
,
1000
0000
0000
0010
0000
0000
0100
0000
,
0001
0000
0000
0100
0000
0000
0010
0000
,
1000
0000
0000
1000
0000
0000
0010
0000
,
0100
0100
0001
1000
,
0001
0100
0010
1000
,
0001
0100
0001
0000
1000
0010
1000
0000
,
2002
0000
0000
3003
,
0001
0010
0001
0001
,
0100
0010
1000
0010
,
0100
0100
0010
1000
,
0010
1000
0010
0000
1000
0001
1000
0000
,
0001
0100
0010
0100
,
0001
0010
0100
1000
,
0010
0100
0010
0010
,
1000
0001
0101
0000
,
1000
0001
0010
0010
,
0001
0010
0100
0000
,
1000
0100
1000
1000
,
0100
0000
0010
0000
0001
0100
0001
0000
,
1000
0100
0010
0001
,
0100
0010
1000
0001
,
1000
0100
1000
0010
,
1000
0100
1000
0000
0001
0010
0001
0000
,
1001
0000
1000
0000
0010
0000
0100
0001
,
0100
0001
1000
0001
,
0100
0010
0100
0000
0010
0000
1000
0000
,
0001
0100
0010
0000
1000
0100
0010
0000
,
0001
0000
1000
0000
0000
0010
0100
0000
,
0001
0000
1000
0000
0000
0100
0010
0000
,
0001
0000
1000
0000
0000
0001
0100
0000
,
0001
0100
0001
0000
1000
0010
1000
0000
,
1001
0000
0000
0000
;

//--------------- dance-single - Fred-104 ----------------
#NOTES:
     dance-single:
     Fred-104:
     Medium:
     12:
     0,0,0,0,0:
0000
0000
0000
0000
,
0000
0000
0000
0000
,
0000
0000
0000
0000
,
0000
0000
0000
0000
,
0000
0000
0000
0000
,
1000
1000
1000
1000
,
0001
0001
0001
0001
,
0100
0100
0100
0100
,
0010
1000
0100
0010
0001
0100
0100
0000
,
0001
0100
0001
1000
0020
0000
0130
0000
,
0002
1003
0200
0310
,
0002
1003
0010
0200
,
0302
0000
2003
0000
3002
0000
0103
0100
,
0010
1000
0010
0100
0002
0000
0103
0000
,
2000
3100
0002
0013
,
0200
1300
0001
0200
,
0320
0000
0000
0000
2030
0000
0000
0000
3001
1000
0000
0001
0000
0000
0000
0000
,
1000
0000
0000
1000
0000
0000
0010
0000
0100
0000
0000
0001
0000
0000
0010
0000
,
0001
0000
0000
1000
0000
0000
0100
0000
0010
0000
0000
0001
0000
0000
1000
0000
,
0010
0000
0000
0100
0000
0000
0010
0000
1000
0000
0000
0100
0000
0000
0001
0000
,
0100
0000
0000
1000
0000
0000
0010
0000
0100
0000
0000
0001
0000
0000
1000
0000
,
0001
0000
0000
0010
0000
0000
0100
0000
1000
0000
0000
0010
0000
0000
0100
0000
,
0010
0000
0000
1000
0000
0000
0100
0000
1000
0000
0000
0001
0000
0000
0100
0000
,
0001
0000
0000
0010
0000
0000
0100
0000
0010
0000
0000
0001
0000
0000
1000
0000
,
0001
0100
0001
0000
1000
0000
0100
0000
0010
0100
0010
0000
0001
0000
1000
0000
,
0010
0000
0000
1000
0000
0000
0100
0000
0010
0000
0000
0001
0000
1000
0001
0000
,
1000
0000
0000
0010
0000
0000
0100
0000
0010
0000
0000
1000
0000
0000
0001
0000
,
0100
0000
0000
0001
0000
0000
0010
0000
0100
0000
0000
0010
0000
0001
1000
0000
,
0001
0000
0000
0100
0000
0000
0010
0000
0100
0000
0000
1000
0000
0000
0100
0000
,
0010
0000
0000
1000
0000
0000
0010
0000
0100
0000
0000
0001
0000
0001
0100
0000
,
0010
0000
0000
1000
0000
0000
0010
0000
0100
0000
0000
0010
0000
0010
1000
0000
,
0001
0000
0000
1000
0000
0000
0010
0000
0100
0000
0000
0010
0000
0010
0001
0000
,
1000
0010
1000
0000
0001
0000
0100
0000
0010
0100
0010
0000
1000
0000
0001
0000
,
1001
0000
0000
0000
,
1200
0000
0320
0000
,
0032
0000
2003
0000
,
3002
0000
0203
0000
,
0302
2003
3200
0320
,
0230
0000
2300
0000
,
3020
0000
0032
0000
,
2003
0000
3002
0000
,
0203
0320
2030
3001
,
1001
0000
0000
0100
0000
0010
0100
0100
,
0001
0010
0000
0001
0010
0000
0001
0010
0000
0000
0100
0000
0010
0000
1000
0000
,
0001
0000
0100
0010
0000
1010
0000
0101
,
0000
1100
0000
0011
0000
0100
0010
1000
,
0001
0000
1000
0010
0100
0010
1000
0100
,
0000
0100
0000
0100
0000
0010
0001
1000
,
0001
0000
0100
0000
0010
0000
1000
0000
0001
1000
0001
1000
0001
1000
0001
1000
,
0002
0000
0000
0003
,
1000
0010
0100
0001
0010
0100
1000
0010
,
1000
0000
0000
0001
1000
0000
0001
0000
0100
0000
0000
0010
0100
0000
0001
0000
,
0010
0000
0000
0001
0010
0000
0100
0000
0010
0000
0000
0100
1000
0000
0001
0000
,
0010
0000
0001
0000
1000
0000
0010
0000
0100
0001
0100
0000
0010
0000
0010
0000
,
1000
0000
0010
0000
1000
0000
0100
0000
0010
0000
0000
0001
0100
0000
0010
0000
,
1000
0000
0000
0001
1000
0000
0010
0000
0100
0000
0000
0001
0010
0000
0100
0000
,
1000
0000
0000
0010
1000
0000
0000
0001
0100
0000
0000
0010
1000
0000
0000
0001
,
0010
0000
0100
0000
1000
0000
0001
0000
0100
0010
0000
0110
0000
0000
0000
0000
,
0010
0000
0000
0001
0000
0000
0100
0000
0010
0000
0000
1000
0000
0001
1000
0000
,
0001
0000
0000
0010
0000
0000
0100
0000
0010
0000
0000
0001
0000
0000
1000
0000
,
0100
0000
0000
1000
0000
0000
0010
0000
0100
0000
0000
0010
0000
1000
0001
0000
,
1000
0000
0000
0100
0000
0000
0010
0000
0100
0000
0000
0001
0000
0000
0100
0000
,
0010
0000
0000
0001
0000
0000
0010
0000
0100
0000
0000
1000
0000
1000
0100
0000
,
0010
0000
0000
0001
0000
0000
0010
0000
0100
0000
0000
0010
0000
0010
0001
0000
,
1000
0000
0000
0001
0000
0000
0010
0000
0100
0000
0000
0010
0000
0010
1000
0000
,
0001
0010
0001
0000
1000
0000
0100
0000
0010
0100
0010
0000
0001
0000
1000
0000
,
0010
0000
1000
0000
0100
0000
0010
0000
0001
0100
0001
0000
1000
0000
0000
0000
,
0001
0000
0100
0000
0010
0000
0100
0000
0001
1000
0001
0000
1000
0000
0000
0000
,
0010
0000
1000
0000
0010
0000
0100
0000
0010
0100
0010
0000
1000
0000
0000
0000
,
0001
0000
0100
0000
0001
0000
0010
0000
0001
1000
0001
0000
0100
0000
0000
0000
,
0120
0000
2030
0000
3010
1000
0200
0000
,
0320
0000
0032
0000
1003
0001
0200
0000
,
0302
0000
0203
0000
1300
0100
0020
0000
,
0130
0001
0100
0010
1000
0001
1000
1000
,
1001
0000
0000
0000
;

//--------------- dance-single - Fred-104 ----------------
#NOTES:
     dance-single:
     Fred-104:
     Hard:
     16:
     0,0,0,0,0:
0000
0000
0000
0000
,
0000
0000
0000
0000
,
0000
0000
0000
0000
,
0000
0000
0000
0000
,
0000
0000
0000
0000
,
1000
0000
0010
0000
0100
0000
0010
0000
1000
0000
0000
0001
0100
0000
0000
0000
,
0001
0000
0010
0000
0100
0000
1000
0000
0001
0000
0000
0100
0010
0000
0100
0000
,
0001
0000
0100
0000
0010
0000
1000
0000
0100
0000
0000
0001
0100
0000
1000
0000
,
0001
0100
0001
0100
0010
1000
0010
1000
0001
0010
0100
1000
0100
0010
0001
1000
,
0001
0000
0100
0000
0001
0000
0100
0000
1000
0000
0000
1000
0100
0000
0001
0000
,
0001
0000
0000
0001
0100
0000
1000
0000
0100
0000
0000
0100
1000
0000
0100
0001
,
1000
0000
0000
1000
0010
0000
0001
0000
0010
0000
0000
0010
0001
0000
0000
0010
,
1000
0000
0000
0010
0100
0000
0000
0001
1000
0000
0000
0001
0100
0010
0000
0010
,
1000
0000
0100
0000
0001
0000
0100
0000
1000
0000
0000
0100
0001
0000
0100
0000
,
0001
0000
0000
0001
0010
0000
0010
0000
1000
0000
0000
1000
0010
0000
0000
0010
,
0001
0000
0010
0000
0010
0000
1000
0000
0001
0000
0000
0100
1000
0000
0000
0100
,
0010
0000
0000
0100
0001
0000
0000
0000
1000
0100
0000
1001
0000
0000
0000
0000
,
2000
0010
3000
0002
0000
0003
2000
3000
0200
0000
0300
0002
0000
0003
2000
3000
,
0002
0100
0003
2000
3000
0001
0020
0030
1000
0001
1000
0001
0000
0100
0010
0000
,
2000
0100
3000
0002
0003
0100
0020
0030
0200
0000
0300
0020
0030
0001
0200
0300
,
0002
0010
0003
0200
0300
0010
0002
0003
1000
0001
0100
0001
0000
0100
0010
0000
,
2000
0100
3000
0020
0000
0030
2000
3000
0002
0000
0003
0200
0300
0010
0002
0003
,
2000
0010
3000
0200
0300
0010
0002
0003
0100
0010
1000
0010
0000
0100
0001
0000
,
2000
0010
3000
0200
0300
1000
0002
0003
0200
0000
0300
0020
0030
0001
0200
0300
,
0001
1000
0001
1000
0010
0100
0001
0100
0010
1000
0100
0010
0001
1000
0010
0100
,
0001
0010
0000
0100
0000
0010
0001
0000
1000
0000
0010
0100
0000
0100
0010
0000
,
1000
0100
0000
0001
0000
0100
1000
0000
0001
0100
0010
1000
0000
0100
0010
0000
,
0001
0100
0000
0010
0000
0100
1000
0000
0100
0000
0010
0100
0000
0010
0001
0000
,
1000
0010
0000
1000
0000
0100
0010
0000
0001
0100
0010
1000
0001
0010
0100
0000
,
1000
0100
1000
0010
0000
0100
0001
0000
1000
0000
0001
0100
0000
0010
1000
0000
,
0001
0010
0100
0010
0000
0001
1000
0000
0001
0100
0010
0100
0001
1000
0001
0000
,
1000
0001
1000
0100
0000
0010
0001
0000
1000
0000
0001
0100
0000
0100
0010
0000
,
1000
0100
0010
0001
0010
0100
1000
0010
0100
0001
0010
0001
1000
0010
0100
0001
,
1000
0000
0000
0000
,
2001
0000
3200
0000
,
0320
0000
0032
0203
,
0320
0000
2030
0000
,
3002
0203
2300
3010
,
0022
0033
0202
0303
,
2200
3300
2020
3030
,
0220
0330
2002
3003
,
1002
0203
0320
1030
,
1001
0000
0000
0100
0000
0010
0010
0010
,
1000
0100
0000
0010
0001
0000
1000
0010
0000
0100
0001
0000
1000
0000
0001
0010
,
0100
0000
1000
0100
0000
1100
0000
0101
,
0000
0000
0011
0000
0000
0000
1010
0000
0000
0000
1001
0000
0000
0000
0100
0010
,
0100
0000
0010
0100
0001
1000
0001
0010
,
0001
0010
0100
0000
1000
0010
0100
0000
0001
0100
0010
0000
1000
0100
0010
0000
,
0001
0100
0010
0100
1000
0100
0001
1000
0100
0010
0100
0001
0100
0010
0001
1000
,
0020
0000
0000
0030
,
1000
0000
0010
1000
0100
0000
0010
0000
0001
1000
0010
0100
0001
1000
0100
0000
,
0010
0000
0001
1000
0100
0000
1000
0000
0010
0100
0001
0100
0010
1000
0010
0000
,
1000
0000
0001
0100
0010
0000
1000
0000
0001
0010
0100
1000
0001
0010
0100
0000
,
1000
0000
0001
1000
0100
0000
1000
0000
0001
1000
0100
0010
0001
0100
0010
1000
,
0010
0000
0100
0010
0100
0000
0001
0100
0010
0100
0001
0100
0010
1000
0010
0000
,
1000
0000
0100
1000
0010
0000
0100
0001
0010
0100
1000
0010
0100
0001
0100
0000
,
0001
0000
0010
0001
1000
0000
0001
1000
0100
1000
0001
0100
0001
0100
0010
0000
,
1000
0000
0010
0100
0010
0000
1000
0100
0010
0001
0000
1001
0000
0000
0000
0000
,
1000
0010
0000
0100
0010
0000
1000
0000
0001
0000
0010
0100
0000
0100
0010
0000
,
0001
0100
0000
1000
0000
0100
0001
0000
1000
0100
0010
0001
0000
0100
0010
0000
,
1000
0100
0000
0010
0000
0100
0001
0000
0100
0000
0010
0100
0000
0010
1000
0000
,
0001
0010
0000
0001
0000
0100
0010
0000
1000
0100
0010
0001
1000
0010
0100
0000
,
0001
0100
0001
0010
0000
0100
1000
0000
0001
0000
1000
0100
0000
0010
0001
0000
,
1000
0010
0100
0010
0000
1000
0001
0000
1000
0100
0010
0100
1000
0001
1000
0000
,
0001
1000
0001
0100
0000
0010
1000
0000
0001
0000
1000
0100
0000
0100
0010
0000
,
0001
0100
0010
1000
0010
0100
0001
0010
0100
1000
0010
1000
0001
0010
0100
1000
,
0001
0000
0100
0000
0010
0000
1000
0000
0001
0010
0100
0010
0001
0010
0100
0010
,
0001
0000
1000
0000
0010
0000
0100
0000
0010
1000
0010
0100
0010
1000
0010
0100
,
0010
0000
1000
0000
0100
0000
0010
0000
0001
1000
0100
1000
0001
1000
0100
1000
,
0001
0000
0010
0000
0100
0000
1000
0000
0001
0100
0010
0100
0001
0100
0010
0100
,
0001
0000
0100
0000
0010
0000
0000
0000
1000
0010
0100
0001
2000
0000
0000
0000
,
3001
0000
0100
0000
1000
0000
0000
0000
0100
0001
1000
0100
0020
0000
0000
0000
,
0031
0000
0010
0000
1000
0000
0000
0000
0010
0001
1000
0010
0200
0000
0000
0000
,
0301
0000
0100
0000
0010
0000
1000
0000
0100
0010
0001
1000
0010
0100
0001
0000
,
1001
0000
0000
0000
;

//--------------- dance-single - Fred-104† ----------------
#NOTES:
     dance-single:
     Fred-104†:
     Challenge:
     18:
     0,0,0,0,0:
0000
0000
0000
0000
,
0000
0000
0000
0000
,
0000
0000
0000
0000
,
0000
0000
0000
0000
,
0000
0000
0000
0000
,
1000
0000
0001
0010
0001
0010
0100
1000
0001
0100
0010
1000
0001
0100
0010
1000
,
0001
0000
1000
0100
1000
0010
0100
0001
1000
0100
0010
0001
1000
0100
0010
0001
,
1000
0000
0010
1000
0100
1000
0001
0100
0001
1000
0010
1000
0001
0010
0001
1000
,
0001
0010
0100
1000
0001
1000
0100
1000
0010
0100
0001
1000
0100
0010
0001
1000
,
0001
0000
0100
0000
1000
0000
0100
0000
0010
0000
1000
0001
0010
0000
0100
0000
,
0001
0000
0100
1000
0010
0000
0100
0000
0001
0000
1000
0010
0001
0000
1000
0100
,
0001
0000
1000
0001
0010
0000
0100
0000
1000
0000
0010
0100
1000
0000
0100
0001
,
1000
0001
0010
0100
1000
0001
0010
0100
1000
0010
0100
0001
1000
0010
0100
0001
,
1000
0000
0100
0000
0010
0000
0001
0000
0100
0000
0010
0001
0010
0000
1000
0001
,
0010
0000
0100
1000
0001
0000
0100
0010
0100
0000
1000
0100
0010
0000
1000
0001
,
0100
0000
0001
0010
0100
0000
1000
0000
0001
0000
1000
0100
0010
0000
0001
0010
,
2000
0000
0000
0000
3020
0000
0000
0000
0031
1000
0000
1001
0000
0000
0000
0000
,
1000
0100
0000
0110
0000
0010
0001
0000
1000
0000
0001
0100
0000
1000
0100
0000
,
0001
1000
0001
0100
0000
0001
0010
0000
0100
1000
0010
1000
0100
0010
0100
0000
,
1000
0100
0000
0110
0000
0001
1000
0000
0001
0000
1000
0010
0000
0001
0010
0000
,
0100
0001
1000
0001
0000
0100
0010
0000
1000
0100
0010
0001
0010
0100
1000
0001
,
0100
0010
0000
1010
0000
1000
0100
0000
0010
0000
0001
0100
0000
0010
0001
0000
,
0010
1000
0010
1000
0000
0001
1000
0000
0100
0010
0001
0100
0010
1000
0001
0000
,
1000
0100
0010
0100
0000
1000
0010
0000
0100
0001
0010
0100
0000
0010
0001
0000
,
1000
0001
0100
1000
0100
0010
1000
0001
0100
0010
0100
1000
0100
0010
1000
0001
,
0010
0001
0100
0010
0000
1000
0100
0000
1000
0000
0100
0001
0000
1000
0010
0000
,
0001
1000
0001
0100
0000
0010
1000
0000
0100
0010
0001
0100
0010
0100
0001
0000
,
1000
0100
0000
0101
0000
0100
0010
0000
0001
1000
0001
0100
0010
1000
0001
0000
,
1000
0100
0010
0001
0100
0010
0001
0010
0100
0001
0010
0100
1000
0001
0100
0010
,
1000
0010
1000
0100
0000
0010
0001
0000
0101
0000
0001
0010
0000
1000
0010
0000
,
0001
0100
0010
1000
0000
0100
0010
0000
0001
1000
0000
0010
0000
0001
0010
0000
,
0100
0001
1000
0001
0000
0100
0010
0000
1000
0100
0010
0001
0100
0010
1000
0000
,
0001
1000
0100
0001
0100
0001
0100
1000
0001
0100
1000
0100
0001
1000
0100
0010
,
0001
0000
0000
0000
,
1020
0000
0230
0302
,
2003
0000
3002
0203
,
2300
0000
3002
0023
,
2030
0000
3002
0000
0203
0000
0310
1000
,
2020
3030
2200
3300
,
0202
0303
0022
0033
,
0220
0330
2002
3003
,
2100
0000
0000
0000
3020
0000
0000
0000
0230
0000
0000
0000
0301
0010
0100
1000
,
0001
0000
0000
0001
0000
0000
0001
0000
0000
0000
0100
0000
0010
0000
1000
0000
,
0001
0100
0000
1000
0001
0000
0010
1000
0000
0001
0100
0000
1000
0000
0001
1000
,
0001
0000
0100
0000
0010
0000
2000
0000
0000
0000
3100
1000
0001
0000
0100
0001
,
0010
0100
1000
0000
0010
0100
0001
0000
1000
0000
0001
0100
0010
1000
0001
0010
,
0100
1000
0100
1000
0001
0100
0001
0100
0010
1000
0010
1000
0001
0010
0001
0010
,
0100
1000
0001
1000
0100
1000
0010
1000
0100
0010
0001
0100
0010
1000
0001
1000
,
0001
0000
0000
0100
0000
0000
0010
0000
0000
0001
0000
0000
0010
0000
0000
1000
0000
0000
0001
0000
0000
0100
0000
0000
1000
0000
0000
0100
0000
0000
0010
0000
0000
1000
0000
0000
0001
0000
1000
0000
0001
0000
1000
0000
0001
0000
1000
0000
,
0002
0000
0000
0003
,
1000
0000
0010
1000
0100
0010
0001
1000
0001
0100
0010
1000
0001
0100
0010
1000
,
0001
0000
1000
0001
0010
0001
1000
0001
1000
0100
0010
0001
1000
0100
0010
0001
,
1000
0000
0010
1000
0100
1000
0010
0100
0001
1000
0100
0010
0001
1000
0100
0010
,
0001
0000
1000
0001
0100
0001
1000
0001
0010
0100
1000
0001
0010
0100
1000
0001
,
1000
0000
0001
0010
0001
1000
0010
1000
0001
0010
0100
0001
0100
1000
0001
0100
,
0010
0000
1000
0010
0100
0001
1000
0100
0010
1000
0010
0001
1000
0001
0100
0010
,
1000
0000
0001
0100
1000
0100
0001
0010
0100
1000
0001
0100
1000
0100
0010
1000
,
0001
0000
0100
0010
1000
0000
0001
0010
0100
1000
0000
1001
0000
0000
0000
0000
,
0001
0100
0000
0110
0000
0010
1000
0000
0001
0000
1000
0100
0000
0001
0100
0000
,
1000
0001
1000
0100
0000
1000
0010
0000
0100
0001
0010
0001
0100
0010
0100
0000
,
0001
0100
0000
0110
0000
1000
0001
0000
1000
0000
0001
0010
0000
1000
0010
0000
,
0100
1000
0001
1000
0000
0100
0010
0000
0001
0100
0010
1000
0010
0100
0001
1000
,
0100
0010
0000
0011
0000
0001
0100
0000
0010
0000
1000
0100
0000
0010
1000
0000
,
0010
0001
0010
0001
0000
1000
0001
0000
0100
0010
1000
0100
0010
0001
1000
0000
,
0001
0100
0010
0100
0000
0001
0010
0000
0100
1000
0010
0100
0000
0010
1000
0000
,
0001
1000
0100
0001
0100
0010
0001
1000
0100
0010
0100
0001
0100
0010
0001
1000
,
0010
0000
1000
0010
0100
0001
0010
0100
1000
0001
0100
0001
0010
0001
1000
0001
,
0100
0000
0001
0100
1000
0100
0010
0100
0001
1000
0100
0010
0001
0100
0010
0001
,
0010
0000
1000
0001
0100
1000
0100
0010
1000
0100
0010
0001
0100
0010
1000
0000
,
0001
0100
0010
1000
0100
0010
1000
0010
0100
1000
0010
0100
0001
1000
0100
0010
,
0001
0000
1000
0001
0100
0010
0100
0001
1000
0100
0010
0001
1000
0000
0000
0000
,
0001
0000
1000
0010
0100
0001
0010
0001
1000
0010
0100
0010
1000
0000
0000
0000
,
0001
0000
0100
0001
0010
0100
1000
0001
0100
0010
0001
0010
1000
0000
0000
0000
,
0001
1000
0010
0100
0001
0010
1000
0010
0100
1000
0001
0010
0100
0001
0100
1000
,
0001
0000
0000
0000
;

//--------------- dance-double - Fred-104 ----------------
#NOTES:
     dance-double:
     Fred-104:
     Easy:
     7:
     0,0,0,0,0:
00000000
00000000
00000000
00000000
,
00000000
00000000
00000000
00000000
,
00000000
00000000
00000000
00000000
,
00000000
00000000
00000000
00000000
,
00000000
00000000
00000000
00000000
,
00010000
00010000
00000000
00001000
,
00000010
00000001
00000000
00000001
,
00000100
00001000
00000000
00010000
,
01000000
10000000
00010000
01000000
,
00100000
10000000
01000000
00000000
,
00100000
00001000
00001000
00010000
,
00000010
00000000
00001000
00000001
,
00001000
00010000
00001000
00000100
,
00010000
00000000
00001000
00000010
,
00000001
00001000
00000100
00010000
,
00001000
00000000
00010000
01000000
,
00100000
00010000
10010000
00000000
,
10000000
00000000
01000000
00000000
,
00100000
00001000
00000010
00000001
,
00001000
00000000
00000001
00000000
,
00001000
00000001
00000100
00001000
,
00010000
00000000
01000000
00000000
,
00100000
00010000
10000000
00100000
,
00010000
00000000
00001000
00000000
,
00010000
00001000
00000010
00000001
,
00001000
00000000
00000001
00000000
,
00000100
00001000
00000100
00000001
,
00001000
00000000
00000010
00000000
,
00000100
00001000
00010000
00100000
,
01000000
00000000
00001000
00000000
,
00100000
00010000
10000000
00100000
,
01000000
00000000
00100000
10000000
,
00010000
01000000
00001000
00000000
00010000
00001000
00010000
00000000
,
00011000
00000000
00000000
00000000
,
00002000
00000000
00023000
00000000
,
00230000
00000000
20300000
00000000
,
30020000
00000000
02030000
00000000
,
03200000
20300000
32000000
03200000
,
00302000
00000000
00023000
00000000
,
00030020
00000000
00002030
00000000
,
00003002
00000000
00002003
00000000
,
00003020
00020030
00032000
00013000
,
00011000
00000000
00000000
00001000
00000000
00000000
00100000
00000000
,
00010000
00000000
10000000
00000000
00100000
01000000
00100000
01000000
,
00100000
00000000
00000000
10000000
00000000
00000000
01000000
00000000
,
00100000
00000000
00001000
00000000
00010000
00000000
00001000
00010000
,
00001000
00000000
00000000
00000010
00000000
00000000
00000001
00000000
,
00000010
00000100
00001000
00000100
,
00010000
00001000
00010000
00000000
00001000
01000000
00001000
00000000
,
00022000
00000000
00000000
00033000
,
00001000
00100000
00010000
00010000
,
10000000
00000000
01000000
00000000
00100000
01000000
00100000
00000000
,
00100000
00001000
00010000
00000100
,
00001000
00000000
00000001
00000000
00001000
00000010
00001000
00000000
,
00000001
00000100
00001000
00010000
,
00001000
00000000
00000100
00000000
00000010
00000100
00000010
00000000
,
00001000
00000001
00000100
00001000
,
00010000
00001000
00011000
00000000
,
00001000
00000000
00010000
00000000
,
01000000
10000000
01000000
00100000
,
00001000
00000000
00010000
00000000
,
00001000
00010000
00001000
00000010
,
00000100
00000000
00001000
00000000
,
00000100
00000010
00000001
00001000
,
00000010
00000000
00000100
00000001
,
00001000
00000100
00001000
00000000
00000100
00010000
00000100
00000000
,
00010000
00000000
00010000
00000000
00001000
00010000
00100000
00000000
,
01000000
00000000
00010000
00000000
10000000
01000000
00100000
00000000
,
00001000
00000000
00010000
00000000
00000010
00001000
00000010
00000000
,
00010000
00000000
00000100
00000000
00001000
00000100
00000010
00000000
,
00001001
00000000
00000001
00000100
,
00001000
00000000
00010000
00100000
,
10000000
00000000
00010000
10000000
,
01000000
00000000
00010000
00000000
00001000
00000100
00000010
00000000
,
00001001
00000000
00000000
00000000
;

//--------------- dance-double - Fred-104 ----------------
#NOTES:
     dance-double:
     Fred-104:
     Medium:
     12:
     0,0,0,0,0:
00000000
00000000
00000000
00000000
,
00000000
00000000
00000000
00000000
,
00000000
00000000
00000000
00000000
,
00000000
00000000
00000000
00000000
,
00000000
00000000
00000000
00000000
,
00010000
00010000
00001000
00001000
,
00000010
00000010
00000001
00000001
,
00001000
00000100
00010000
00001000
,
00010000
00001000
00100000
00010000
10000000
00100000
10000000
00010000
,
01010000
00000000
00001000
00010000
00000100
00000000
00001000
00000001
,
00000010
00000000
00000000
00000000
00000100
00000000
00001000
00000000
00000001
00000000
00000000
00001000
00000001
00000000
00000000
00000001
,
00000100
00000000
00000000
00000000
00001000
00000000
00000000
00000000
00010000
00000000
00000000
00010000
01000000
00000000
00000000
01000000
,
10000000
00000000
00000000
10000000
00100000
00000000
00000000
00100000
01000000
00000000
00000000
01000000
00010000
00000000
10000000
00000000
,
00010000
00000000
10000000
01000000
00010000
00000000
00001000
00010000
,
00001000
00000000
00000000
00000000
00000100
00000000
00000001
00000000
00001000
00000000
00000000
00000000
00000001
00000000
00000000
00000010
,
00000001
00000000
00000000
00000001
00000100
00000000
00000000
00000100
00001000
00000000
00000000
00001000
00010000
00000000
00000000
00010000
,
01000000
00000000
00000000
01000000
10000000
00000000
00000000
00000000
00010000
01000000
00000000
00100000
00000000
00000000
00000000
00000000
,
10000000
00000000
00000000
01000000
00000000
00000000
00100000
00000000
00010000
00000000
00000000
10000000
00000000
00000000
00100000
00000000
,
01000000
00000000
00000000
00100000
00000000
00000000
10000000
00000000
01000000
00000000
00000000
00010000
00000000
00000000
00001000
00000000
,
00000100
00000000
00000000
00000001
00000000
00000000
00000100
00000000
00000010
00000000
00000000
00001000
00000000
00000000
00000001
00000000
,
00001000
00000000
00000000
00000001
00000000
00000000
00000100
00000000
00000010
00000000
00000000
00000100
00000000
00000000
00001000
00000000
,
00010000
00000000
00000000
00100000
00000000
00000000
01000000
00000000
00100000
00000000
00000000
10000000
00000000
00000000
00010000
00000000
,
10000000
00000000
00000000
01000000
00000000
00000000
00100000
00000000
10000000
00000000
00000000
00100000
00000000
00000000
00010000
00000000
,
00100000
00000000
00000000
01000000
00000000
00000000
10000000
00000000
00010000
00000000
00000000
01000000
00000000
00000000
00100000
00000000
,
10000000
00000000
01000000
00000000
00100000
00010000
00100000
00000000
00001000
00000000
00010000
00000000
00001000
00010000
00001000
00000000
,
00010000
00000000
00000000
00000100
00000000
00000000
00000010
00000000
00000001
00000000
00000000
00001000
00000000
00000000
00000010
00000000
,
00000100
00000000
00000000
00000001
00000000
00000000
00000010
00000000
00000100
00000000
00000000
00010000
00000000
00000000
01000000
00000000
,
00100000
00000000
00000000
00010000
00000000
00000000
10000000
00000000
00100000
00000000
00000000
00010000
00000000
00000000
00001000
00000000
,
00010000
00000000
00000000
00100000
00000000
00000000
01000000
00000000
00010000
00000000
00000000
10000000
00000000
00000000
01000000
00000000
,
00100000
00000000
00000000
00001000
00000000
00000000
00010000
00000000
00001000
00000000
00000000
00000100
00000000
00000010
00000100
00000000
,
00000001
00000000
00000000
00000100
00000000
00000000
00000010
00000000
00001000
00000000
00000000
00000001
00000000
00000010
00000100
00000000
,
00010000
00000000
00000000
00001000
00000000
00000000
00100000
00000000
00010000
00000000
00000000
10000000
00000000
00010000
01000000
00000000
,
00100000
10000000
00100000
00000000
01000000
00000000
00001000
00000000
00010000
00000100
00010000
00000000
00001000
00000000
00010000
00000000
,
00011000
00000000
00000000
00000000
,
00001020
00000000
00000230
00000000
,
00000302
00000000
00000203
00000000
,
00002300
00000000
00023000
00000000
,
00230000
20300000
32000000
03200000
,
00302000
00000000
00023000
00000000
,
00030200
00000000
00002300
00000000
,
00003002
00000000
00000023
00000000
,
00002030
00023000
00230000
01300000
,
10010000
00000000
00000000
01000000
00000000
10000000
00100000
00100000
,
01000000
00100000
00000000
01000000
00100000
00000000
10000000
00100000
00000000
00000000
01000000
00000000
00100000
00000000
00010000
00000000
,
00001000
00000000
00010000
00001000
00000000
00011000
00000000
00001010
,
00000000
00000011
00000000
00001001
00000000
00000100
00000010
00001000
,
00000001
00000000
00001000
00000100
00000010
00000001
00000010
00000100
,
00000000
00000100
00000000
00000100
00000000
00000010
00000001
00001000
,
00000001
00000000
00000100
00000000
00001000
00000000
00010000
00000000
00001000
00010000
00001000
00010000
00001000
00010000
00001000
00010000
,
00002000
00000000
00000000
00003000
,
00001000
00000000
00100000
00000000
00010000
00000000
01000000
00000000
00100000
01000000
00100000
00000000
10000000
00000000
00000000
00000000
,
00010000
00000000
10000000
00000000
01000000
00000000
10000000
00000000
00100000
01000000
00100000
00000000
01000000
00000000
00000000
00000000
,
00100000
00000000
00010000
00000000
00001000
00000000
00000010
00000000
00000100
00000010
00000100
00000000
00001000
00000000
00000000
00000000
,
00000001
00000000
00001000
00000000
00000010
00000000
00001000
00000000
00000100
00000010
00000100
00000000
00001000
00000000
00000000
00000000
,
00000010
00000000
00000100
00000000
00001000
00000000
00010000
00000000
00100000
01000000
00100000
00000000
10000000
00000000
00000000
00000000
,
00010000
00000000
00100000
00000000
01000000
00000000
10000000
00000000
00010000
01000000
00010000
00000000
10000000
00000000
00000000
00000000
,
01000000
00000000
00100000
00000000
00001000
00000000
00010000
00000000
00000010
00001000
00000010
00000000
00010000
00000000
00000000
00000000
,
00000100
00000000
00010000
00000000
00001000
00000000
00010000
00000000
00001000
00010000
00000000
00010000
00000000
00000000
00000000
00000000
,
00001000
00000000
00000000
01000000
00000000
00000000
00100000
00000000
10000000
00000000
00000000
00010000
00000000
00000000
00100000
00000000
,
01000000
00000000
00000000
10000000
00000000
00000000
00100000
00000000
01000000
00000000
00000000
00001000
00000000
00000000
00000100
00000000
,
00000010
00000000
00000000
00001000
00000000
00000000
00000001
00000000
00000010
00000000
00000000
00001000
00000000
00000000
00010000
00000000
,
00001000
00000000
00000000
00000010
00000000
00000000
00000100
00000000
00000010
00000000
00000000
00000001
00000000
00000000
00001000
00000000
,
00000010
00000000
00000000
00010000
00000000
00000000
00001000
00000000
00010000
00000000
00000000
01000000
00000000
00100000
01000000
00000000
,
10000000
00000000
00000000
00010000
00000000
00000000
00100000
00000000
01000000
00000000
00000000
10000000
00000000
00010000
01000000
00000000
,
00001000
00000000
00000000
00010000
00000000
00000000
00000010
00000000
00001000
00000000
00000000
00000100
00000000
00000010
00000001
00000000
,
00000100
00000001
00000100
00000000
00000010
00000000
00001000
00000000
00000100
00001000
00000100
00000000
00010000
00000000
00001000
00000000
,
00100000
00000000
00010000
00000000
10000000
00000000
00100000
00000000
01000000
00010000
01000000
00010000
01000000
00000000
00000000
00000000
,
00010000
00000000
10000000
00000000
01000000
00000000
00010000
00000000
00001000
00010000
00001000
00010000
00001000
00000000
00000000
00000000
,
00000010
00000000
00000001
00000000
00000010
00000000
00000100
00000000
00001000
00000100
00001000
00000100
00001000
00000000
00000000
00000000
,
00000001
00000000
00000100
00000000
00001000
00000000
00010000
00000000
00001000
00010000
00001000
00010000
00001000
00000000
00000000
00000000
,
00021000
00032000
00203000
00320000
,
00230000
02300000
03020000
00032000
,
00003200
00000320
00002030
00003002
,
00000103
00000001
00001000
00000100
00000010
00000100
00010000
00001000
,
00011000
00000000
00000000
00000000
;

//--------------- dance-double - Fred-104 ----------------
#NOTES:
     dance-double:
     Fred-104:
     Hard:
     16:
     0,0,0,0,0:
00000000
00000000
00000000
00000000
,
00000000
00000000
00000000
00000000
,
00000000
00000000
00000000
00000000
,
00000000
00000000
00000000
00000000
,
00000000
00000000
00000000
00000000
,
00001000
00000000
00010000
00000000
00100000
00000000
01000000
00000000
00010000
00000000
00000000
10000000
01000000
00000000
00100000
00000000
,
00010000
00000000
01000000
00000000
00100000
00000000
10000000
00000000
00010000
00000000
00000000
00100000
01000000
00000000
00010000
00000000
,
00001000
00000000
00000010
00000000
00000100
00000000
00010000
00000000
00001000
00000000
00000000
00010000
01000000
00000000
00100000
00000000
,
00001000
00100000
00010000
00000000
10000000
00010000
01000000
00000000
00010000
10000000
01000000
00100000
00010000
01000000
00100000
10000000
,
00010000
00000000
10000000
00000000
01000000
00000000
00100000
00000000
00001000
00000000
00000000
00010000
00001000
00000000
01000000
00000000
,
00100000
00000000
00000000
01000000
00010000
00000000
00100000
00000000
01000000
00000000
00000000
00010000
00001000
00000000
00000000
00000010
,
00000100
00000000
00000000
00000010
00000001
00000000
00000000
00000001
00001000
00000000
00000000
00001000
00000010
00000000
00000000
00000010
,
00000100
00000000
00000000
00000100
00001000
00000000
00000000
00001000
00010000
00000000
00000000
00010000
00100000
01000000
00000000
00010000
,
10000000
00000000
01000000
00000000
00010000
00000000
00001000
00000000
00010000
00000000
00000000
00001000
00000100
00000000
00000010
00000000
,
00001000
00000000
00000000
00000001
00001000
00000000
00000010
00000000
00010000
00000000
00000000
00001000
00100000
00000000
00000000
00010000
,
10000000
00000000
00000000
00100000
01000000
00000000
00000000
00100000
10000000
00000000
00000000
01000000
00100000
00000000
00000000
00001000
,
00010000
00000000
00001000
00000000
00000100
00000000
00000010
00000000
00001000
00000001
00000000
00001001
00000000
00000000
00000000
00000000
,
00000002
00000100
00000003
00000020
00000000
00000030
00000200
00000300
00000020
00000000
00000030
00002000
00003000
00000100
00000020
00000030
,
00000002
00000010
00000003
00002000
00003000
00000010
00000200
00000300
00000001
00001000
00000010
00010000
00000000
00010000
00001000
00000000
,
00200000
00001000
00300000
00020000
00000000
00030000
00002000
00003000
00200000
00300000
00010000
02000000
03000000
00100000
20000000
30000000
,
00020000
01000000
00030000
20000000
30000000
01000000
00200000
00300000
01000000
00010000
01000000
00100000
00000000
00100000
10000000
00000000
,
00200000
01000000
00300000
00020000
00000000
00030000
20000000
30000000
00020000
00030000
10000000
02000000
03000000
00100000
00002000
00003000
,
00020000
00000100
00030000
00002000
00003000
00000100
00000020
00000030
00000001
00000100
00000010
00001000
00000000
00000100
00010000
00000000
,
00002000
00010000
00003000
00000200
00000300
00010000
00001000
00000000
00020000
00000000
00030000
00002000
00003000
00000010
00000002
00000003
,
00001000
00000001
00000100
00000000
00000010
00001000
00000100
00000000
00010000
00001000
00100000
00010000
00100000
01000000
10000000
00010000
,
01000000
00100000
00000000
10000000
00000000
01000000
00100000
00000000
00010000
00000000
10000000
01000000
00000000
00100000
00010000
00000000
,
01000000
00001000
00010000
00001000
00000000
00100000
00001000
00000000
00010000
00000100
00000000
00001000
00000000
00000100
00000010
00000000
,
00000001
00000010
00000000
00000100
00000000
00010000
00001000
00000000
00010000
00000000
00001000
00000100
00000000
00000010
00001000
00000000
,
00000001
00000100
00000001
00000100
00000000
00000100
00000010
00000000
00001000
00000001
00000010
00000001
00001000
00000010
00010000
00000000
,
00001000
00010000
00000000
00100000
00000000
01000000
00010000
00000000
10000000
00000000
00010000
10000000
00000000
01000000
00100000
00000000
,
00010000
00100000
00001000
00010000
00000000
00001000
00100000
00000000
00001000
00010000
00000000
00000100
00000000
00001000
00000100
00000000
,
00000010
00000100
00000000
00001000
00000000
00000001
00000100
00000000
00000010
00000000
00001000
00000001
00000000
00000010
00000001
00000000
,
00001000
00000100
00000010
00000000
00000001
00001000
00000010
00000000
00001000
00000100
00010000
00001000
00100000
00010000
10000000
00100000
,
01000000
00000000
00000000
00000000
,
20010000
00000000
30020000
00000000
,
00230000
00000000
00302000
00000000
,
00023000
00000000
00032000
00000000
,
00003020
00000032
00000203
00002300
,
00023000
00000000
00032000
00000000
,
00023000
00000000
00230000
00000000
,
20300000
00000000
30020000
00000000
,
02030000
03002000
00023000
00031000
,
00011000
00000000
00000000
00010000
00000000
00000010
00001000
00000100
,
00010000
00001000
00000000
01000000
00001000
00000000
00010000
00100000
00000000
01000000
00010000
00000000
10000000
00000000
01000000
00100000
,
00010000
00000000
10000000
01000000
00000000
11000000
00000000
01010000
,
00000000
00000000
00011000
00000000
00000000
00000000
00001100
00000000
00000000
00000000
00000101
00000000
00000000
00000000
00000001
00001000
,
00000001
00000000
00000100
00000010
00000010
00001000
00000001
00000010
,
00000001
00000100
00000010
00000000
00001000
00000100
00010000
00000000
00001000
00010000
00000010
00000000
00010000
00001000
00010000
00000000
,
00001000
00100000
00010000
00100000
01000000
10000000
00100000
01000000
00010000
01000000
00100000
10000000
01000000
00100000
00010000
01000000
,
00002000
00000000
00000000
00003000
,
00010000
00000000
00000100
00001000
00000100
00000000
00000010
00000000
00000001
00001000
00000010
00001000
00000001
00000010
00000100
00000000
,
00001000
00000000
00000100
00010000
00001000
00000000
00010000
00000000
00000100
00010000
00001000
00010000
00000100
00010000
00001000
00000000
,
01000000
00000000
00001000
00010000
00001000
00000000
00100000
00000000
00010000
01000000
00100000
01000000
00010000
01000000
00100000
00000000
,
10000000
00000000
00010000
00100000
01000000
00000000
10000000
00000000
00010000
01000000
00001000
00010000
00000100
00001000
00000010
00000100
,
00000010
00000000
00001000
00000001
00000010
00000000
00000100
00000000
00000010
00000001
00001000
00000001
00000100
00000010
00001000
00000100
,
00010000
00000000
00001000
00100000
00010000
00000000
01000000
00000000
00010000
00100000
01000000
10000000
01000000
00100000
00010000
01000000
,
00100000
00000000
10000000
00100000
01000000
00000000
00010000
00000000
00100000
01000000
00100000
00001000
00010000
00001000
00010000
00001000
,
00000100
00000000
00000010
00000001
00001000
00000000
00000010
00000000
00000100
00000001
00000000
00001001
00000000
00000000
00000000
00000000
,
00000001
00001000
00000000
00000001
00000000
00000010
00000100
00000000
00001000
00000000
00000001
00000100
00000000
00000010
00001000
00000000
,
00000100
00010000
00001000
00010000
00000000
00000010
00010000
00000000
00001000
01000000
00000000
00010000
00000000
01000000
00100000
00000000
,
10000000
00100000
00000000
01000000
00000000
00010000
00100000
00000000
00001000
00000000
00100000
01000000
00000000
00100000
00010000
00000000
,
10000000
01000000
00100000
00001000
00000000
00010000
00001000
00000000
00100000
00010000
01000000
00010000
00100000
00001000
00010000
00000000
,
00001000
00010000
00000000
00001000
00000000
00000010
00000100
00000000
00000010
00000000
00000001
00001000
00000000
00000001
00000100
00000000
,
00000010
00001000
00000010
00001000
00000000
00000001
00000010
00000000
00000100
00010000
00000000
00001000
00000000
00010000
00001000
00000000
,
01000000
00010000
00000000
01000000
00000000
00100000
10000000
00000000
00010000
00000000
01000000
10000000
00000000
01000000
00010000
00000000
,
10000000
00010000
00100000
00000000
00001000
00010000
00000010
00000000
00010000
00001000
00000100
00000010
00001000
00000001
00000010
00000100
,
00000010
00000000
00000001
00000010
00000100
00000000
00001000
00000100
00000010
00000000
00000001
00000100
00001000
00000000
00010000
00000000
,
00100000
00000000
01000000
00100000
10000000
00000000
01000000
00010000
00001000
00000000
00010000
00100000
01000000
00000000
00001000
00000000
,
00010000
00000000
01000000
10000000
01000000
00000000
00100000
00001000
00010000
00000000
00001000
00000100
00000010
00000000
00001000
00000000
,
00000001
00000000
00000100
00000001
00001000
00000000
00000010
00010000
00001000
00010000
00100000
01000000
00010000
00000000
10000000
00000000
,
01000000
00000000
00100000
00000000
00020000
00000000
00000000
00000000
10030000
01000000
00010000
00001000
00010000
00000000
00000000
00000000
,
00001000
00000000
00000100
00000000
00000002
00000000
00000000
00000000
00000103
00000010
00001000
00000010
00000100
00000000
00000000
00000000
,
00000001
00000000
00000010
00000000
00002000
00000000
00000000
00000000
00013000
01000000
00100000
01000000
10000000
00000000
00000000
00000000
,
00010000
00000000
01000000
00000000
00001000
00000000
00010000
00000000
00100000
01000000
00010000
01000000
00100000
10000000
01000000
00100000
,
00010000
00000000
00000000
00000000
;

//--------------- dance-double - Fred-104† ----------------
#NOTES:
     dance-double:
     Fred-104†:
     Challenge:
     18:
     0,0,0,0,0:
00000000
00000000
00000000
00000000
,
00000000
00000000
00000000
00000000
,
00000000
00000000
00000000
00000000
,
00000000
00000000
00000000
00000000
,
00000000
00000000
00000000
00000000
,
00000001
00000000
00000100
00000010
00001000
00000000
00000001
00000010
00000001
00000100
00001000
00010000
00000010
00000100
00001000
00010000
,
00001000
00000000
00010000
00001000
00010000
00000000
01000000
00100000
01000000
10000000
00010000
01000000
00010000
01000000
00100000
00010000
,
00001000
00000000
00010000
01000000
00100000
00000000
00010000
01000000
00100000
10000000
00010000
00100000
00001000
00100000
00010000
10000000
,
01000000
00100000
00010000
01000000
00100000
00010000
00001000
00100000
00010000
00001000
00000100
00010000
00001000
00000100
00000010
00001000
,
00000001
00000000
00000010
00000000
00001000
00000000
00000010
00000000
00000001
00000000
00001000
00000010
00000100
00000000
00000001
00000000
,
00000100
00000000
00000010
00000100
00001000
00000000
00010000
00000000
00100000
00000000
01000000
00100000
10000000
00000000
01000000
00010000
,
00001000
00000000
00010000
00001000
00010000
00000000
00001000
00000000
00000100
00000000
00000010
00001000
00000001
00000000
00001000
00000100
,
00001000
00000000
00000001
00000100
00000001
00000000
00001000
00000010
00000100
00001000
00010000
00100000
01000000
00010000
00100000
01000000
,
10000000
00000000
01000000
00000000
00010000
00000000
01000000
00000000
10000000
00000000
00010000
00100000
01000000
00000000
00010000
00000000
,
01000000
00000000
10000000
00010000
01000000
00000000
10000000
00000000
01000000
00000000
00100000
10000000
00010000
00000000
10000000
01000000
,
00100000
00000000
00001000
00010000
00001000
00000000
00010000
00001000
00000010
00000000
00000001
00000010
00000100
00000000
00001000
00000000
,
00000002
00000000
00000000
00000000
00000203
00000000
00000000
00000000
00001300
00010000
00000000
00011000
00000000
00000000
00000000
00000000
,
00010000
00001000
00000000
00010000
00000000
00000010
00001000
00000000
00000100
00000000
00010000
00001000
00000000
01000000
00010000
00000000
,
00100000
00001000
00010000
00001000
00000000
01000000
00001000
00000000
00010000
00000100
00001000
00000100
00000010
00000001
00001000
00000000
,
00000001
00000100
00000000
00001100
00000000
00000100
00000001
00000000
00001000
00000000
00000100
00000010
00000000
00000001
00001000
00000000
,
00000010
00010000
00001000
00010000
00000000
00000100
00010000
00000000
00001000
00100000
00010000
10000000
00010000
01000000
00100000
10000000
,
00010000
00100000
01000000
10000000
00000000
00100000
01000000
00000000
00010000
00000000
00100000
00001000
00000000
00010000
00001000
00000000
,
00010000
00000010
00001000
00000010
00000000
00000100
00000010
00000000
00001000
00000001
00000100
00000001
00000010
00000100
00000010
00000000
,
00000001
00000100
00001000
00000100
00000000
00000010
00001000
00000000
00000001
00000000
00001000
00000001
00000000
00000100
00000001
00000000
,
00000010
00000001
00001000
00000100
00010000
00000100
00001000
00000001
00000100
00000010
00000100
00001000
00010000
00100000
01000000
00010000
,
10000000
01000000
00100000
00010000
00000000
10000000
00100000
00000000
01000000
00010000
10000000
00010000
01000000
00100000
10000000
00000000
,
01000000
00100000
00000000
00101000
00000000
00001000
00010000
00000000
00000100
00001000
00000001
00000100
00000000
00000010
00000100
00000000
,
00000001
00000010
00000000
00000110
00000000
00000010
00000001
00000000
00001000
00000001
00000100
00000001
00000000
00000010
00000100
00000000
,
00010000
00001000
00000000
00011000
00000000
00000100
00000010
00000000
00001000
00000001
00000100
00000010
00000100
00001000
00010000
00000000
,
00100000
01000000
00100000
10000000
00000000
00010000
00100000
00000000
01000000
00000000
10000000
00100000
00000000
01000000
00010000
00000000
,
01000000
10000000
01000000
00010000
00000000
10000000
01000000
00000000
00100000
00000000
00001000
00010000
00000000
00001000
01000000
00000000
,
00001000
00010000
00001000
00010000
00000000
00010000
00000010
00000000
00001000
00000000
00000100
00000010
00000000
00000100
00001000
00000000
,
00000001
00000010
00000100
00001000
00000010
00000100
00001000
00010000
00000100
00001000
00010000
00100000
00001000
00010000
00100000
10000000
,
00010000
00000000
00000000
00000000
,
00021000
00000000
00032000
00003020
,
00000032
00000000
00000203
00002300
,
00023000
00000000
00230000
20300000
,
32000000
00000000
03020000
00000000
00032000
00000000
00013000
00001000
,
00022000
00033000
00002020
00003030
,
00000022
00000033
00000202
00000303
,
00002200
00003300
00022000
00033000
,
00002000
00000000
00000000
00000000
00023000
00000000
00000000
00000000
00230000
00000000
00000000
00000000
01300000
00010000
10000000
01000000
,
00100000
00000000
00000000
00010000
00000000
00000000
00010000
00000000
00000000
00000000
01000000
00000000
10000000
00000000
01000000
00000000
,
00010000
10000000
00000000
00010000
01000000
00000000
00001000
00010000
00000000
00000010
00010000
00000000
00000100
00000000
00001000
00000001
,
00001000
00000000
00000100
00000000
00000010
00000000
00000002
00000000
00000000
00000000
00000103
00000010
00000001
00000000
00000010
00000000
,
00001000
00000001
00000010
00000000
00000001
00001000
00000100
00000000
00010000
00000000
00001000
00000000
00010000
00001000
00010000
00001000
,
00100000
00010000
00100000
00010000
10000000
00100000
10000000
00100000
01000000
00010000
01000000
00010000
10000000
01000000
10000000
01000000
,
00100000
00010000
01000000
00100000
00010000
00001000
00000100
00000010
00001000
00000001
00000010
00001000
00000010
00000001
00000010
00000100
,
00010000
00000000
00000000
00001000
00000000
00000000
00100000
00000000
00000000
00010000
00000000
00000000
10000000
00000000
00000000
00010000
00000000
00000000
01000000
00000000
00000000
00100000
00000000
00000000
10000000
00000000
00000000
01000000
00000000
00000000
00100000
00000000
00000000
00001000
00000000
00000000
00010000
00000000
00000010
00000000
00001000
00000000
00000010
00000000
00010000
00000000
00001000
00000000
,
00020000
00000000
00000000
00030000
,
00010000
00000000
00000010
00001000
00000100
00000000
00010000
00001000
00010000
00100000
01000000
00100000
00010000
00001000
01000000
00001000
,
00010000
00000000
00000100
00010000
00001000
00000000
00100000
00010000
10000000
00100000
01000000
00010000
01000000
10000000
01000000
00100000
,
10000000
00000000
00010000
10000000
01000000
00000000
10000000
00010000
01000000
00010000
10000000
01000000
00100000
00001000
00010000
00100000
,
01000000
00000000
00100000
10000000
00010000
00100000
00001000
00010000
00001000
00000010
00000001
00000010
00000100
00001000
00000100
00010000
,
00001000
00000000
00010000
00001000
00000100
00000000
00000001
00000100
00000010
00001000
00000100
00000010
00001000
00010000
01000000
00100000
,
00010000
00000000
00100000
01000000
10000000
00000000
00100000
01000000
00010000
01000000
00100000
00010000
00001000
00000100
00000010
00001000
,
00000001
00000000
00000100
00000010
00001000
00000000
00000001
00000010
00001000
00010000
00100000
10000000
00010000
00100000
01000000
00000000
,
20000000
00000000
00000000
00000000
32000000
00000000
00000000
00000000
03010000
00001000
00000000
00011000
00000000
00000000
00000000
00000000
,
00001000
00010000
00000000
00001000
00000000
01000000
00010000
00000000
00100000
00000000
00001000
00010000
00000000
00000010
00001000
00000000
,
00000100
00010000
00001000
00010000
00000000
00000010
00010000
00000000
00001000
00100000
00010000
00100000
01000000
10000000
00010000
00000000
,
10000000
00100000
00000000
00110000
00000000
00100000
10000000
00000000
00010000
00000000
00100000
01000000
00000000
10000000
00010000
00000000
,
01000000
00001000
00010000
00001000
00000000
00100000
00001000
00000000
00010000
00000100
00001000
00000001
00001000
00000010
00000100
00000001
,
00001000
00000100
00000010
00000001
00000000
00000100
00000010
00000000
00001000
00000000
00000100
00010000
00000000
00001000
00010000
00000000
,
00001000
01000000
00010000
01000000
00000000
00100000
01000000
00000000
00010000
10000000
00100000
10000000
01000000
00100000
01000000
00000000
,
10000000
00100000
00010000
00100000
00000000
01000000
00010000
00000000
00100000
00000000
00001000
00010000
00000000
00001000
00000100
00000000
,
00000001
00000100
00000010
00001000
00000100
00000010
00001000
00010000
01000000
00100000
00010000
01000000
00100000
00010000
00001000
00000100
,
00000010
00000000
00001000
00000001
00000010
00000001
00000100
00000010
00000100
00001000
00010000
00100000
01000000
00100000
10000000
01000000
,
00100000
00000000
00010000
01000000
10000000
01000000
00010000
00100000
00001000
00010000
00001000
00000010
00001000
00010000
00000010
00001000
,
00000001
00000000
00001000
00000001
00000100
00000001
00001000
00000010
00000100
00000001
00000010
00000100
00001000
00000100
00010000
00001000
,
01000000
00000000
00010000
00100000
10000000
00100000
00010000
00100000
01000000
00010000
00001000
00000010
00000100
00001000
00000010
00000100
,
00000001
00000000
00000010
00000001
00001000
00000000
00000001
00000100
00000010
00001000
00000001
00000100
00000010
00001000
00000001
00000000
,
00001000
00000000
00000010
00010000
00001000
00100000
00010000
10000000
00100000
01000000
00010000
10000000
00010000
00000000
00100000
00000000
,
01000000
00000000
10000000
00100000
01000000
00000000
00010000
01000000
10000000
01000000
00100000
10000000
00010000
00100000
01000000
00000000
,
10000000
01000000
00100000
00010000
01000000
00100000
00010000
00001000
00100000
00010000
00001000
00000100
00010000
00001000
00000100
00000001
,
00001000
00000000
00000000
00000000
;
