#VERSION:0.83;
#TITLE:A;
#ARTIST:D.J.Amuro;
#GENRE:RENAISSANCE;
#BANNER:A.png;
#BACKGROUND:A-bg.png;
#CDTITLE:./CDTitles/bm IIDX 7th style.png;
#MUSIC:A.ogg;
#SAMPLESTART:78.8;
#SAMPLELENGTH:15;
#BPMS:0=93,88=191;
#STOPS:88=1.29;
#TIMESIGNATURES:0=4=4,88=2=4,90=4=4;
#BGSTAGE:28;

//--------------- dance-single - Fred-104 ----------------
#NOTEDATA:;
#STEPSTYPE:dance-single;
#DESCRIPTION:Fred-104;
#DIFFICULTY:Beginner;
#METER:5;
#CREDIT:Fred-104;
#NOTES:
0000
0000
0000
0000
,
0000
0000
0000
0000
,
0000
0000
0000
0000
,
0100
0000
0100
0000
,
0010
0010
0000
1001
,
0000
1000
0000
0010
,
0000
0001
0000
1001
,
0000
0001
0000
0010
,
0000
1000
0000
1001
,
0000
0000
0100
0000
,
0010
0010
0000
1001
,
0000
0001
0000
1000
,
1000
1000
0000
0001
,
0000
0001
0000
0001
,
0000
0100
0000
1001
,
0000
1000
0000
1000
,
0000
0100
0000
1001
,
0000
0000
0010
0000
,
0001
0000
1000
0000
,
0100
0000
0100
0000
,
0010
0000
0100
0000
,
0010
0000
0100
2002
,
3003
0000
1000
1000
,
0000
0010
0000
0100
,
0000
0001
1000
0001
,
0000
0001
0000
0100
,
0000
0100
0010
1000
,
0000
0010
0000
1000
,
0000
0001
1000
0001
,
0000
0001
0000
0100
,
0000
0100
0100
0000
,
0010
0000
1000
1000
,
0001
0000
1000
0000
,
0010
0000
0100
0100
,
0100
0000
0001
0000
,
1000
0000
0001
0001
,
0001
0000
1000
0000
,
0001
0000
2000
0000
,
0000
3000
0001
0001
,
0000
0001
0000
1000
,
0000
1000
0000
0010
,
0000
0010
0000
0100
,
0000
0100
0000
0001
,
0000
0100
0000
1000
,
0000
0100
0000
0010
,
0000
0001
0000
0010
,
0000
1000
0000
0001
,
0000
0001
0000
1000
,
0000
1000
0000
0001
,
0000
0001
0000
1000
,
0000
1000
0000
0100
,
0000
1000
0000
1000
,
0000
0001
0000
0100
,
0000
0100
2002
0000
,
3003
0000
0001
0000
,
0001
0000
1000
0000
,
1000
0000
0001
0000
,
0001
0000
1000
0000
,
1000
0000
0010
0000
,
0100
0000
0001
0000
,
0010
0000
0100
0000
,
1000
0000
0010
0000
,
0100
0000
0001
0000
,
0100
0000
1000
0000
,
0100
0000
0001
0000
,
1000
0000
0020
0000
,
0030
0000
1000
0100
,
0001
0000
0001
0100
,
1000
0000
1000
0010
,
0001
0000
0001
0010
,
1000
0000
0001
1000
,
0001
0000
1000
0100
,
0010
0001
2002
0000
,
0000
0000
0000
0000
,
0000
0000
3003
0000
;

//--------------- dance-single - Fred-104 ----------------
#NOTEDATA:;
#STEPSTYPE:dance-single;
#DESCRIPTION:Fred-104;
#DIFFICULTY:Easy;
#METER:8;
#CREDIT:Fred-104;
#NOTES:
0000
0000
0000
0000
,
0000
0000
0000
0000
,
0000
0000
0000
0000
,
0010
1000
0010
1000
0000
0001
0000
0100
,
0000
0100
0001
0010
0001
1000
0001
1000
,
0000
0001
0010
0001
0000
1000
0000
0010
,
0000
0010
1000
0001
0000
0001
1000
0001
,
0010
0100
0010
0100
0000
0010
0000
0100
,
0000
1000
0001
1000
0000
0001
0100
0001
,
1000
0100
1000
0100
0000
1000
0000
0001
,
0000
0010
0001
1000
0000
1000
0010
1000
,
0010
0100
0010
0100
0000
0001
0000
1000
,
0000
0001
0100
0001
0000
0100
0010
0100
,
0010
1000
0010
1000
0000
1000
0000
0001
,
0000
0010
0100
0010
0000
0100
1000
0100
,
1000
0010
1000
0001
0000
0001
0000
0010
,
0000
0100
0001
0100
0000
1000
0001
0000
,
0000
0010
0000
0100
0000
0010
0000
1001
,
0000
0100
0000
0010
0000
1000
0001
0000
,
0000
1000
0000
0001
0000
1000
0000
0110
,
0000
1000
0000
0001
0000
0110
0000
1001
,
0000
0011
0000
1010
0000
0011
2002
0000
,
0000
3003
0000
0000
0000
0000
0000
0000
0000
0000
0000
0000
0000
0000
0000
0000
0000
0000
0000
0000
0000
0000
0000
0000
0000
0000
0000
0000
0000
0000
0000
0000
0001
0000
0000
0000
0000
0000
0000
0000
0000
0000
0000
0000
0000
0000
0000
0000
0100
0000
0000
0000
0000
0000
0000
0000
0000
0000
0000
0000
0000
0000
0000
0000
,
0000
0100
0010
1000
,
0000
1000
0100
0010
,
0000
0010
0001
1000
,
0000
0001
0100
0010
,
0000
1000
0100
1000
,
0000
0001
0100
0001
,
0000
1000
0010
1000
,
0000
1000
0100
0010
,
0000
0100
0010
0000
0001
0000
0100
0000
,
0000
0001
0001
0000
1000
0000
0100
0000
,
0000
0010
0100
0000
1000
0000
0001
0000
,
0000
0100
0001
0000
1000
0000
0200
0000
,
0010
0310
0001
2000
,
0100
3100
1000
0200
,
0010
0310
0001
0001
,
1000
1000
0001
1000
,
0000
0010
1000
0000
0100
0000
1000
0000
,
0000
0001
0100
0000
0001
0000
0010
0000
,
0000
0100
0010
0000
0100
0000
1000
0000
,
0000
0010
1000
0000
0100
0000
0010
0000
,
0000
0010
0001
0000
1000
0000
0001
0000
,
0000
1000
0010
0000
0100
0000
0010
0000
,
0000
0100
0001
0000
1000
0000
0001
0000
,
0000
0010
0001
0000
0010
0000
0010
0000
,
1000
1000
0100
0100
,
0001
0001
0010
0010
,
0100
0100
0001
0001
,
0100
0100
1000
1000
,
0010
0010
0001
0001
,
1000
1000
0010
0010
,
0001
1000
0001
0000
2002
0000
3003
0000
,
0001
1000
0001
0000
,
0001
0100
0010
1000
,
0010
1000
0100
1000
,
0010
0100
0001
0010
,
0001
1000
0100
0000
1000
0000
0100
0000
,
0010
0001
1000
0010
,
0100
0001
0010
0001
,
0100
0001
1000
0010
,
1000
0100
1000
0000
1000
0000
0001
0000
,
1000
0001
0100
0010
,
0100
0010
1000
0001
,
0100
0010
0101
0000
,
1000
0001
1000
0100
,
1000
0010
0100
0001
,
0100
0001
1000
0000
0001
0000
0100
0000
,
0010
0100
0010
0000
1000
0000
0010
0000
,
0100
0010
0100
0000
0001
0000
1000
0000
,
0001
0010
0100
0000
0010
0000
0100
0000
,
1000
0100
1000
0000
2200
0000
0000
0000
,
0000
0000
0000
0000
,
0000
0000
3300
0000
;

//--------------- dance-single - Fred-104 ----------------
#NOTEDATA:;
#STEPSTYPE:dance-single;
#DESCRIPTION:Fred-104;
#DIFFICULTY:Medium;
#METER:12;
#CREDIT:Fred-104;
#NOTES:
0000
0000
0000
0000
,
0000
0000
0000
0000
,
0000
0000
0000
0000
,
0010
1000
0001
1000
0000
0010
0000
1001
,
0000
0100
0001
1000
0001
0010
0100
0010
,
0000
0001
1000
0010
0000
0100
0010
1000
,
0000
0010
1000
0100
0000
0010
0001
0100
,
0010
1000
0100
1000
0000
0010
0000
0101
,
0000
0001
0010
0001
0000
1000
0010
0100
,
0001
0000
1000
0001
0100
0000
0010
0000
0000
0000
1000
0000
0000
0000
0001
0000
,
0100
0001
0010
0100
0000
1000
0010
1000
,
0100
0000
0010
0001
0010
0000
1000
0000
0000
0000
0010
0000
0000
0000
0001
0000
,
0100
0010
1000
0001
0000
0010
0100
0010
,
0001
0000
0100
1000
0100
0000
0010
0000
0000
0000
1000
0000
0000
0000
1000
0000
,
0001
0100
0010
1000
0000
1000
0100
0010
,
0001
0000
1000
0010
0100
0000
0001
0000
0000
0000
1000
0000
0000
0000
0100
0000
,
0010
0001
0010
0100
0000
1000
0010
1000
,
0000
0010
0100
0001
0000
0010
0000
1001
,
0000
0010
0100
1000
0000
0001
1000
0000
,
0000
0001
1000
0010
0000
1000
0000
0101
,
0000
0001
0100
1000
0000
0110
0000
1001
,
0000
0001
0000
1000
0001
0002
2000
0000
,
0000
3003
0000
0000
0000
0000
0000
0000
0000
0000
0000
0000
0000
0000
0000
0000
0000
0000
0000
0000
0000
0000
0000
0000
0000
0000
0000
0000
0000
0000
0000
0000
1000
0000
0000
0000
0000
0000
0000
0000
0000
0000
0000
0000
0000
0000
0000
0000
0001
0000
0000
0000
0000
0000
0000
0000
0000
0000
0000
0000
0000
0000
0000
0000
,
0000
0100
0010
0000
1000
0000
0010
0000
,
0000
0100
0001
0000
1000
0000
0001
0000
,
0000
0010
0100
0000
0010
0000
0001
1000
,
0000
0001
0100
0000
0001
0000
0100
0000
,
0000
0010
0100
0000
0010
0000
1000
0000
,
0000
0100
0010
0000
0001
0000
1000
0000
,
0000
0010
0100
0000
0001
0000
1000
0100
,
0000
0001
0100
0000
1000
0000
0010
0000
,
1000
0100
0010
0000
0001
0000
0100
0000
,
0010
0100
0010
0000
1000
0000
0001
0000
,
0010
0001
0010
0000
0001
0000
1000
0000
,
0010
1000
0010
0000
1000
0000
0100
0000
,
0010
0001
1000
0000
0001
0000
0100
0000
,
0010
1000
0001
0000
1000
0000
0100
0000
,
0010
0001
1000
0000
0001
0100
0001
0000
,
1000
0100
1000
0000
0001
0001
1001
0000
,
0000
0010
1000
0000
1000
1000
1010
0000
,
0000
0100
0001
0000
0001
0001
0101
0000
,
0000
0010
1000
0000
0100
0100
0110
0000
,
0000
1000
0010
0100
0001
0001
0101
0000
,
0000
0001
1000
0000
0001
0010
0011
0000
,
0000
0100
0001
0000
1000
0010
1010
0000
,
0000
0100
1000
0000
1000
0000
0100
0000
,
0010
0000
0001
0000
0010
0001
0010
0000
,
0100
1000
0100
0000
1000
0001
1000
0000
,
0100
0010
0100
0000
0010
0001
0010
0000
,
0001
0100
0001
0000
1000
0100
1000
0000
,
0010
1000
0001
0000
0100
0010
0100
0000
,
0001
0010
0100
0000
1000
0010
1000
0000
,
0001
0100
0001
0000
1000
0100
0001
0000
,
1000
0010
0001
0000
2002
0000
0000
0000
,
0000
3003
0001
1000
,
0001
0100
0010
1000
0100
0010
0100
1000
,
0001
1000
0010
0000
1000
0001
0100
0010
,
1000
0001
1000
0100
0010
0100
0010
0001
,
1000
0010
1000
0000
0001
0100
0001
0100
,
0001
0010
0001
0010
0100
1000
0001
0100
,
0010
1000
0100
0000
1000
0100
1000
0001
,
0100
0010
0100
0001
0010
0100
1000
0100
,
0010
0001
1000
0000
0001
0010
0100
0010
,
0100
0010
0001
0010
0100
1000
0100
1000
,
0001
1000
0100
1000
0001
0010
0100
1000
,
0100
0010
0001
0100
0002
0000
0003
0000
,
1000
0100
0010
0001
1000
0100
1000
0100
,
0001
0100
0001
0100
1000
0010
1000
0010
,
0001
0010
0001
0010
1000
1000
0100
1000
,
0010
0100
0001
0100
0010
1000
0010
0100
,
0001
0100
0001
0001
1000
0100
1000
0100
,
0010
0001
0010
0001
1000
0010
0100
0001
,
1000
0100
0110
0000
2002
0000
0000
0000
,
0000
0000
0000
0000
,
0000
0000
3003
0000
;

//--------------- dance-single - Fred-104 ----------------
#NOTEDATA:;
#STEPSTYPE:dance-single;
#DESCRIPTION:Fred-104;
#DIFFICULTY:Hard;
#METER:15;
#CREDIT:Fred-104;
#NOTES:
0000
0000
0000
0000
,
0000
0000
0000
0000
,
0000
0000
0000
0000
,
0001
0100
0010
1010
0000
0101
0000
1100
,
0000
0110
0010
0011
0000
1000
0001
1000
,
0001
0000
0100
0010
1000
0000
0001
0100
1000
0100
0010
0100
0001
0100
1000
0100
,
0001
0000
1000
0100
0001
0000
0100
0010
0001
1000
0010
0100
0001
0100
0010
0000
,
1000
0000
0001
0010
0100
0000
0010
0001
1000
0001
0100
0000
0110
0000
0010
0000
,
1000
0000
0001
1000
0100
0000
1000
0010
0100
0000
0001
1000
0100
0010
0001
0100
,
0001
0000
0100
0000
0110
0000
1010
0000
1000
0000
1001
0000
0001
0000
0100
0010
,
1000
0000
0010
0100
0001
0000
1000
0100
0010
0000
0001
0010
0100
0000
1000
0001
,
1000
0000
0010
0000
1010
0000
0101
0000
0001
0000
1001
0000
1000
0100
0010
0001
,
0010
0000
0001
0000
0010
0000
0110
0000
0000
0000
1100
0000
0000
0000
0001
1000
,
0001
0101
0100
0110
0000
1010
0000
1100
,
0100
0110
0011
1001
0000
0110
0110
1010
,
0001
0000
1000
0100
1000
0000
0001
0000
1000
0010
0001
0000
0010
0100
0001
0000
,
1000
0000
0001
0010
0100
0000
1000
0001
0100
0010
1000
0100
0010
0000
0001
0000
,
1000
0101
1000
0011
0000
1000
0010
1000
,
0000
0011
0000
0101
0000
0110
0110
1001
,
0000
1010
0000
1100
0000
0101
1100
1000
,
0000
1010
0000
1100
0000
0110
0100
1001
,
0000
0011
0110
1100
0000
0110
0000
2002
,
0000
3003
0000
0000
0000
0000
0000
0000
0000
0000
0000
0000
0000
0000
0000
0000
0000
0000
0000
0000
0000
0000
0000
0000
0000
0000
0000
0000
0000
0000
0000
0000
1000
0000
0000
0000
0000
0000
0000
0000
0100
0000
0000
0000
0000
0000
0000
0000
1100
0000
0000
0000
0000
0000
0000
0000
0000
0000
0000
0000
0000
0000
0000
0000
,
0001
1000
0010
0200
0000
0001
0000
1000
,
0000
0301
0100
0010
1000
0001
0001
0010
,
0000
0100
0010
0002
0000
1000
0000
0010
,
0000
1003
0100
0010
0001
0100
1000
0100
,
0000
0001
0100
0020
0000
1000
0000
0001
,
0000
0130
0010
1000
0001
0010
0100
1000
,
0000
0000
0100
0000
1000
0000
0001
0000
1000
0001
0100
0000
0010
0000
1000
0100
,
0000
0010
0100
0000
1000
0001
1000
0000
0001
0000
0000
0000
0101
0000
0000
0000
,
0001
1000
1100
0000
0010
0000
0110
0000
,
0100
0001
1001
0000
1000
0000
1010
0000
,
0001
0010
0011
0000
1000
0010
0110
0100
,
0001
1000
1001
0000
1100
0000
0101
0000
,
1000
0010
0100
0020
0000
1000
0000
0001
,
0000
0130
0001
1000
0100
0010
0001
1000
,
0000
0000
0001
0000
0100
0000
0010
0000
1000
0100
0010
0000
0010
0000
0001
0100
,
0010
0000
0010
0000
1000
0100
0010
0000
0001
0000
0100
0000
0110
0000
0000
0000
,
1010
1000
0001
0000
1000
0100
0110
0000
,
0011
0000
0001
0000
1000
0000
0000
0000
0010
0100
0010
0000
1000
0000
0001
0010
,
0001
0000
1000
0000
0001
0100
0000
0010
1000
0000
0001
1000
0001
0000
1000
0000
,
0001
0000
0100
0010
0000
0100
0001
0000
1000
0000
0001
0100
0001
0000
1000
0000
,
0001
0010
0000
0010
0001
0000
0100
0000
0010
0000
0000
0010
1000
0000
0001
0000
,
1000
0100
1000
0000
1000
0010
1000
0000
0001
0000
1000
0100
0000
1000
0100
0000
,
0010
0000
0001
0100
0000
0001
1000
0000
0001
0000
0010
0000
0100
0000
1000
0000
,
0010
0100
0110
0000
0101
0001
1000
0000
,
1010
1000
1100
0000
1010
1000
0001
0000
,
0001
0100
0110
0000
0101
0100
0010
0000
,
0100
0010
1010
0000
1100
1000
0010
0000
,
0100
0001
0011
0000
0001
0010
0011
0001
,
1000
0010
0110
0000
0001
0010
0110
0100
,
1000
0001
1001
0000
0001
0100
0110
0010
,
1000
0100
0110
0000
2002
0000
0000
0000
,
3003
0000
0000
0000
0001
0000
0010
0001
,
1000
0010
1000
0000
0100
1000
0100
0000
1000
0000
0001
0100
0001
0000
1000
0100
,
1000
0000
0001
0100
0001
0000
0100
0000
0010
1000
0010
0000
1000
0001
1000
0000
,
0100
0010
0100
0000
1000
0100
1000
0000
0001
0100
0001
0000
0100
0010
1000
0000
,
0001
0010
0100
1000
0001
0100
1000
0001
,
0010
0100
0001
1000
0100
0001
1000
0010
,
0001
0010
0100
1000
0001
0100
0010
1000
,
0001
0000
0010
0000
0100
0000
1000
0000
0001
0100
0001
0000
0100
0000
0010
1000
,
0000
0001
0010
0000
0001
1000
0010
0000
1000
0000
0100
0010
0100
0000
0010
0000
,
0001
0000
0100
0010
0100
0000
0010
0000
1000
0000
0010
0100
0010
0000
0100
0000
,
0001
0000
0010
0100
0010
0000
0100
0000
1000
0000
0001
0010
0001
0000
1000
0000
,
0001
0100
0001
0000
0100
0010
0100
0010
0200
0000
0000
0000
0310
0000
1000
0000
,
0001
0010
0001
0010
0100
0000
1000
0000
0001
0000
1000
0010
1000
0000
0010
0100
,
0010
0000
0100
0001
0100
0000
0001
0000
1000
0000
0001
0010
0001
0000
1000
0000
,
0001
0000
1000
0100
1000
0000
0001
0000
1000
0010
1000
0000
0001
0100
0001
0000
,
0100
0010
0100
0000
0001
1000
0001
0000
1000
0000
0100
0000
0001
0000
1000
0000
,
0010
0100
1000
0001
0100
1000
0001
0010
,
0100
0001
1000
0010
0001
1000
0100
0010
,
1000
0001
1000
0001
1000
0100
0010
0000
2002
0000
0000
0000
0000
0000
0000
0000
,
0000
0000
0000
0000
,
0000
0000
3003
0000
;

//--------------- dance-single - Fred-104† ----------------
#NOTEDATA:;
#STEPSTYPE:dance-single;
#DESCRIPTION:Fred-104†;
#DIFFICULTY:Challenge;
#METER:18;
#CREDIT:Fred-104†;
#NOTES:
0000
0000
0000
0000
,
0000
0000
0000
0000
,
0000
0000
0000
0000
,
0000
0000
0000
0000
,
0000
0000
0000
0000
,
1100
0000
0010
0001
1000
0000
0010
1000
0100
0010
0001
0100
1000
0100
0001
1000
,
0001
0000
0100
0010
1000
0000
0001
1000
0100
1000
0001
0100
0010
0010
0100
0000
,
0001
0000
0010
0001
1000
0000
0010
0000
0100
0000
0010
1000
0010
0100
0010
0001
,
0010
0000
1000
0000
1001
0000
0001
0000
1000
0100
0010
0100
0001
0100
0010
0100
,
1000
0000
0001
0000
0011
0000
0110
0000
1000
0001
0100
0000
0010
0100
0010
1000
,
0001
0000
1000
0200
0301
0000
0001
0200
1300
0000
1000
0020
0031
0000
0001
0020
,
1030
0000
0001
1000
1010
0000
0110
0000
0001
0100
0010
0000
1000
0100
0010
0001
,
1000
0000
0001
1000
0100
0000
0110
0000
0010
0010
0001
0000
1001
1000
0100
0000
,
1000
0000
0001
0100
0110
0000
0110
0010
1000
0010
0100
0010
1000
0000
1001
0000
,
0001
0000
0100
0001
0011
0000
0110
0000
1000
0100
0010
0000
0001
0010
0100
0000
,
1000
0000
0001
1000
1001
0000
1010
0000
0110
0100
0001
1000
0001
0100
0010
1000
,
0001
0000
0010
0100
0001
0100
1000
0010
0100
1000
0100
0010
1000
0100
0010
0001
,
0100
0101
0010
2010
0000
3002
0023
0032
,
0003
2010
3000
1200
0300
0110
0110
2001
,
3000
0012
0003
0201
0300
1100
0201
0302
,
0003
0021
0031
0102
0103
0210
0310
2001
,
3000
1010
0110
0102
0003
0210
0300
2002
,
0000
3003
0000
0000
0000
0000
0000
0000
0000
0000
0000
0000
0000
0000
0000
0000
0000
0000
0000
0000
0000
0000
0000
0000
0000
0000
0000
0000
0000
0000
0000
0000
1010
0000
0000
0000
0000
0000
0000
0000
0000
0000
0000
0000
0000
0000
0000
0000
1001
0000
0000
0000
0000
0000
0000
0000
0000
0000
0000
0000
0000
0000
0000
0000
,
1000
0100
0110
0000
0011
0000
1001
0000
,
0001
0100
0110
0000
1010
0000
1100
0000
,
0110
0010
0011
0000
1010
0000
0011
0000
,
0101
0100
1100
0000
1000
0100
0110
0010
,
0000
0001
0100
0020
0000
0032
0000
0023
,
0000
1030
0001
0010
0001
1000
0001
0101
,
0000
0000
0100
0000
0010
0000
1000
0000
0001
0010
0100
0000
1000
0000
0001
0100
,
0000
0010
1000
0000
0001
1000
0100
0000
0110
0000
0010
0000
0001
0000
0101
0000
,
0000
0110
0000
1001
0000
0001
0100
0001
,
1000
0100
1000
0001
0011
0001
0100
0110
,
0000
1010
0000
0101
0000
0001
1000
0100
,
1000
0010
0100
0001
1001
1000
0100
1100
,
0000
0101
0000
1001
0000
0010
0001
1000
,
0001
0100
0010
1000
1001
0001
0100
0110
,
0000
0000
1010
0000
0000
0000
1001
0000
1000
0010
0100
0000
0001
0000
1000
0100
,
0010
0000
0001
0000
1000
0001
0100
0010
1000
0000
0100
0000
0110
0000
0010
0000
,
0001
1000
1010
0010
0100
0001
1001
1000
,
0100
0000
0010
0000
0011
0000
0001
0000
1000
0001
0100
0001
1000
0000
0001
1000
,
0100
0000
1000
0000
0010
0100
0001
1000
0100
0000
0010
0001
1000
0100
1000
0000
,
0001
0000
0100
0010
0000
1000
0001
0000
1000
0000
0010
1000
0001
1000
0100
0000
,
0010
0001
1000
0001
0100
0000
0010
0100
0001
0000
1000
0001
1000
0000
0100
0000
,
0010
0001
0010
0000
0100
1000
0100
0000
0010
0000
0001
1000
0000
1000
0010
0000
,
0100
0000
0001
0100
0000
0010
1000
0000
0001
0010
0100
0000
1000
0100
0010
0000
,
0001
1000
0001
0000
0100
0010
1000
0010
0100
0000
0001
0000
0011
0000
0001
0000
,
1000
0010
0110
0100
0001
1000
1100
0100
,
0010
0000
0001
0000
0101
0000
0100
0000
0010
1000
0001
1000
0100
0000
0010
0001
,
0010
0000
0001
0000
0100
0001
1000
0001
0100
0000
0001
0100
0010
1000
0001
0000
,
1000
0100
1000
0100
0010
0001
0010
0000
0001
0100
0000
0010
1000
0000
0001
0000
,
1000
0100
0000
0010
0001
0000
0001
0000
1000
0000
0100
0010
0001
0000
1000
0000
,
0001
0100
0010
1000
0010
0100
0001
0000
1000
0100
0010
0100
1000
0010
0100
0000
,
0001
0010
0100
1000
0001
0100
0010
1000
0002
0000
0000
0000
0000
0000
0000
0000
,
1003
0100
0010
0001
1000
0010
0100
0001
1000
0000
0000
0000
0001
0000
0000
0000
,
0100
0001
1000
0001
0100
0010
1000
0001
0010
0100
0010
0001
1000
0010
0100
0001
,
1000
0100
1000
0001
0100
0001
1000
0100
0010
0000
0001
1000
0010
0100
0001
1000
,
0100
0000
0010
0001
0010
0100
1000
0001
0010
0100
0010
0001
1000
0010
0100
0000
,
0010
1000
0001
0010
0100
0010
0001
0000
1000
0001
0100
0000
0001
1000
0100
0000
,
1000
0100
1000
0001
0100
0001
1000
0010
1000
0001
0010
0001
1000
0010
0100
0010
,
1000
0001
0010
0100
0010
0001
1000
0010
0100
0000
0001
0000
1000
0000
0001
0000
,
0010
0000
0100
0000
1000
0000
0100
0010
0001
0000
1000
0100
0010
0001
1000
0001
,
0010
0001
1000
0010
0100
0001
1000
0001
1000
0100
0010
0001
1000
0100
1000
0001
,
0100
0001
1000
0010
0100
0001
1000
0010
1000
0001
0010
0001
1000
0010
0100
0010
,
1000
0001
0010
0100
0010
0001
1000
0100
0010
0001
0010
0100
1000
0001
0100
0010
,
1000
0010
0100
0001
1000
0100
0010
0001
2000
0000
0000
0000
0000
0000
0000
0000
,
3001
0010
0100
1000
0100
0010
0001
1000
0001
0010
0001
1000
0010
1000
0001
0010
,
0100
1000
0001
0100
0001
1000
0100
1000
0001
0100
0010
1000
0001
0010
0001
1000
,
0100
0010
0001
1000
0010
1000
0001
0100
0001
1000
0100
0010
0001
0100
0010
1000
,
0001
0010
0100
1000
0010
0100
0001
1000
0001
0010
0001
0100
0010
1000
0100
1000
,
0010
0100
0001
0010
0001
0100
0010
1000
0001
0100
0001
0010
0100
1000
0010
1000
,
0100
0010
0001
0100
0001
0010
0100
1000
0100
0010
0001
0100
0010
1000
0100
0010
,
0001
0100
0010
1000
0100
0010
0001
0200
0020
0000
0000
0000
0000
0000
0000
0000
,
0000
0000
0000
0000
,
0000
0000
0330
0000
;

//--------------- dance-double - Fred-104 ----------------
#NOTEDATA:;
#STEPSTYPE:dance-double;
#DESCRIPTION:Fred-104;
#DIFFICULTY:Easy;
#METER:8;
#CREDIT:Fred-104;
#NOTES:
00000000
00000000
00000000
00000000
,
00000000
00000000
00000000
00000000
,
00000000
00000000
00000000
00000000
,
00000000
00010000
00000000
00010000
00000000
00000010
00000000
00000100
,
00000000
00000001
00000000
00001000
00000000
00000001
00000000
00000100
,
00000000
00001000
00000000
00001000
00000000
00010000
00000000
01000000
,
00000000
10000000
00000000
00010000
00000000
20000000
01000000
31000000
,
00000000
00010000
00000000
00010000
00000000
00001000
00000000
00000010
,
00000000
00000100
00000000
00000100
00000000
00001000
00000000
00000001
,
00000000
00000010
00000100
00001000
00000000
00010000
00000000
00100000
,
00000000
01000000
10000000
00010000
00000000
10000000
01000000
00010000
,
00000000
00001000
00010000
00001000
00000000
00000100
00000000
00000001
,
00000000
00001000
00000100
00000010
00000000
00000001
00001000
00000100
,
00000000
00000010
00000000
00000001
00000000
00000010
00000000
00000100
,
00000000
00010000
00000100
00000010
00000000
00000001
00000100
00001000
,
00000000
00010000
00000000
00001000
00000000
00010000
00000000
00001000
,
00000000
00010000
01000000
10000000
00000000
00010000
10000000
00000000
,
00000000
10000000
00000000
00100000
00000000
01000000
00000000
00011000
,
00000000
00000010
00000000
00000010
00000000
00001000
00000001
00000000
,
00000000
00000010
00000000
00000001
00000000
00001000
00000000
00001100
,
00000000
00000010
00000000
00000001
00000000
00001000
00000000
00010100
,
00000000
00010000
00000000
00001000
00000000
01001000
00000000
00022000
,
00000000
00033000
00000000
00000000
00000000
00000000
00000000
00000000
00000000
00000000
00000000
00000000
00000000
00000000
00000000
00000000
00000000
00000000
00000000
00000000
00000000
00000000
00000000
00000000
00000000
00000000
00000000
00000000
00000000
00000000
00000000
00000000
00001000
00000000
00000000
00000000
00000000
00000000
00000000
00000000
00000000
00000000
00000000
00000000
00000000
00000000
00000000
00000000
00100000
00000000
00000000
00000000
00000000
00000000
00000000
00000000
00000000
00000000
00000000
00000000
00000000
00000000
00000000
00000000
,
00000000
00010000
01000000
00000000
00100000
00000000
01000000
00000000
,
00000000
00100000
10000000
00000000
01000000
00000000
00100000
00000000
,
00000000
00001000
00100000
00000000
00010000
00000000
01000000
00000000
,
00000000
00001000
01000000
00000000
00010000
00000000
00001000
00000000
,
00000000
00000010
00000100
00000000
00000001
00000000
00001000
00000000
,
00000000
00000001
00000010
00000000
00000100
00000000
00000010
00000000
,
00000000
00000001
00001000
00000000
00000010
00000000
00010000
00000000
,
00000000
00010000
00001000
00000000
00100000
00000000
00010000
00000000
,
10000000
01000000
10000000
00000000
01000000
00000000
00100000
00000000
,
00001000
00010000
00001000
00000000
01000000
00000000
00001000
00000000
,
00010000
00001000
00010000
00000000
00001000
00000000
00000100
00000000
,
00000010
00000100
00000010
00000000
00001000
00000000
00000100
00000000
,
00000010
00000001
00000010
00000000
00000100
00000000
00010000
00000000
,
00001000
00010000
00001000
00000000
01000000
00000000
00001000
00000000
,
00010000
00000100
00010000
00000000
00001000
00000000
00010000
00000000
,
00001000
00010000
00001000
00000000
00000100
00000000
00000002
00000000
,
00000003
00000001
00001000
00000000
00000100
00000000
00020000
00000000
,
00030000
00010000
00001000
00000000
01000000
00000000
00200000
00000000
,
00300000
00100000
10000000
00000000
01000000
00000000
00200000
00000000
,
00300000
00100000
00001000
00000000
00010000
00000000
00000020
00000000
,
00000030
00000010
00001000
00000000
00000001
00000000
00000200
00000000
,
00000300
00000100
00000010
00000000
00010000
00000000
00002000
00000000
,
00003000
00001000
00100000
00000000
00010000
00000000
10000000
00000000
,
01000000
00010000
00001000
00000010
,
00000001
00001000
00000001
00000100
,
00001000
00010000
00100000
01000000
,
00100000
10000000
00010000
00100000
,
01000000
00100000
00001000
00010000
,
00100000
01000000
00001000
00010000
,
00001000
00000100
00000010
00001000
,
00000001
00000010
00002002
00000000
,
00003003
00000000
00000001
00000000
,
00000100
00001000
00010000
00001000
,
00010000
01000000
10000000
00010000
,
10000000
01000000
00010000
00001000
,
00000100
00000010
00001000
00000001
,
00000010
00000100
00010000
00001000
,
00100000
00010000
10000000
01000000
,
10000000
00100000
10000000
01000000
,
10000000
01000000
00010000
00001000
,
00010000
01000000
00010000
00001000
,
00000010
00001000
00010000
00001000
,
00000010
00000001
00000220
00000330
,
00001000
00000001
00001000
00000010
,
00010000
00000100
00001000
00000001
,
00000100
00000001
00000100
00001000
,
00010000
00100000
10000000
01000000
,
00100000
01000000
10000000
00100000
,
00010000
00001000
00000010
00000001
,
00001100
00000110
00002002
00000000
,
00000000
00000000
00000000
00000000
,
00000000
00000000
00003003
00000000
;

//--------------- dance-double - Fred-104 ----------------
#NOTEDATA:;
#STEPSTYPE:dance-double;
#DESCRIPTION:Fred-104;
#DIFFICULTY:Medium;
#METER:12;
#CREDIT:Fred-104;
#NOTES:
00000000
00000000
00000000
00000000
,
00000000
00000000
00000000
00000000
,
00000000
00000000
00000000
00000000
,
00001000
00000100
00001000
00000001
00000000
00000010
00000000
00000011
,
00000000
00000001
00000010
00001000
00010000
00100000
01000000
00100000
,
00000000
10000000
00010000
00100000
00000000
01000000
00100000
00010000
,
00000000
10000000
01000000
00010000
00000000
00001000
00000100
00000010
,
00001000
00000100
00001000
00000001
00000000
00000100
00000000
00001001
,
00000000
00001000
00000001
00000100
00000000
00001000
00010000
01000000
,
10000000
00010000
00100000
01000000
00000000
10000000
00000000
01000000
,
00100000
01000000
00010000
00001000
00000000
00000010
00000100
00000010
,
00000001
00000010
00000100
00001000
00000000
00000001
00000000
00000100
,
00000010
00010000
00010000
00001000
00000000
00010000
00000010
00000100
,
00001000
00010000
00100000
01000000
00000000
00010000
00000000
10000000
,
01000000
00100000
00010000
00010000
00000000
10000000
00100000
01000000
,
00010000
00001000
00000010
00000100
00000000
00000001
00000000
00000010
,
00000100
00001000
00000010
00000100
00000000
00000001
00001000
00000001
,
00000000
00000001
00000100
00001000
00000000
00010000
00000000
01000000
,
00000000
10000000
00100000
01000000
00000000
00010000
00001000
00000000
,
00000000
00010000
00100000
10000000
00000000
01000000
00000000
00010000
,
00000000
00100000
00001000
00010000
00000000
00011000
00000000
00001001
,
00000000
00001000
00000100
00000010
00000000
00000110
00000000
00002002
,
00000000
00003003
00000000
00000000
00000000
00000000
00000000
00000000
00000000
00000000
00000000
00000000
00000000
00000000
00000000
00000000
00000000
00000000
00000000
00000000
00000000
00000000
00000000
00000000
00000000
00000000
00000000
00000000
00000000
00000000
00000000
00000000
00010000
00000000
00000000
00000000
00000000
00000000
00000000
00000000
00000000
00000000
00000000
00000000
00000000
00000000
00000000
00000000
00000010
00000000
00000000
00000000
00000000
00000000
00000000
00000000
00000000
00000000
00000000
00000000
00000000
00000000
00000000
00000000
,
00000000
00001000
00000100
00000000
00010000
00000000
00001000
00000000
,
00000000
00100000
00010000
00000000
00100000
00000000
01000000
00000000
,
00000000
00100000
00010000
00000000
10000000
00000000
01000000
00000000
,
00000000
00010000
00001000
00000000
00000100
00000000
00000010
00000000
,
00000000
00001000
00000001
00000000
00000010
00000000
00000100
00000000
,
00000000
00001000
00010000
00000000
00100000
00000000
01000000
00000000
,
00000000
00001000
00010000
00000000
00001000
00000000
00000010
00000000
,
00000000
00000100
00001000
00000000
00000001
00000000
00000100
00000000
,
00000010
00001000
00000001
00000000
00000010
00000100
00001000
00000000
,
00000100
00010000
00001000
00000000
00010000
00000000
01000000
00000000
,
00100000
00010000
10000000
00000000
00100000
01000000
00001000
00000000
,
00010000
00100000
01000000
00000000
00001000
00000000
00010000
00000000
,
01000000
10000000
01000000
00000000
00100000
00001000
00010000
00000000
,
00001000
00000100
00000001
00000000
00000100
00000000
00000010
00000000
,
00001000
00000001
00000010
00000000
00000100
00001000
00000100
00000000
,
00000010
00000001
00000010
00000000
00001001
00000000
00000001
00000000
,
00000000
00000010
00000010
00000000
00000110
00000000
00001000
00000000
,
00000000
00000100
00000100
00000000
00011000
00000000
00000010
00000000
,
00000000
00010000
00010000
00000000
01100000
00000000
00010000
00000000
,
00000000
01000000
01000000
00000000
00100000
10000000
00100000
00000000
,
00000000
01000000
01100000
00000000
10000000
01000000
00010000
00000000
,
00000000
00001000
00011000
00000000
00010000
00001000
00000010
00000000
,
00000000
00000001
00001001
00000000
00000001
00000000
00000100
00000000
,
00001000
00000000
00010000
00000000
00001000
00010000
00100000
00000000
,
01000000
00010000
10000000
00000000
01000000
00100000
00001000
00000000
,
00010000
00000100
00000010
00000000
00000100
00000010
00001000
00000000
,
00010000
01000000
00100000
00000000
00010000
00001000
00000100
00000000
,
00000010
00000001
00001000
00000000
00000001
00000100
00001000
00000000
,
00010000
01000000
10000000
00000000
00010000
10000000
00100000
00000000
,
00010000
00001000
00000010
00000000
00000001
00000010
00000100
00000000
,
00010000
00001000
00010000
00000000
00022000
00000000
00000000
00000000
,
00033000
00000000
00010000
00001000
,
00000010
00000001
00000010
00000001
00001000
00000010
00001000
00000001
,
00000100
00000001
00000100
00000100
00000001
00000100
00000010
00000100
,
00001000
00010000
00100000
10000000
01000000
10000000
01000000
00100000
,
00010000
00100000
00010000
00000000
00010000
10000000
01000000
10000000
,
00010000
01000000
00010000
00100000
00001000
00010000
00001000
00000010
,
00000100
00000010
00000001
00000000
00000001
00000100
00000001
00001000
,
00000100
00000010
00000100
00000010
00000001
00000100
00000001
00000010
,
00000100
00001000
00000100
00000100
00000010
00000001
00000010
00000001
,
00001000
00000100
00001000
00000100
00010000
00001000
00010000
00001000
,
00100000
00010000
00100000
00010000
10000000
00100000
01000000
00010000
,
01000000
00100000
10000000
00100000
10200000
00000000
00000000
00000000
,
10300000
00100000
01000000
00001000
00010000
00000010
00001000
00000100
,
00000010
00000001
00000010
00000100
00001000
00000010
00001000
00000100
,
00000010
00000001
00001000
00001000
00000010
00001000
00000010
00001000
,
00000001
00000100
00001000
00000000
00010000
00100000
10000000
01000000
,
10000000
01000000
10000000
00100000
01000000
00010000
01000000
00010000
,
10000000
00100000
10000000
01000000
00100000
00001000
00000010
00000100
,
00001000
00000001
00000100
00000000
00002002
00000000
00000000
00000000
,
00000000
00000000
00000000
00000000
,
00000000
00000000
00003003
00000000
;

//--------------- dance-double - Fred-104 ----------------
#NOTEDATA:;
#STEPSTYPE:dance-double;
#DESCRIPTION:Fred-104;
#DIFFICULTY:Hard;
#METER:16;
#CREDIT:Fred-104;
#NOTES:
00000000
00000000
00000000
00000000
,
00000000
00000000
00000000
00000000
,
00000000
00000000
00000000
00000000
,
00000001
00001000
00000010
00011000
00000000
01100000
00000000
10010000
,
00000000
11000000
00100000
00110000
00000000
00101000
00001000
00010000
,
00000100
00000000
00001000
00000001
00000100
00000000
00000010
00000000
00000100
00001000
00010000
00001000
00010000
00100000
01000000
00010000
,
10000000
00000000
01000000
00010000
00001000
00000000
00000100
00000001
00001000
00000100
00000010
00000000
00000001
00000001
00001000
00000000
,
00000100
00000000
00011000
00000000
01000000
00000000
10010000
00000000
10000000
01000000
10000000
01000000
00010000
00001000
00010000
00001000
,
00000010
00000000
00000001
00001000
00000100
00000000
00010000
00000000
00001000
01000000
00100000
00010000
00001000
00000100
00000010
00001000
,
00000001
00000000
00000010
00000100
00001000
00000000
00000001
00000100
00001000
00010000
01000000
00000000
10000000
00000000
10000000
01000000
,
00010000
00000000
00001000
00000010
00000001
00000000
00000001
00000100
00001000
00000000
00010000
00100000
10000000
00000000
00010000
10000000
,
00010000
00000000
00100000
01000000
00100000
00000000
10010000
00000000
10000000
00000000
00100000
00000000
00010000
00001000
00010000
00000100
,
00001000
00000000
00000001
00000100
00000010
00000000
00000110
00000000
00001000
00000000
00010100
00000000
01001000
00000000
00001000
00010000
,
00001000
00010010
00010000
00101000
00000000
10010000
01000000
00110000
,
00001000
00011000
00010000
00001010
00000000
00000110
00000110
00001001
,
00000001
00000000
00001000
00000001
00000100
00000000
00000010
00000000
00001000
00000100
00000010
00000000
00000010
00000100
00001000
00000000
,
00000001
00000000
00000100
00000010
00001000
00000000
00000001
00000100
00001000
00010000
00001000
00010000
01000000
00000000
00100000
00000000
,
00010000
10010000
00100000
10100000
00000000
11000000
00000000
01100000
,
00000000
00100000
00001000
00010000
00001000
00000010
00001000
00010000
,
00000010
00001000
00000001
00000100
00000000
00000101
00000000
00001100
,
00000000
00000001
00000100
00010000
01000000
00100000
01000000
00010000
,
00001000
00000010
00000100
00000001
00000000
00001001
00000000
00022000
,
00000000
00033000
00000000
00000000
00000000
00000000
00000000
00000000
00000000
00000000
00000000
00000000
00000000
00000000
00000000
00000000
00000000
00000000
00000000
00000000
00000000
00000000
00000000
00000000
00000000
00000000
00000000
00000000
00000000
00000000
00000000
00000000
00000001
00000000
00000000
00000000
00000000
00000000
00000000
00000000
00001000
00000000
00000000
00000000
00000000
00000000
00000000
00000000
00000200
00000000
00000000
00000000
00000000
00000000
00000000
00000000
00000001
00000000
00000000
00000000
00000000
00000000
00000000
00000000
,
00000000
00001000
00000000
00000310
00000000
00000001
00000100
00001000
,
00010000
01000000
10000000
00100000
01000000
00010000
00200000
00010000
,
00000000
01000000
00000000
00310000
00000000
10000000
00100000
00010000
,
00001000
00000010
00000100
00001000
00000001
00000010
00000100
00002000
,
00000000
00000001
00000000
00003100
00000000
00001000
00000001
00000010
,
00001000
00010000
00100000
00010000
00100000
01000000
00200000
00010000
,
00000000
00000000
10000000
00000000
00000000
00000000
00310000
00000000
10000000
00010000
01000000
00000000
00100000
00000000
10000000
01000000
,
00000000
01000000
00100000
00000000
00001000
00010000
00001000
00000000
00010000
00000000
00000100
00000000
00001100
00000000
00000000
00000000
,
00000110
00000010
00000001
00000000
00001000
00000100
00000110
00000000
,
00000101
00000100
00000010
00000000
00000001
00001000
00001100
00000000
,
00001010
00000010
00010000
00000000
00010000
00001000
00011000
00000000
,
00101000
00100000
00010000
00000000
10010000
00000000
01100000
00000000
,
10000000
00100000
01100000
00000000
00011000
00000000
00010010
00000000
,
00001010
00000010
00000100
00000000
00000011
00000000
00001010
00000000
,
00001000
00000000
00000100
00000000
00000110
00000000
00000000
00000000
00000001
00000100
00000010
00000000
00001000
00000000
00000100
00010000
,
00000100
00000000
00010000
00000000
00001000
00010000
00001000
00000000
00101000
00000000
00001000
00000000
00011000
00000000
00000000
00000000
,
00100000
00010000
10000000
00100000
01100000
00100000
10100000
00000000
,
10000000
00000000
01000000
00000000
00100000
00000000
00001000
00000000
00010000
00001000
00000100
00000000
00000010
00000000
00001000
00000001
,
00000010
00000000
00000100
00000000
00010000
00001000
00000000
00001000
00010000
00000000
00000010
00000100
00001000
00000000
00010000
00000000
,
00100000
00000000
01000000
00100000
10000000
00000000
00010000
00000000
00100000
00000000
00001000
00010000
00001000
00000000
01000000
00000000
,
00001000
00010000
00000000
00100000
01000000
00000000
00010000
00000000
10000000
00000000
00000000
01000000
00100000
00000000
00001000
00000000
,
00010000
00000010
00010000
00000000
00001000
00100000
00001000
00000000
00010000
00000000
00000100
00001000
00000000
00001000
00000100
00000000
,
00000010
00000000
00000001
00000100
00000000
00000100
00000010
00000000
00001000
00000000
00000100
00000000
00000010
00000000
00001000
00000000
,
00010000
00001000
00011000
00000000
00010010
00010000
00000010
00000000
,
00001000
00000100
00010100
00000000
00011000
00001000
01000000
00000000
,
00010000
01000000
01100000
00000000
10100000
10000000
01000000
00000000
,
00100000
00001000
00011000
00000000
00011000
00010000
00000010
00000000
,
00001000
00000100
00000110
00000000
00000101
00000100
00000010
00000000
,
00001000
00000100
00000110
00000000
00000011
00000010
00000100
00000000
,
00001000
00000000
00000010
00000000
00000110
00000000
00000000
00000000
00000010
00001000
00000010
00000000
00010000
00001000
00010000
00000000
,
00001000
00000000
00100000
00010000
00000000
10000000
00100000
00000000
02200000
00000000
00000000
00000000
00000000
00000000
03300000
00000000
,
10000000
01000000
10000000
01000000
00100000
00010000
00100000
00010000
00100000
00000000
00000000
00000000
01000000
00000000
00000000
00000000
,
00100000
00001000
00100000
00000000
00001000
00010000
00001000
00000000
00100000
00000000
00001000
00010000
00001000
00000000
00010000
00000010
,
00010000
00000000
00000010
00001000
00000010
00000000
00001000
00000000
00000001
00000100
00000001
00000000
00000100
00000010
00000100
00000000
,
00000010
00001000
00000010
00000000
00010000
00001000
00010000
00000000
00000100
00010000
00000100
00000000
00010000
00001000
00010000
00000000
,
01000000
00100000
00010000
01000000
00100000
10000000
00010000
00100000
,
00000000
01000000
10000000
01000000
00010000
00001000
00000100
00000010
,
00010000
00001000
00000010
00000100
00002000
00000000
00003001
00001000
,
00000001
00000000
00000100
00000000
00000010
00000000
00001000
00000000
00000001
00000010
00000100
00000000
00000100
00000000
00001000
00000010
,
00000100
00000000
00000100
00000000
00000001
00000000
00001000
00000000
00000001
00000000
00000100
00000010
00000100
00000000
00000010
00000000
,
00001000
00000000
00000001
00000100
00000001
00000000
00000010
00000000
00000100
00000000
00010000
00001000
00010000
00000000
00100000
00000000
,
01000000
00000000
00010000
10000000
00010000
00000000
00100000
00000000
00001000
00010000
00001000
00000000
00100000
00010000
00100000
00000000
,
00001000
00100000
00001000
00000000
00100000
00010000
00100000
00000000
02000000
00000000
00000000
00000000
00000000
00000000
00000000
00000000
,
13000000
00010000
10000000
00010000
10000000
00000000
01000000
00000000
00100000
00000000
00001000
00010000
00001000
00000000
00100000
00010000
,
00100000
00000000
00001000
00010000
00001000
00000000
00010000
00000000
00000010
00000000
00001000
00000010
00001000
00000000
00000001
00000100
,
00000001
00000000
00001000
00000100
00001000
00000000
00000001
00000000
00000100
00000001
00000100
00000000
00000001
00000010
00000001
00000000
,
00001000
00000010
00001000
00000000
00000010
00010000
00000010
00000000
00010000
00000000
00001000
00000000
00100000
00010000
00100000
00000000
,
01000000
00000000
10000000
00000000
00010000
00000000
01000000
00000000
00100000
00000000
00010000
00000000
00001000
00000100
00000010
00000000
,
00001000
00000001
00000010
00000100
00001000
00000001
00000100
00001000
,
00010000
00001000
00010000
00001000
00100000
00010000
00100000
00010000
00200000
00000000
00000000
00000000
00000000
00000000
00000000
00000000
,
00000000
00000000
00000000
00000000
,
00000000
00000000
00300000
00000000
;

//--------------- dance-double - Fred-104† ----------------
#NOTEDATA:;
#STEPSTYPE:dance-double;
#DESCRIPTION:Fred-104†;
#DIFFICULTY:Challenge;
#METER:18;
#CREDIT:Fred-104†;
#NOTES:
00000000
00000000
00000000
00000000
,
00000000
00000000
00000000
00000000
,
00000000
00000000
00000000
00000000
,
00000000
00000000
00000000
00000000
,
00000000
00000000
00000000
00000000
,
11000000
00000000
00100000
00010000
10000000
00000000
01000000
10000000
01000000
00010000
01000000
00100000
01000000
10000000
00100000
00010000
,
00001000
00000000
00010000
00001000
00000100
00000000
00000010
00001000
00000001
00000010
00001000
00000010
00000100
00000010
00000001
00000000
,
00000101
00000000
00000100
00000010
00001000
00000000
00000001
00000010
00000100
00000010
00000001
00000000
00001001
00000000
00010010
00000000
,
00011000
00000000
00101000
00001000
00010000
00000000
00001000
00010000
00100000
01000000
00100000
10000000
00100000
00100000
01000000
00000000
,
00010000
00100000
01000000
00000000
00100000
00001000
00010000
00000000
01000000
10000000
01000000
00010000
00001000
00010000
00100000
01000000
,
00001000
00000000
00010000
00001000
00000010
00000000
00001000
00010000
01000000
00000000
00010000
00001000
00000100
00000000
00000001
00001000
,
00000001
00000000
00000100
00001000
00010000
00000000
00000010
00010000
00001000
00010000
00000010
00010000
00001000
00010000
01000000
10000000
,
01000000
00000000
00100000
00000000
00110000
00000000
11000000
00000000
10000000
00010000
00100000
00000000
00011000
00001000
00010000
00000000
,
00001000
00000000
00010010
00000000
00001010
00001000
00000001
00000000
00000100
00000000
00000010
00000000
00001100
00000000
00000101
00000000
,
00000100
00000000
00001010
00000000
00010010
00000000
00011000
00000000
00001000
00100000
00010000
00000000
10000000
00010000
01000000
00000000
,
00010000
00000000
10000000
10000000
11000000
00000000
01000000
00100000
00010000
10000000
00100000
00010000
00001000
00010000
00100000
01000000
,
00001000
00000000
00011000
00000000
00000010
00000000
00001000
00000000
00000100
00000010
00000001
00000000
00000100
00000010
00000100
00000000
,
00000001
00000011
00000000
00001010
00000000
00011000
00100000
01000000
,
00000000
20100000
30200000
02300000
03200000
20300000
32000000
03020000
,
00030000
00011000
00000000
00001001
00000000
00001000
00010000
10000000
,
00000000
20000000
32000000
03020000
00032000
00003020
00000032
00001003
,
00000000
00002002
00003003
00022000
00033000
10010000
10010000
20020000
,
00000000
30030000
00000000
00000000
00000000
00000000
00000000
00000000
00000000
00000000
00000000
00000000
00000000
00000000
00000000
00000000
00000000
00000000
00000000
00000000
00000000
00000000
00000000
00000000
00000000
00000000
00000000
00000000
00000000
00000000
00000000
00000000
01010000
00000000
00000000
00000000
00000000
00000000
00000000
00000000
00000000
00000000
00000000
00000000
00000000
00000000
00000000
00000000
11000000
00000000
00000000
00000000
00000000
00000000
00000000
00000000
00000000
00000000
00000000
00000000
00000000
00000000
00000000
00000000
,
01000000
00100000
00110000
00000000
00101000
00000000
00010010
00000000
,
00001010
00001000
00000100
00000000
00000011
00000000
00001010
00000000
,
00000001
00000100
00000110
00000000
00001100
00000000
00010100
00000000
,
00011000
00001000
01000000
00000000
00110000
00010000
10000000
00010000
,
01000000
00100000
10000000
02000000
00000000
03020000
00000000
00032000
,
00000000
00013000
00001000
00000100
00000010
00010000
00001000
00000010
,
00000001
00000000
00000010
00000000
00000100
00000000
00010000
00000000
00001000
00000100
00000010
00000000
00001000
00000000
00000001
00000100
,
00000000
00001000
00010000
00000000
00100000
01000000
00010000
00000000
01010000
00000000
01000000
00000000
00100000
00000000
10100000
00000000
,
00000000
10010000
00000000
01001000
00000000
00011000
00000000
00010100
,
00000000
00001000
00000100
00000010
00000011
00000001
00001000
00001100
,
00000000
00001010
00000000
00000011
00000000
00001010
00000000
00010010
,
00000000
00010000
00001000
00100000
00101000
00001000
00010000
00011000
,
00000000
01001000
00000000
00010100
00000000
00011000
00000000
00010100
,
00000000
00000100
00001000
00000001
00001001
00000001
00001000
00001100
,
00000000
00000000
00011000
00000000
00000000
00000000
00001000
00000000
00010000
01000000
00100000
00000000
00010000
00000000
00100000
01000000
,
10000000
00000000
10000000
00000000
00100000
01000000
00100000
01000000
00010000
00000000
00100000
00000000
00101000
00000000
00001000
00000000
,
00010000
00000010
00010010
00010000
00000100
00001000
00001100
00000100
,
00000010
00000000
00000001
00000000
00000011
00000000
00000010
00000000
00000001
00001000
00000010
00001000
00000001
00000000
00001000
00000100
,
00000010
00000000
00000100
00000000
00010000
00001000
00010000
00000000
00000100
00000000
00000010
00000001
00001000
00000000
00000010
00010000
,
00001000
00000000
00100000
00010000
00000000
10000000
00100000
01000000
00010000
01000000
00100000
00000000
10000000
00100000
01000000
00000000
,
00010000
10000000
00000000
10000000
01000000
00000000
10000000
00000000
00100000
00000000
01000000
00100000
00010000
00000000
00001000
00000000
,
00000100
00000010
00001000
00000000
00000100
00000010
00000001
00000000
00001000
00000000
00000001
00000100
00000000
00000010
00001000
00000000
,
00000001
00000000
00000010
00000100
00000000
00001000
00000100
00000000
00010000
00001000
00010000
00000000
00000100
00010000
00001000
00000000
,
00100000
00010000
10000000
00000000
00100000
01000000
00010000
00000000
10000000
00000000
01000000
00000000
11000000
00000000
10000000
00000000
,
00100000
01000000
01010000
00000000
00001000
00010000
00011000
00010000
,
00000010
00000000
00000100
00000000
00000110
00000000
00000000
00000000
00001000
00000100
00000010
00000001
00001000
00000000
00000001
00000100
,
00000010
00000000
00000100
00000000
00001000
00010000
00100000
00000000
01000000
00000000
00010000
10000000
01000000
00000000
00100000
00010000
,
01000000
00000000
00001000
00010000
00000000
01000000
00100000
00000000
00010000
00100000
00000000
01000000
00100000
00000000
00001000
00000000
,
00010000
00001000
00000000
00000100
00000010
00000000
00001000
00000000
00000001
00000000
00000100
00001000
00000100
00000000
00000001
00000000
,
00001000
00000100
00000010
00000001
00000010
00000100
00001000
00000000
00000001
00000000
00000100
00000010
00001000
00000010
00000100
00000000
,
00000001
00000010
00000100
00001000
00000001
00000010
00000100
00000000
00002002
00000000
00000000
00000000
00000000
00000000
00003003
00000000
,
00000001
00000010
00000001
00000010
00000100
00001000
00000100
00001000
00000100
00000000
00000000
00000000
00001000
00000000
00000000
00000000
,
00000001
00000100
00000001
00001000
00000100
00010000
00001000
01000000
00010000
01000000
00001000
00010000
00000100
00001000
00000001
00000100
,
00000001
00001000
00000100
00010000
00001000
01000000
00010000
10000000
00010000
00000000
00100000
00001000
00010000
00000010
00001000
00000010
,
00010000
00000000
00001000
00100000
00010000
00100000
00001000
00010000
00000010
00001000
00000001
00000000
00000010
00000001
00001000
00000000
,
00000001
00000100
00000010
00000000
00010000
00001000
00100000
00000000
00001000
00000000
00010000
00000000
00100000
00000000
01000000
00000000
,
00010000
10000000
01000000
00000000
00100000
00010000
10000000
00000000
00010000
10000000
01000000
10000000
00010000
01000000
00001000
00010000
,
00000100
00001000
00000100
00010000
00001000
01000000
00010000
01000000
00001000
00000000
01000000
00000000
00100000
00000000
00010000
00000000
,
00001000
00000000
00000100
00000000
00000010
00000000
00001000
00000000
00000001
00000010
00000100
00000000
00001000
00000000
00000001
00000100
,
00000010
00000000
00001000
00000000
00000001
00001000
00000010
00001000
00000001
00000010
00000001
00001000
00000010
00010000
00001000
00100000
,
00010000
00100000
00001000
00010000
00000010
00001000
00000010
00010000
00001000
01000000
00010000
01000000
00001000
00010000
00000100
00001000
,
00000100
00010000
00001000
01000000
00010000
01000000
00001000
00010000
00000010
00001000
00000010
00010000
00001000
00100000
00010000
10000000
,
00100000
10000000
00010000
00100000
00010000
10000000
00100000
01000000
00020000
00000000
00000000
00000000
00000000
00000000
00000000
00000000
,
10030000
00100000
01000000
00010000
10000000
01000000
00100000
00010000
10000000
00100000
10000000
00010000
00100000
00001000
00010000
00000010
,
00001000
00000010
00010000
00001000
01000000
00010000
01000000
00001000
00010000
00000100
00001000
00000100
00010000
00001000
00100000
00010000
,
00100000
00001000
00010000
00000010
00010000
00001000
00100000
00010000
10000000
01000000
00100000
00010000
00100000
00001000
00010000
00000100
,
00001000
00000100
00000010
00000001
00001000
00000010
00000100
00000001
00001000
00000100
00010000
00001000
01000000
00010000
10000000
00010000
,
10000000
00100000
01000000
00010000
01000000
00100000
10000000
00010000
01000000
00001000
00010000
00001000
01000000
00010000
01000000
00001000
,
00010000
00000100
00001000
00000100
00000010
00000001
00001000
00000010
00000100
00000001
00000100
00000010
00001000
00000001
00000010
00000100
,
00001000
00000100
00010000
00001000
01000000
00010000
10000000
02000000
00200000
00000000
00000000
00000000
00000000
00000000
00000000
00000000
,
00000000
00000000
00000000
00000000
,
00000000
00000000
03300000
00000000
;
