#VERSION:0.83;
#TITLE:7 Colors;
#ARTIST:kors k feat.吉河順央;
#ARTISTTRANSLIT:kors k feat.Sunao Yoshikawa;
#GENRE:PRISM EURO;
#BANNER:7 Colors.png;
#BACKGROUND:7 Colors-bg.png;
#CDTITLE:./CDTitles/RB colette -Summer-.png;
#MUSIC:7 Colors.ogg;
#SAMPLESTART:53.463;
#SAMPLELENGTH:15;
#BPMS:0=156;
#BGSTAGE:2;

//--------------- dance-single - Fred-104 ----------------
#NOTEDATA:;
#STEPSTYPE:dance-single;
#DESCRIPTION:Fred-104;
#DIFFICULTY:Beginner;
#METER:2;
#CREDIT:Fred-104;
#NOTES:
0000
0000
0000
0000
,
0000
0000
0000
0000
,
0000
0000
0000
0000
,
0000
0000
0000
0000
,
0000
0000
0000
0000
,
0000
0000
0000
0000
,
2000
3000
0000
0000
,
0002
0003
0000
0000
,
2000
3000
0001
0000
,
1000
0000
0000
0000
,
0001
0000
0000
0000
,
0010
0000
0000
0000
,
0100
0000
0000
0000
,
1000
0000
1000
0000
,
0001
0000
0000
0000
,
1000
0000
0000
0000
,
0010
0000
0000
0000
,
0100
0000
0100
0000
,
0001
0000
0000
0000
,
1000
0000
0000
0000
,
0001
0000
0000
0000
,
0010
0000
0010
0000
,
0100
0000
0000
0000
,
0100
0000
0000
0000
,
1000
0000
0001
0000
,
1000
0000
0000
0000
,
0001
0000
0000
0000
,
0010
0000
0010
0000
,
1000
0000
0000
0000
,
0010
0000
0010
0000
,
0001
0000
0001
0000
,
1000
0000
1000
0000
,
0001
0000
1000
0000
,
0001
0000
0001
0000
,
1001
0000
0000
0000
,
1000
0000
1000
0000
,
0100
0000
0100
0000
,
0100
0000
0100
0000
,
0001
0000
0001
0000
,
0001
0000
0100
0000
,
0100
0000
1000
0000
,
1000
0000
0000
0000
,
0001
0000
0000
0000
,
1000
0000
1000
0000
,
0010
0000
0010
0000
,
0001
0000
0001
0000
,
0001
0000
0010
0000
,
0010
0000
0010
0000
,
0010
0000
1000
0000
,
1000
0000
0000
0000
,
0001
0000
0000
0000
,
2002
0000
0000
0000
,
3003
0000
0000
0000
,
1000
0000
0000
0000
,
0010
0000
0000
0000
,
0100
0000
0000
0000
,
0001
0000
0001
0000
,
1000
0000
0000
0000
,
0001
0000
0000
0000
,
0010
0000
0000
0000
,
0100
0000
0100
0000
,
2002
0000
0000
0000
,
0000
0000
0000
3003
;

//--------------- dance-single - Fred-104 ----------------
#NOTEDATA:;
#STEPSTYPE:dance-single;
#DESCRIPTION:Fred-104;
#DIFFICULTY:Easy;
#METER:4;
#CREDIT:Fred-104;
#NOTES:
0000
0000
0000
0000
,
0000
0000
0000
0000
,
0000
0000
0000
0000
,
0000
0000
0000
0000
,
0000
0000
0000
0000
,
0000
0000
0000
0000
,
2000
3000
1000
0000
,
0002
0003
0001
0000
,
0020
0030
0010
0000
,
0110
0000
0000
0000
,
1000
0000
0100
0000
,
0010
0010
0010
0000
,
0001
0000
1000
0000
,
0001
0001
0001
0000
,
0100
0000
0010
0000
,
0100
0100
0100
0000
,
0001
0000
1000
0000
,
0100
0100
0010
0010
,
0100
0000
1000
0000
,
0001
0000
1000
0000
,
0001
0000
0100
0000
,
1000
1000
0100
0000
,
0001
0000
1000
0000
,
0001
0000
0010
0000
,
1000
0010
0001
0000
,
2000
0000
3001
1000
,
0001
0000
0100
0000
,
1000
1000
0100
0000
,
0010
0000
0100
0000
,
0001
1000
0001
0000
,
1000
0000
0010
0000
,
0001
0000
0100
0000
,
1000
0000
0001
0000
,
1000
1000
0001
0001
,
1001
0000
0000
0000
,
0001
0000
0010
0000
,
0100
0000
0100
0100
,
1000
0000
0001
0000
,
0100
0000
0100
0100
,
0010
0000
0001
0000
,
0010
0010
0100
0001
,
2000
0000
3001
0000
,
1000
0001
1001
0000
,
1000
0000
0100
0000
,
0001
0100
0001
0000
,
0100
0000
1000
0000
,
0001
1000
0001
0000
,
1000
0000
0010
0000
,
0001
0010
1000
0001
,
0020
0000
0130
0000
,
0010
0010
0110
0000
,
2002
0000
0000
0000
,
3003
0000
0000
0000
,
0001
0000
0100
0000
,
0010
0010
0010
0000
,
1000
0000
0001
0000
,
1000
1000
1000
0000
,
0100
0000
0010
0000
,
0100
0100
0100
0000
,
1000
0000
0001
0000
,
0100
0100
0010
0010
,
0200
0000
0000
0000
,
0301
0001
1000
1001
;

//--------------- dance-single - Fred-104 ----------------
#NOTEDATA:;
#STEPSTYPE:dance-single;
#DESCRIPTION:Fred-104;
#DIFFICULTY:Medium;
#METER:9;
#CREDIT:Fred-104;
#NOTES:
0000
0000
0000
0000
,
0000
0000
0000
0000
,
0000
0000
0000
0000
,
0000
0000
0000
0000
,
0000
0000
0000
0000
,
0000
0000
0000
0000
,
2000
3000
0100
0000
0010
0001
0010
0000
,
0002
0003
0100
0000
0010
1000
0010
0000
,
2000
3000
0001
0000
0100
0010
0100
0000
,
0001
0000
0000
0001
0000
0000
0001
0000
0000
0000
0000
0000
1001
0000
0000
0000
,
1000
0000
0000
1000
0000
0000
0001
0000
0000
0001
0000
0000
0100
0000
0000
0000
,
0010
0000
1000
0000
0010
0000
0000
0000
0010
0000
0000
0010
0000
0000
0010
0000
,
0100
0000
0000
0001
0000
0000
1000
0000
0000
0100
0000
0000
0010
0000
0000
0000
,
0001
1000
0001
0000
0110
0000
1001
0000
,
0001
0000
0000
0010
0000
0000
0100
0000
0000
1000
0000
0000
0001
0000
0000
0000
,
0001
0000
1000
0000
0010
0000
1000
0000
0010
0000
0000
0010
0000
0000
0010
0000
,
0100
0000
0000
0001
0000
0000
1000
0000
0000
0001
0000
0000
0010
0000
0100
0000
,
1000
0001
0000
0100
0010
0000
1000
0001
,
1000
0100
0010
0010
,
0001
1000
0010
0010
,
0100
0001
1000
0001
,
0010
0100
0010
0000
0001
1000
0001
0000
,
0100
0010
1000
0001
,
0010
1000
0010
0001
,
1000
0010
0001
0000
0010
1000
0001
0000
,
0020
0000
0000
0000
0031
1000
0001
1000
,
0001
0000
0100
0010
0000
0110
0000
1001
,
0000
0000
0000
0000
0001
1000
0010
0100
,
0001
0000
1000
0100
0000
0110
0000
0011
,
0000
0001
1000
0002
0000
0000
0003
0000
,
1000
0100
0010
0001
2000
0000
3000
0000
,
0001
0100
0010
1000
0002
0000
1003
0000
,
0001
0000
0100
0010
0000
0110
0000
1010
,
0000
0001
1000
0000
0001
0010
0100
0000
,
2000
0000
0000
0000
3000
0000
0001
1000
,
0001
0000
1000
0000
0001
0100
0010
0000
,
0100
0100
0001
0000
0010
0000
0100
0000
,
1000
0000
0001
0000
1000
1000
0010
0000
,
0100
0001
0100
0000
0001
0001
1000
0000
,
0001
0000
0010
0000
0100
0100
0010
0000
,
0001
1000
0001
0000
0100
0000
0010
0000
,
0200
0000
0301
1000
,
0001
0000
0000
0001
0000
0000
1001
0000
0000
0000
0000
0000
0110
0000
0000
0000
,
1001
0000
0001
0000
0010
0100
1000
0000
,
0001
1000
0010
0000
0100
0100
0001
0000
,
0010
0000
0001
0000
1000
1000
0001
0000
,
0100
0100
1000
0000
0100
0100
0010
0000
,
1000
0000
0001
0000
1000
0010
0100
0000
,
0100
0001
1000
0000
0100
0000
0010
0000
,
0002
0000
1003
0001
,
0100
0000
0000
0010
0000
0000
0100
0000
0000
0000
0010
0000
0000
0000
0000
0000
,
2002
0000
0000
0000
,
0000
0000
0000
3003
,
0001
0000
0000
0001
0000
0000
1000
0000
0000
1000
0000
0000
0100
0000
0000
0000
,
0010
0000
0001
0000
0010
0000
0001
0000
0010
0000
0000
0010
0000
0000
0010
0000
,
0100
0000
0000
1000
0000
0000
0001
0000
0000
0100
0000
0000
0010
0000
0000
0000
,
1000
0001
1000
0000
0110
0000
1001
0000
,
1000
0000
0000
0010
0000
0000
0100
0000
0000
0001
0000
0000
1000
0000
0000
0000
,
1000
0000
0001
0000
1000
0000
0001
0000
0010
0000
0000
0010
0000
0000
0010
0000
,
0100
0000
0000
1000
0000
0000
0001
0000
0000
1000
0000
0000
0010
0000
0100
0000
,
0001
1000
0000
0100
0010
0000
0001
1000
,
0002
0000
0000
0003
,
1000
0001
1000
1001
;

//--------------- dance-single - Fred-104 ----------------
#NOTEDATA:;
#STEPSTYPE:dance-single;
#DESCRIPTION:Fred-104;
#DIFFICULTY:Hard;
#METER:12;
#CREDIT:Fred-104;
#NOTES:
0000
0000
0000
0000
,
0000
0000
0000
0000
,
0000
0000
0000
0000
,
0000
0000
0000
0000
,
0000
0000
0000
0000
,
0000
0000
0000
0000
,
0002
0013
0100
0000
1000
0001
0100
0010
,
0200
0000
0301
0000
1000
0000
0000
0000
0100
0000
0010
0000
0001
1000
0001
0000
,
0100
0000
0010
1000
0010
0000
0100
0000
0001
1000
0001
0000
1000
0100
1000
0100
,
0010
0000
0000
0010
0000
0000
0010
0000
0000
0000
0000
0000
1001
0000
0000
0000
,
0001
0000
0000
0010
0000
0000
0100
0000
0000
1000
0000
0000
0001
0000
0100
0000
,
0010
1000
0010
1000
0010
0000
0100
0000
0001
0000
0000
0001
0000
0000
0001
0000
,
1000
0000
0000
0100
0000
0000
0010
0000
0000
0100
0000
0000
1000
0000
0001
0000
,
0100
0010
0100
0010
0100
0000
0001
0000
0100
0000
0000
0000
1001
0000
0000
0000
,
0001
0000
0000
0100
0000
0000
0010
0000
0000
1000
0000
0000
0100
0000
0010
0000
,
0100
1000
0100
1000
0100
0000
1000
0000
0001
0000
0000
0100
0000
0000
0010
0000
,
1000
0000
0000
0001
0000
0000
0010
0000
0000
0100
0000
0000
1000
0000
0001
0000
,
0100
0010
0100
0000
0001
0000
1000
0010
1000
0000
0001
0000
1000
0000
0100
0000
,
0010
0000
0001
0000
1000
0000
0001
0010
0000
0000
0010
0000
0100
0000
1000
0000
,
0001
0000
1000
0000
0010
0000
0100
0010
0000
0000
0010
0000
1000
0000
0001
0000
,
0010
0000
0100
0000
1000
0000
0100
0010
0000
0000
0010
0000
0001
0000
0100
0000
,
0000
0100
1000
0000
1000
0100
0010
0100
,
0001
0000
1000
0000
0100
0000
0010
0100
0000
0000
0100
0000
0010
0000
0001
0000
,
1000
0000
0001
0000
0100
0000
0010
1000
0000
0000
1000
0000
0010
0000
0100
0000
,
0001
0000
1000
0000
0100
0000
0010
0001
0010
0000
0001
0000
1000
0001
1000
0000
,
0020
0000
0000
0000
0130
0001
0100
0001
,
1000
0000
0100
0010
0000
1010
0000
0011
,
0000
0000
0001
0000
1000
0000
0010
0100
0010
0000
1000
0000
0001
0000
0010
0000
,
0100
0001
0100
0010
0000
0110
0000
1100
,
0000
0001
0100
1000
0000
1000
0100
0001
,
0010
0000
0100
0000
1000
0000
0001
2000
0000
0000
0000
0000
3000
0000
0001
0000
,
0100
0000
0010
0000
1000
0000
0001
2000
0000
0000
0000
0000
3100
0000
0010
0000
,
0001
1000
0010
0100
0000
1100
0000
0101
,
0000
0000
0001
0000
1000
0000
0100
0000
0010
0000
0001
0000
1000
0001
1000
0001
,
2000
0000
0000
0000
3000
0000
0001
1000
,
1010
0000
0000
0000
1000
0000
0001
0010
0000
0010
0001
0000
0100
0000
0010
0000
,
1000
0000
0001
0000
0010
0000
0100
1000
0000
1000
0001
0000
0100
0000
0010
0000
,
0100
0000
0000
0000
0001
0000
1000
0100
0000
0100
0010
0000
0100
0000
1000
0000
,
0001
0000
0100
0000
0010
0000
0100
0001
0000
0001
0100
0000
0010
0000
1000
0000
,
0001
0000
0000
0000
0010
0000
0100
0010
0000
0010
0001
0000
1000
0000
0001
0000
,
0100
0010
0100
0001
1000
0000
1001
0000
,
0001
0000
1000
0000
0100
0000
0010
0000
0001
0000
0010
0000
0100
1000
0100
1000
,
0001
0000
0000
0100
0000
0000
0110
0000
0000
0000
1000
0001
1000
0000
0000
0000
,
0110
0000
0000
0000
0001
0000
1000
0010
0000
0010
0100
0000
0010
0000
1000
0000
,
0001
0000
0010
0000
0100
0000
1000
0001
0000
0001
0100
0000
0010
0000
1000
0000
,
0001
0000
0000
0000
0010
0000
0100
0010
0000
0010
0001
0000
0100
0000
0010
0000
,
1000
0000
0001
0000
0010
0000
0100
1000
0000
1000
0001
0000
1000
0000
0001
0000
,
0010
0000
0000
0000
0100
0000
1000
0001
0000
0001
0100
0000
0010
0000
0100
0000
,
0001
1000
0100
0010
0100
0000
1001
0000
,
1000
0000
0100
0000
0010
0000
0001
0000
0010
0000
0100
0000
1000
0001
1000
0001
,
0100
0000
0000
0010
0000
0000
0110
0000
0000
0000
0001
0000
1000
0000
0000
0000
,
2002
0000
0000
3003
,
0001
0000
1000
0000
0001
0000
1000
0000
0001
1000
0001
1000
0001
0000
0000
0000
,
1000
0000
0000
0010
0000
0000
0100
0000
0000
0001
0000
0000
1000
0000
0100
0000
,
0010
0001
0010
0001
0010
0000
0100
0000
1000
0000
0000
1000
0000
0000
1000
0000
,
0001
0000
0000
0100
0000
0000
0010
0000
0000
0100
0000
0000
0001
0000
1000
0000
,
0100
0010
0100
0010
0100
0000
1000
0000
0100
0000
0000
0000
1001
0000
0000
0000
,
1000
0000
0000
0100
0000
0000
0010
0000
0000
0001
0000
0000
0100
0000
0010
0000
,
0100
0001
0100
0001
0100
0000
0001
0000
1000
0000
0000
0100
0000
0000
0010
0000
,
0001
0000
0000
1000
0000
0000
0010
0000
0000
0100
0000
0000
0001
0000
0010
0000
,
0100
1000
0100
0000
1000
0000
0001
0010
0001
0000
1000
0000
0001
0000
0100
0000
,
0020
0000
0000
0000
,
0130
0000
0010
0000
0100
0000
0010
0000
0100
0010
0100
0010
0100
0000
0000
0000
;

//--------------- dance-single - Fred-104 ----------------
#NOTEDATA:;
#STEPSTYPE:dance-single;
#DESCRIPTION:Fred-104;
#DIFFICULTY:Challenge;
#METER:16;
#CREDIT:Fred-104;
#NOTES:
0000
0000
0000
0000
,
0000
0000
0000
0000
,
0000
0000
0000
0000
,
0000
0000
0000
0000
,
0000
0000
0000
0000
,
0000
0000
0000
0000
,
0001
0010
0100
0000
1000
0000
0001
0000
1000
0000
0100
0000
0010
0000
0001
0000
,
1000
0010
0100
0000
0001
0000
0100
0000
0010
0000
1000
0000
0001
1000
0001
1000
,
0001
0000
0010
0100
1000
0010
1000
0100
1000
0001
0100
0010
1000
0001
0010
1000
,
0010
0000
0000
0110
0000
0000
0022
0000
0000
0000
0033
0000
1001
0000
0000
0000
,
0110
0000
1000
0100
0000
0100
0010
0000
0010
0001
0000
0001
1000
0000
0001
0000
,
0100
0010
0100
0010
0100
0000
1000
0100
0010
0000
0100
0001
0000
0001
1000
0000
,
1001
0000
0001
0100
0000
0100
0010
0000
0010
1000
0000
1000
0100
0000
0010
0000
,
0001
0100
0001
0100
0010
0000
0001
0000
0020
0000
0000
0000
1030
0001
1000
0001
,
1000
0000
0001
0010
0000
0100
1000
0000
0001
0100
0000
0010
1000
0000
0001
0000
,
0010
0100
0010
0100
0010
0000
1000
0010
0100
0000
0010
0001
0000
1000
0001
0000
,
1001
0000
1000
0100
0000
0100
0001
0000
0001
0100
0000
0100
0010
0000
0001
0000
,
1000
0100
0010
0100
2000
0000
3010
0100
1000
0100
0020
0000
1030
0001
2000
0000
,
3001
0000
0010
0000
0100
0000
1000
0001
1000
0000
0010
0000
1000
0000
0001
0000
,
0010
0000
0100
0000
0010
0000
0001
1000
0001
0000
0100
0010
0000
1000
0001
0000
,
0010
0000
0100
0000
1000
0000
0010
1000
0001
0000
0100
0000
0010
1000
0001
0000
,
0010
0000
0100
0000
1000
0010
0100
0001
2000
0000
3200
0000
0320
0000
0032
0000
,
1003
0000
0001
0000
0100
0000
0010
1000
0001
0000
0010
0000
0100
0010
0100
0010
,
0001
1000
0010
1000
0010
0000
0100
0000
0010
0001
0010
0000
1000
0001
1000
0001
,
0010
0000
0000
0000
0000
0000
0100
0000
0000
0000
0000
0000
1000
0000
0000
0000
0000
0000
0001
0000
0100
0000
0001
0000
0100
0000
0000
0000
0000
0000
0010
0000
0000
1000
0000
0000
0100
0000
0000
0010
0000
0000
0001
0000
0000
1000
0000
0000
,
0002
0000
1000
0000
0000
0000
1003
0000
0001
0100
0020
0000
1030
0001
1000
0001
,
2000
3002
0203
2300
3001
2000
3100
0002
,
0013
0000
0100
0000
1000
0001
1000
0010
0100
0010
1000
0001
0010
0100
1000
0001
,
0200
0010
0302
0010
0203
0320
2030
3002
,
0000
0000
0203
0000
2300
0000
3200
0000
0301
0000
0001
0000
1000
0001
1000
0001
,
1000
0000
0100
0000
0010
0100
1000
0001
0200
0000
1000
0000
0320
0000
1000
0000
,
0130
0000
0001
0000
1000
0100
0010
0001
0020
0000
1000
0000
0032
0000
0100
0000
,
0013
0000
0100
0010
0001
0000
1000
0000
0010
0000
0100
0000
0001
1000
0001
1000
,
0100
0010
0001
1000
0010
0100
0010
1000
0001
0010
0100
1000
0010
0100
0001
1000
,
0002
0000
0000
0000
0003
0000
1000
0100
,
0110
0000
0000
0000
0011
0000
0001
0100
0000
0100
0020
0000
2030
0000
3002
0000
,
0023
0000
2030
0000
3020
0000
0130
0010
0100
0010
0001
0000
0100
0010
1000
0000
,
1001
0000
0000
0000
0110
0000
1000
0001
1000
0010
2000
0000
3002
0000
0023
0000
,
2030
0000
3020
0000
0032
0000
0103
0010
0100
0010
0001
0000
0010
0100
0010
0100
,
0010
0000
0000
0000
1010
0000
1000
0001
1000
0010
0200
0000
2300
0000
3002
0000
,
0023
0000
2030
0000
3001
1000
0100
0010
0001
1000
0001
1000
0020
0000
0130
0000
,
0002
0000
0023
0000
0230
0000
2300
0000
3020
0000
0230
0000
0301
0010
1000
0010
,
0001
0000
0000
0110
0000
0000
1001
0000
0000
0000
0001
1000
0001
1000
0001
0100
,
0020
0000
1030
0000
0002
0000
0013
0100
0000
0100
2000
0000
3001
0100
0020
0000
,
2030
0000
3200
0000
0310
0001
1000
0010
0100
0010
1000
0001
0020
0000
2030
0000
,
3020
0000
0000
0000
0000
0000
0130
0000
0000
0000
0000
0000
1000
0000
0000
0001
0000
0000
1000
0000
0000
0010
0000
0000
0200
0000
0000
0000
0000
0000
0302
0000
0000
0003
0000
0000
2100
0000
0000
0000
0000
0000
3001
0000
1000
0000
0001
0000
,
2000
0000
3200
0000
0320
0000
0031
1000
0010
1000
0010
0100
0010
1000
0100
0010
,
0002
0000
1003
0000
0020
0000
0130
0001
0000
0001
0200
0000
1300
0100
0020
0000
,
2030
0000
3200
0000
0310
0001
1000
0010
1000
0100
0010
0001
2000
0000
3010
0000
,
0200
0000
0302
0000
0023
0000
0230
0000
2300
0000
3002
0000
1003
0100
0001
0100
,
1000
0000
0000
1010
0000
0000
0101
0000
0000
0000
0110
0000
0001
1000
0001
1000
,
0002
0000
0000
0000
,
1003
0100
1000
0100
0010
0001
0010
0001
1000
0100
0001
0100
1000
0000
0000
0000
,
1001
0000
0001
0100
0000
0100
0010
0000
0010
1000
0000
1000
0001
0000
1000
0000
,
0100
0010
0100
0010
1000
0000
0001
0100
0010
0000
0100
1000
0000
1000
0001
0000
,
1001
0000
1000
0100
0000
0100
0010
0000
0010
0001
0000
0001
0100
0000
0010
0000
,
1000
0100
1000
0100
0001
0000
1000
0000
0020
0000
0000
0000
0031
1000
0001
1000
,
0001
0000
1000
0010
0000
0100
0001
0000
1000
0100
0000
0010
0001
0000
1000
0000
,
0010
0100
0010
0100
1000
0000
0001
0010
0100
0000
0010
1000
0000
0001
1000
0000
,
1001
0000
0001
0100
0000
0100
1000
0000
1000
0100
0000
0100
0010
0000
1000
0000
,
0001
0100
0010
0100
0002
0000
0013
1000
0001
1000
0020
0000
0031
1000
0001
1000
,
0002
0000
0000
0000
0000
0000
0000
0000
0000
0000
0000
0000
0000
0000
1003
0001
,
1000
0000
0100
0000
0010
0000
0001
0000
1000
0001
0100
0010
1001
0000
0000
0000
;

//--------------- dance-double - Fred-104 ----------------
#NOTEDATA:;
#STEPSTYPE:dance-double;
#DESCRIPTION:Fred-104;
#DIFFICULTY:Easy;
#METER:4;
#CREDIT:Fred-104;
#NOTES:
00000000
00000000
00000000
00000000
,
00000000
00000000
00000000
00000000
,
00000000
00000000
00000000
00000000
,
00000000
00000000
00000000
00000000
,
00000000
00000000
00000000
00000000
,
00000000
00000000
00000000
00000000
,
00002000
00003000
00010000
00000000
,
00000020
00000030
00001000
00000000
,
00000002
00000013
00000100
00010000
,
00011000
00000000
00000000
00000000
,
00010000
00000000
00001000
00000000
,
00000100
00000100
00000001
00001000
,
00000100
00000000
00000010
00000000
,
00000001
00000001
00001000
00000001
,
00000100
00000000
00000010
00000000
,
00010000
00010000
00001000
00100000
,
00010000
00000000
10000000
00000000
,
00010000
00100000
01000000
10000000
,
00010000
00000000
10000000
00000000
,
00100000
00010000
00100000
00000000
,
00010000
00000000
00001000
00000000
,
00010000
00000100
00010000
00000000
,
00001000
00000000
00010000
00000000
,
00000010
00001000
00000010
00000000
,
00000100
00000001
00001000
00000100
,
00020000
00000000
00031000
00001000
,
00010000
00000000
00001000
00000000
,
00000100
00000100
00000001
00000000
,
00001000
00000000
00000001
00000000
,
00000010
00000010
00001000
00010000
,
00011000
00000000
00001000
00000000
,
01000000
00000000
00010000
00000000
,
10000000
10000000
01000000
00010000
,
00001000
00001000
00000100
00000001
,
00001001
00000000
00000000
00000000
,
00001000
00000000
00000100
00000000
,
00000010
00000010
00000001
00000000
,
00001000
00000000
00000010
00000000
,
00001000
00000010
00010000
00000000
,
00001000
00000000
00100000
00000000
,
00010000
10000000
00010000
10000000
,
02000000
03000000
00100000
00000000
,
00001000
00010000
00011000
00000000
,
00010000
00000000
00000100
00000000
,
00010000
00001000
00010000
00000000
,
00001000
00000000
01000000
00000000
,
00100000
10000000
00100000
00000000
,
01000000
00000000
00001000
00000000
,
00010000
00000100
00000010
00000001
,
00002000
00000000
00003001
00000100
,
00001000
00001000
00010000
00000000
,
00022000
00000000
00000000
00000000
,
00033000
00000000
00000000
00000000
,
00001000
00000000
00010000
00000000
,
01000000
01000000
10000000
00010000
,
01000000
00000000
00100000
00000000
,
10000000
10000000
00010000
10000000
,
01000000
00000000
00100000
00000000
,
00001000
00001000
00010000
00000010
,
00001000
00000000
00000001
00000000
,
00001000
00000010
00000100
00000001
,
00002000
00000000
00000000
00003000
,
00002002
00000000
00000000
00003003
;

//--------------- dance-double - Fred-104 ----------------
#NOTEDATA:;
#STEPSTYPE:dance-double;
#DESCRIPTION:Fred-104;
#DIFFICULTY:Medium;
#METER:9;
#CREDIT:Fred-104;
#NOTES:
00000000
00000000
00000000
00000000
,
00000000
00000000
00000000
00000000
,
00000000
00000000
00000000
00000000
,
00000000
00000000
00000000
00000000
,
00000000
00000000
00000000
00000000
,
00000000
00000000
00000000
00000000
,
00002000
00003000
00010000
00000000
00100000
00000000
10000000
00000000
,
00020000
00030000
00100000
00000000
01000000
00000000
00010000
00000000
,
00002000
00003000
00000010
00000000
00000100
00001000
00000010
00000000
,
00010000
00000000
00000000
00001000
00000000
00000000
01000000
00000000
00000000
00000000
00000000
00000000
10010000
00000000
00000000
00000000
,
00010000
00000000
00000000
10000000
00000000
00000000
01000000
00000000
00000000
00100000
00000000
00000000
00010000
00000000
00000000
00000000
,
00100000
00000000
00001000
00000000
00010000
00000000
00000000
00000000
00000010
00000000
00000000
00000010
00000000
00000000
00000010
00000000
,
00001000
00000000
00000000
00000001
00000000
00000000
00000010
00000000
00000000
00000100
00000000
00000000
00000010
00000000
00000000
00000000
,
00000001
00001000
00000010
00000000
00000100
00001000
00010000
00000000
,
00001000
00000000
00000000
00010000
00000000
00000000
00000010
00000000
00000000
00010000
00000000
00000000
00001000
00000000
00000000
00000000
,
00100000
00000000
00010000
00000000
10000000
00000000
00000000
00000000
00100000
00000000
00000000
00100000
00000000
00000000
00100000
00000000
,
10000000
00000000
00000000
00010000
00000000
00000000
00100000
00000000
00000000
01000000
00000000
00000000
00010000
00000000
00000000
00000000
,
00001000
00010000
00000000
00000010
00001000
00000000
00000100
00010000
,
00001000
00000000
00010000
00000000
00001000
00010000
00001000
00000000
,
00100000
00000000
00010000
00000000
10000000
00100000
01000000
00000000
,
00100000
00000000
00010000
00000000
00001000
00010000
00000010
00000000
,
00001000
00000001
00000100
00000000
00001000
00000100
00000001
00000000
,
00000010
00000000
00000100
00000000
00001000
00000100
00010000
00000000
,
00001000
00000000
01000000
00000000
00010000
00100000
01000000
00000000
,
10000000
00010000
01000000
00000000
00100000
00010000
00001000
00000000
,
00020000
00000000
00000000
00000000
00031000
00010000
00001000
00010000
,
00001000
00000000
00010000
00000100
00000000
00000110
00000000
00000011
,
00000000
00000000
00000000
00000000
00000001
00001000
00000001
00000100
,
00000010
00000000
00000100
00001000
00000000
00011000
00000000
00101000
,
00000000
00100000
00010000
10000000
00000000
00100000
01000000
00000000
,
00010000
01000000
00010000
01000000
00200000
00000000
01300000
00000000
,
00010000
10000000
00010000
10000000
02000000
00000000
03100000
00000000
,
00001000
00000000
00010000
00000010
00000000
00001000
00000000
00000001
,
00000010
00000000
00000100
00000000
00001000
00000100
00010000
00000000
,
00022000
00000000
00033000
00000000
,
00001000
00000000
00100000
00000000
00010000
10000000
00100000
00000000
,
01000000
00100000
00010000
00100000
00010000
00000000
00001000
00000000
,
00010000
00000000
00000010
00000000
00001000
00000010
00000100
00000000
,
00000010
00001000
00000001
00000000
00000010
00000000
00000100
00000000
,
00010000
00000000
00001000
00000000
00010000
00000010
00001000
00000000
,
00000100
00010000
00001000
00000000
00010000
00000000
00001000
00000000
,
02000000
00000000
00000000
00000000
03010000
10000000
00010000
00000000
,
01000000
00000000
00000000
00100000
00000000
00000000
01100000
00000000
00000000
00000000
00000000
00000000
10010000
00000000
00000000
00000000
,
10000000
00000000
01000000
00000000
00010000
00001000
00010000
00000000
,
00000010
00000000
00001000
00000000
00000010
00000100
00000010
00000000
,
00001000
00000000
00000001
00000000
00000010
00000100
00001000
00000000
,
00000010
00000000
00010000
00000000
00001000
00100000
00010000
00000000
,
10000000
00000000
00010000
00000000
01000000
00100000
00010000
00000000
,
00001000
00000100
00000010
00000000
00001000
00000000
00000001
00000000
,
00000020
00000000
00000130
00010000
,
00001000
00000000
00000000
00010000
00000000
00000000
00001000
00000000
00000000
00000000
00000100
00000000
00000010
00000000
00000000
00000000
,
00002002
00000000
00000000
00000000
,
00000000
00000000
00000000
00003003
,
00001000
00000000
00000000
00000001
00000000
00000000
00000100
00000000
00000000
00000010
00000000
00000000
00001000
00000000
00000000
00000000
,
00000010
00000000
00010000
00000000
00001000
00000000
00000000
00000000
00100000
00000000
00000000
00100000
00000000
00000000
00100000
00000000
,
00010000
00000000
00000000
10000000
00000000
00000000
00100000
00000000
00000000
01000000
00000000
00000000
00100000
00000000
00000000
00000000
,
10000000
00010000
00100000
00000000
01000000
00010000
00001000
00000000
,
00010000
00000000
00000000
00001000
00000000
00000000
00100000
00000000
00000000
00001000
00000000
00000000
00010000
00000000
00000000
00000000
,
00000010
00000000
00001000
00000000
00000001
00000000
00000000
00000000
00000010
00000000
00000000
00000010
00000000
00000000
00000010
00000000
,
00000001
00000000
00000000
00001000
00000000
00000000
00000010
00000000
00000000
00000100
00000000
00000000
00001000
00000000
00000000
00000000
,
00010000
00001000
00000000
00100000
00010000
00000000
01000000
00001000
,
00020000
00000000
00000000
00030000
,
00001000
00010000
00001000
00010000
00001000
00010000
00001000
00000000
;

//--------------- dance-double - Fred-104 ----------------
#NOTEDATA:;
#STEPSTYPE:dance-double;
#DESCRIPTION:Fred-104;
#DIFFICULTY:Hard;
#METER:12;
#CREDIT:Fred-104;
#NOTES:
00000000
00000000
00000000
00000000
,
00000000
00000000
00000000
00000000
,
00000000
00000000
00000000
00000000
,
00000000
00000000
00000000
00000000
,
00000000
00000000
00000000
00000000
,
00000000
00000000
00000000
00000000
,
00020000
00000000
00031000
00010000
00000010
00010000
00001000
00010000
,
00200000
00000000
00000000
00000000
01300000
00000000
00010000
00000000
10000000
00000000
01000000
00000000
00010000
00001000
00010000
00000000
,
00001000
00010000
00000100
00000010
00000100
00001000
00000010
00000100
,
00000001
00000000
00000000
00000001
00000000
00000000
00000001
00000000
00000000
00000000
00000000
00000000
00001001
00000000
00000000
00000000
,
00000001
00000000
00000000
00000010
00000000
00000000
00001000
00000000
00000000
00010000
00000000
00000000
00001000
00000000
00100000
00000000
,
00010000
10000000
00010000
10000000
00010000
00000000
01000000
00000000
00100000
00000000
00000000
00100000
00000000
00000000
00100000
00000000
,
10000000
00000000
00000000
01000000
00000000
00000000
00010000
00000000
00000000
00001000
00000000
00000000
00010000
00000000
00000100
00000000
,
00000010
00000001
00000010
00000000
00000001
00000000
00001000
00000000
00000010
00000000
00010000
00000000
00001000
00000000
00010000
00000000
,
00001000
00000000
00000000
00010000
00000000
00000000
01000000
00000000
00000000
10000000
00000000
00000000
00010000
00000000
10000000
00000000
,
00100000
01000000
00100000
01000000
00100000
00000000
10000000
00000000
01000000
00000000
00000000
01000000
00000000
00000000
01000000
00000000
,
00010000
00000000
00000000
00001000
00000000
00000000
00010000
00000000
00000000
00000010
00000000
00000000
00001000
00000000
00000100
00000000
,
00000010
00000001
00000010
00000000
00000001
00000000
00001000
00000010
00001000
00000000
00000010
00000000
00000100
00000000
00001000
00000000
,
00010000
00000000
00001000
00000000
01000000
00000000
00010000
10000000
00000000
10000000
00010000
00000000
01000000
00000000
00100000
00000000
,
10000000
00000000
00010000
00000000
00100000
00000000
01000000
00100000
00000000
00100000
00010000
00000000
00100000
00000000
00001000
00000000
,
00010000
00000000
00000010
00000000
00001000
00000000
00000001
00001000
00000000
00001000
00000001
00000000
00000010
00000000
00000100
00000000
,
00000010
00001000
00010000
00000000
00011000
00000000
01001000
00000000
,
00001000
00000000
00010000
00000000
00000100
00000000
00000010
00000001
00000000
00000001
00001000
00000000
00000001
00000000
00000100
00000000
,
00001000
00000000
00010000
00000000
00001000
00000000
00100000
00001000
00000000
00001000
00010000
00000000
00001000
00000000
00000100
00000000
,
00000010
00000000
00001000
00000000
00000001
00000000
00000010
00000100
00000010
00000000
00000100
00000000
00010000
00001000
00010000
00001000
,
02000000
00000000
00000000
00000000
03100000
01000000
00100000
01000000
,
00010000
00000000
10000000
01000000
00000000
01010000
00000000
00011000
,
00000000
00000000
00010000
00000000
00001000
00000000
00000100
00000010
00000100
00000000
00000001
00000000
00001000
00000000
00000100
00000000
,
00000010
00000001
00001000
00000010
00000000
00000110
00000000
00001100
,
00000000
00001000
00010000
00001000
00000000
00001000
01000000
00010000
,
10000000
00000000
01000000
00000000
00100000
00000000
00001000
00020000
00000000
00000000
00000000
00000000
00030000
00000000
00001000
00000000
,
00010000
00000000
00000010
00000000
00001000
00000000
00000100
00000020
00000000
00000000
00000000
00000000
00000031
00000000
00001000
00000000
,
00000001
00000100
00000010
00001000
00000001
00000100
00000010
00001000
,
00000001
00000010
00000100
00001000
00010000
00100000
01000000
10000000
,
00020000
00000000
00000000
00000000
00030000
00000000
10000000
00010000
,
01010000
00000000
00000000
00000000
00010000
00000000
10000000
01000000
00000000
01000000
00100000
00000000
00001000
00000000
00010000
00000000
,
00000100
00000000
00000010
00000000
00000001
00000000
00001000
00000001
00000000
00000001
00000100
00000000
00001000
00000000
00010000
00000000
,
00001000
00000000
00000000
00000000
00010000
00000000
00000010
00001000
00000000
00001000
00000010
00000000
00010000
00000000
00001000
00000000
,
00010000
00000000
01000000
00000000
00100000
00000000
00010000
10000000
00000000
10000000
00100000
00000000
00010000
00000000
00001000
00000000
,
00010000
00000000
00000000
00000000
00001000
00000000
00010000
00000100
00000000
00000100
00001000
00000000
00000001
00000000
00001000
00000000
,
00000010
00000100
00001000
00010000
00100000
00000000
10100000
00000000
,
00010000
10000000
01000000
00100000
00010000
00001000
00000100
00000010
,
00000001
00000000
00000000
00001000
00000000
00000000
00001001
00000000
00000000
00000000
00000010
00000100
00000010
00000000
00000000
00000000
,
00001001
00000000
00000000
00000000
00001000
00000000
00000001
00000100
00000000
00000100
00000010
00000000
00001000
00000000
00000001
00000000
,
00000010
00000000
00000100
00000000
00010000
00000000
00001000
01000000
00000000
01000000
00010000
00000000
00100000
00000000
01000000
00000000
,
10000000
00000000
00000000
00000000
00010000
00000000
01000000
00100000
00000000
00100000
00010000
00000000
00001000
00000000
00010000
00000000
,
00000010
00000000
00001000
00000000
00000100
00000000
00010000
00001000
00000000
00001000
00100000
00000000
00010000
10000000
00010000
10000000
,
00010000
00000000
00000000
00000000
01000000
00000000
00100000
10000000
00000000
10000000
00010000
00000000
00100000
00000000
01000000
00000000
,
00010000
00001000
00000010
00000100
00001000
00000000
00001001
00000000
,
00000001
00000000
00001000
00000000
00000010
00000000
00000100
00000000
00001000
00000000
00010000
00000000
00001000
00100000
00001000
00100000
,
00001000
00000000
00000000
00010000
00000000
00000000
00011000
00000000
00000000
00000000
01000000
00000000
01000000
00000000
00000000
00000000
,
20020000
00000000
00000000
30030000
,
00010000
00000000
10000000
00000000
00010000
00000000
10000000
00000000
00010000
10000000
00010000
10000000
00010000
00000000
00000000
00000000
,
10000000
00000000
00000000
00100000
00000000
00000000
00010000
00000000
00000000
00001000
00000000
00000000
00010000
00000000
00000010
00000000
,
00001000
00000001
00001000
00000001
00001000
00000000
00000100
00000000
00000010
00000000
00000000
00000010
00000000
00000000
00000010
00000000
,
00000001
00000000
00000000
00000100
00000000
00000000
00001000
00000000
00000000
00010000
00000000
00000000
00001000
00000000
01000000
00000000
,
00100000
10000000
00100000
00000000
10000000
00000000
00010000
00000000
00100000
00000000
01000000
00000000
00010000
00000000
00001000
00000000
,
00010000
00000000
00000000
00001000
00000000
00000000
00000100
00000000
00000000
00000001
00000000
00000000
00001000
00000000
00000001
00000000
,
00000010
00000100
00000010
00000100
00000010
00000000
00000001
00000000
00000100
00000000
00000000
00000100
00000000
00000000
00000100
00000000
,
00001000
00000000
00000000
00010000
00000000
00000000
00001000
00000000
00000000
00100000
00000000
00000000
00010000
00000000
01000000
00000000
,
00100000
10000000
00100000
00000000
10000000
00000000
00010000
00100000
00010000
00000000
00100000
00000000
01000000
00000000
00010000
00000000
,
00002000
00000000
00000000
00000000
,
00013000
00000000
00010000
00000000
00001000
00000000
00001000
00000000
00010000
00001000
00010000
00001000
00010000
00000000
00000000
00000000
;

//--------------- dance-double - Fred-104 ----------------
#NOTEDATA:;
#STEPSTYPE:dance-double;
#DESCRIPTION:Fred-104;
#DIFFICULTY:Challenge;
#METER:16;
#CREDIT:Fred-104;
#NOTES:
00000000
00000000
00000000
00000000
,
00000000
00000000
00000000
00000000
,
00000000
00000000
00000000
00000000
,
00000000
00000000
00000000
00000000
,
00000000
00000000
00000000
00000000
,
00000000
00000000
00000000
00000000
,
00020000
00000000
00030100
00000000
00000010
00000000
00000100
00000000
00000001
00000000
00000100
00000000
00001000
00000000
00000010
00010000
,
00002000
00000000
00013000
00000000
00100000
00000000
01000000
00000000
00010000
00000000
10000000
00000000
01000000
00100000
00001000
00010000
,
00002000
00000000
00013000
00000100
00001000
00000001
00001000
00000010
00000100
00000001
00001000
00000001
00000010
00000100
00001000
00000100
,
00010000
00000000
00000000
00001000
00000000
00000000
00022000
00000000
00000000
00000000
00033000
00000000
00011000
00000000
00000000
00000000
,
00011000
00000000
00010000
00100000
00000000
00100000
10000000
00000000
10000000
01000000
00000000
01000000
00010000
00000000
00001000
00000000
,
00010000
00001000
00000010
00000100
00001000
00000000
00000001
00000100
00000010
00000000
00000001
00000010
00000000
00000100
00000010
00000000
,
00001010
00000000
00001000
00000001
00000000
00000001
00000010
00000000
00000010
00001000
00000000
00001000
00010000
00000000
00001000
00000000
,
00100000
01000000
00100000
01000000
00100000
00000000
10000000
00000000
00200000
00000000
00000000
00000000
00310000
10000000
00100000
01000000
,
00010000
00000000
10000000
01000000
00000000
01000000
00010000
00000000
00010000
00001000
00000000
00001000
00000010
00000000
00001000
00000000
,
00010000
00001000
00000100
00001000
00010000
00000000
00001000
01000000
00100000
00000000
00010000
00100000
00000000
01000000
00100000
00000000
,
10100000
00000000
10000000
01000000
00000000
01000000
00010000
00000000
00010000
00001000
00000000
00001000
00000010
00000000
00000001
00000000
,
00001000
00000001
00000010
00000100
00002000
00000000
00003010
00000100
00001000
00010000
00200000
00000000
01300000
00010000
00100000
01000000
,
10000000
00000000
00010000
00000000
01000000
00000000
00100000
10000000
01000000
00000000
00100000
00000000
00001000
00000000
00010000
00000000
,
00000100
00000000
00000010
00000000
00000100
00000000
00001000
00000010
00000100
00000000
00000000
00001000
00000000
00000000
00010000
00000000
,
00001000
00000000
00010000
00000000
00000010
00000000
00001000
00000100
00000010
00000000
00000001
00000000
00000100
00000010
00001000
00000000
,
00000001
00000000
00000010
00000000
00000100
00001000
00000010
00001000
00000002
00000000
00000203
00000000
00002300
00000000
00023000
00000000
,
00031000
00000000
00100000
00000000
01000000
00000000
00100000
00010000
10000000
00000000
00100000
00000000
01000000
00001000
01000000
00001000
,
00010000
00001000
00010000
00001000
00000100
00000000
00000010
00000000
00000100
00001000
00010000
00000000
00001000
00100000
00010000
01000000
,
00010000
00000000
00000000
00000000
00000000
00000000
00100000
00000000
00000000
00000000
00000000
00000000
01000000
00000000
00000000
00000000
00000000
00000000
10000000
00000000
00010000
00000000
10000000
00000000
00010000
00000000
00000000
00000000
00000000
00000000
01000000
00000000
00000000
00010000
00000000
00000000
00100000
00000000
00000000
00001000
00000000
00000000
00100000
00000000
00000000
00001000
00000000
00000000
,
00020000
00000000
00001000
00000000
00000000
00000000
00031000
00000000
00020000
00000000
00032000
00000000
00003010
00000100
00000010
00000001
,
00002000
00003020
00000230
00002300
00013000
00200000
01300000
00020000
,
10030000
00000000
00010000
00000000
00100000
01000000
00100000
01000000
00010000
00001000
00010000
00001000
00010000
00000010
00010000
00000010
,
00020000
00001000
00030200
00001000
00020300
00032000
00003200
00000302
,
00000000
00000000
00002003
00000000
00003002
00000000
00000023
00000000
00001030
00000000
00001000
00000000
00010000
00001000
00100000
00010000
,
00100000
00000000
01000000
00000000
10000000
00010000
01000000
00100000
02000000
00000000
00010000
00000000
03002000
00000000
00010000
00000000
,
00013000
00000000
00000100
00000000
00000010
00000001
00000100
00000010
00002000
00000000
00000010
00000000
00003020
00000000
00010000
00000000
,
00010030
00000000
00001000
00100000
00001000
00000000
00010000
00000000
00000100
00000000
00001000
00000000
00000001
00000100
00000010
00001000
,
00000001
00001000
00000001
00001000
00000100
00010000
00000100
00010000
00001000
00100000
00010000
10000000
00100000
01000000
00010000
00100000
,
00002000
00000000
00000000
00000000
00003000
00000000
00010000
00010000
,
00011000
00000000
00000000
00000000
00010010
00000000
00000010
00001000
00000000
00001000
00000200
00000000
00000302
00000000
00000203
00000000
,
00000320
00000000
00000032
00000000
00002003
00000000
00003010
00000100
00000010
00000100
00001000
00000000
00020000
00000000
00031000
00000000
,
01001000
00000000
00000000
00000000
10010000
00000000
00010000
00100000
01000000
00100000
20000000
00000000
30200000
00000000
00320000
00000000
,
20030000
00000000
30200000
00000000
00320000
00000000
00031000
00010000
00001000
00010000
00001000
00000000
00000100
00000001
00000010
00000100
,
00001000
00000000
00000000
00000000
00001001
00000000
00000001
00001000
00000010
00000100
00002000
00000000
00023000
00000000
00032000
00000000
,
00203000
00000000
02300000
00000000
03100000
00010000
10000000
00100000
01000000
00100000
00010000
00001000
00010000
00000000
00000010
00000000
,
00020000
00000000
00032000
00000000
00003020
00000000
00000032
00000000
00000203
00000000
00002300
00000000
00013000
00001000
00010000
00001000
,
00010000
00000000
00000000
00010010
00000000
00000000
01001000
00000000
00000000
00000000
01000000
00100000
10000000
00010000
01000000
00001000
,
00010000
00000000
00000000
00000000
00021000
00000000
00031000
00010000
00000000
00010000
00200000
00000000
10300000
00010000
00200000
00000000
,
02300000
00000000
23000000
00000000
30100000
01000000
00100000
01000000
00001000
00010000
00000100
00010000
00002000
00000000
00023000
00000000
,
00030020
00000000
00000000
00000000
00000000
00000000
00000130
00000000
00000000
00000000
00000000
00000000
00001000
00000000
00000000
00000100
00000000
00000000
00001000
00000000
00000000
00000100
00000000
00000000
00000020
00000000
00000000
00000000
00000000
00000000
00002030
00000000
00000000
00003000
00000000
00000000
00001002
00000000
00000000
00000000
00000000
00000000
00001003
00000000
00000001
00000000
00001000
00000000
,
00000002
00000000
00000203
00000000
00002300
00000000
00013000
00001000
00100000
00001000
00010000
00001000
01000000
00010000
00100000
01000000
,
20000000
00000000
30010000
00000000
02000000
00000000
03100000
00010000
00000000
00010000
00002000
00000000
00003100
00000010
00002000
00000000
,
00003200
00000000
00000320
00000000
00000031
00001000
00000010
00000100
00001000
00010000
00001000
00100000
00020000
00000000
01030000
00000000
,
00200000
00000000
20300000
00000000
32000000
00000000
03020000
00000000
00032000
00000000
00003020
00000000
00000031
00000100
00000010
00001000
,
00000001
00000000
00000000
00000011
00000000
00000000
00001010
00000000
00000000
00000000
00011000
00000000
00010000
00001000
00010000
00001000
,
00020000
00000000
00000000
00000000
,
00031000
00010000
00001000
01000000
00001000
00010000
00001000
01000000
00001000
00010000
00100000
00010000
00001000
00000000
00000000
00000000
,
00011000
00000000
00001000
00000010
00000000
00000010
00000001
00000000
00000001
00000100
00000000
00000100
00001000
00000000
00010000
00000000
,
00001000
00010000
00100000
01000000
00010000
00000000
10000000
01000000
00100000
00000000
10000000
00010000
00000000
01000000
00100000
00000000
,
00110000
00000000
00010000
10000000
00000000
10000000
00100000
00000000
00100000
00010000
00000000
00010000
00001000
00000000
00010000
00000000
,
00000010
00000100
00000010
00000100
00001000
00000000
00000001
00000000
00000020
00000000
00000000
00000000
00001030
00000001
00000010
00000100
,
00001000
00000000
00000001
00000100
00000000
00000100
00001000
00000000
00001000
00010000
00000000
00010000
00100000
00000000
00010000
00000000
,
00001000
00010000
01000000
00010000
00001000
00000000
00010000
00000100
00000010
00000000
00001000
00000001
00000000
00000100
00000010
00000000
,
00000011
00000000
00000001
00000100
00000000
00000100
00001000
00000000
00001000
00010000
00000000
00010000
00100000
00000000
10000000
00000000
,
00010000
10000000
00100000
01000000
00020000
00000000
00130000
01000000
00010000
00001000
00000020
00000000
00000130
00001000
00000010
00000100
,
00000002
00000000
00000000
00000000
00000000
00000000
00000000
00000000
00000000
00000000
00000000
00000000
00000000
00000000
00001003
00000001
,
00000010
00000000
00001000
00000000
00010000
00000000
01000000
00000000
10000000
00010000
10000000
00010000
10010000
00000000
00000000
00000000
;
