#TITLE:-65℃;
#ARTIST:BEMANI Sound Team "D.J.Amuro";
#TITLETRANSLIT:65C;
#ARTISTTRANSLIT:D.J.Amuro;
#GENRE:WHITE OUT;
#BANNER:65C.png;
#BACKGROUND:65C-bg.png;
#CDTITLE:./CDTitles/bm IIDX 28 BISTROVER.png;
#MUSIC:65C.ogg;
#SAMPLESTART:94.190;
#SAMPLELENGTH:15;
#BPMS:0=186;

//--------------- dance-single - Fred-104 ----------------
#NOTES:
     dance-single:
     Fred-104:
     Beginner:
     4:
     :
0000
0000
0000
0000
,
0000
0000
0000
0000
,
0000
0000
0000
0000
,
0001
0000
0000
0000
,
0000
0000
0000
0000
,
0001
0000
0000
0000
,
0000
0000
0000
0000
,
0001
0000
0000
0000
,
0000
0000
0000
0000
,
2000
0000
0000
3000
,
0001
0000
0000
0000
,
0200
0000
0000
0300
,
0100
0000
0000
0000
,
0001
0000
0000
0000
,
1000
0000
0000
0000
,
0001
0000
0000
0000
,
1001
0000
0000
0000
,
1000
0000
0001
0000
,
1000
0000
0000
0000
,
0001
0000
0001
0000
,
0100
0000
0000
0000
,
1000
0000
0010
0000
,
0010
0000
0000
0000
,
0001
0000
0001
0000
,
1000
0000
0100
0000
,
1000
0000
0000
0000
,
0001
0000
0100
0000
,
0001
0000
0000
0000
,
1000
0000
0010
0000
,
1000
0000
0000
0000
,
0001
0000
1000
0000
,
0001
0000
1000
0000
,
0010
0000
1000
0000
,
2002
0000
0000
3003
0000
0000
0000
0000
,
0220
0000
0000
0330
0000
0000
0000
0000
,
2002
0000
0000
0000
0000
0000
0000
3003
,
0000
0000
0000
0000
,
1000
0000
0001
0000
,
0010
0000
0100
0000
,
1000
0000
0001
0000
,
1000
0000
0001
0000
,
0100
0000
0010
0000
,
0100
0000
0001
0000
,
1000
0000
0100
0000
,
0010
0000
0001
0000
,
1000
0000
0100
0000
,
0001
0000
0010
0000
,
0100
0000
0010
0000
,
1000
0000
0000
0000
,
0001
0000
0001
0000
,
0010
0000
0010
0000
,
0100
0000
0100
0000
,
1000
0000
1000
0000
,
0001
0001
0001
0000
,
0100
0100
0100
0000
,
0010
0010
0010
0000
,
1000
1000
1000
1000
,
1001
0000
0000
0000
,
0000
0000
0000
0000
,
0000
0000
0000
0000
,
0000
0000
0000
0000
,
0000
0000
0000
0000
,
0000
0000
0000
0000
,
0000
0000
0000
0000
,
0000
0000
0000
0000
,
1000
0000
0100
0000
,
0010
0000
0001
0000
,
0200
0000
0000
0300
,
0200
0000
0000
0300
,
0010
0000
0100
0000
,
0010
0000
1000
0000
,
0001
0001
0001
0001
,
1001
0000
0000
0000
,
1000
0000
0001
0000
,
1000
0000
0010
0000
,
1000
0000
1000
0000
,
0001
0000
1000
0000
,
1000
0000
0001
0000
,
1000
0000
0001
0000
,
0010
0000
0010
0000
,
0100
0100
0100
0010
,
0010
0000
0100
0000
,
0100
0000
1000
0001
,
1000
0000
0001
0000
,
1000
0000
0001
1000
,
0001
0000
1000
0000
,
0001
0000
0010
0100
,
0010
0000
0010
0001
,
0001
0000
1000
0010
,
1000
0000
0001
0000
,
1000
1000
1000
1000
,
2002
0000
0000
0000
,
0000
0000
0000
0000
,
3003
0000
0000
0000
;

//--------------- dance-single - Fred-104 ----------------
#NOTES:
     dance-single:
     Fred-104:
     Easy:
     9:
     :
0000
0000
0000
0000
,
0000
0000
0000
0000
,
0000
0000
0000
0000
,
0000
0000
0000
0000
,
0000
0000
0000
0000
,
0000
0000
0000
0000
,
0000
0000
0000
0000
,
0000
0000
0000
0000
,
0000
0000
0000
0000
,
1000
0000
0001
0000
,
1000
0100
0010
0001
,
1000
0000
0000
0100
0000
0000
0001
0000
,
0000
0010
0000
0000
0100
0000
0010
0000
,
1000
0000
0000
0001
0000
0000
0010
0000
,
0000
0100
0000
0000
1000
0000
0001
0000
,
1000
0100
1000
0000
0001
0100
0001
0000
,
1000
0000
1000
0000
1000
0001
1000
0000
,
1001
0000
0001
1000
0000
0100
1000
0000
,
0001
0000
0100
0010
0000
0100
0010
0000
,
1000
0000
0001
1000
0000
0010
1000
0000
,
0001
0000
1000
0001
0000
1000
0001
0000
,
0100
0000
0001
0100
0000
0010
0100
0000
,
0001
0000
1000
0100
0000
0010
0100
0000
,
0020
0000
0031
1000
,
0002
0000
1003
0010
,
1000
0000
0001
0010
0000
0100
1000
0000
,
0010
0000
1000
0100
0000
1000
0001
0000
,
1000
0000
0001
0100
0000
0010
0100
0000
,
0001
0000
1000
0001
0000
1000
0010
0000
,
1000
0000
0100
1000
0000
0100
0010
0000
,
0001
0000
1000
0010
0000
1000
0010
0000
,
0200
0000
0301
1000
,
0200
0000
0310
0001
,
1001
0000
0000
0002
0000
0000
0000
0000
,
1003
0000
0000
2000
0000
0000
0000
0000
,
3001
0000
0000
0002
0000
0000
0003
2002
,
0000
0000
0000
3003
,
0001
0000
0010
0010
0000
0000
0100
0000
,
1000
0000
0001
0001
0000
0000
0100
0000
,
0010
0000
0100
0100
0000
0000
0001
1000
,
0001
0000
0010
0000
0100
0010
0100
0000
,
1000
0000
0001
0000
0100
0000
0010
0010
,
0010
0000
1000
0000
0001
0000
0010
0100
,
0010
0000
0100
0000
1000
1000
1000
0000
,
0001
0100
0010
1000
,
0001
0000
0000
0010
0000
0000
1000
0000
,
0000
0100
0000
0000
0001
0000
1000
0000
,
0001
0000
0000
0100
0000
0000
0010
0000
,
1000
0000
1001
0000
,
0001
0001
0100
0100
,
0010
0010
1000
1000
,
0100
0100
0010
0010
,
0001
0000
0001
0000
1000
0001
1000
0000
,
0001
0100
0010
1000
,
0100
0010
0001
1000
,
0001
1000
0010
0100
,
0010
0100
0010
0100
0010
0000
0010
0000
,
1001
0000
1000
0000
0200
0000
0000
0310
,
0000
0010
0000
0000
0001
0000
1000
0000
,
0001
0000
0000
0001
2000
0000
0000
0000
,
3001
0000
0000
1000
0000
0000
0001
0000
,
0010
0000
0000
0100
0000
0000
2000
0000
,
0000
3000
0000
0000
0010
0000
1000
0000
,
0200
0000
0000
0310
,
0200
0000
1300
0001
,
0100
0001
0200
0000
,
0000
0000
0000
0300
,
0010
1000
0001
1000
,
2002
0000
0000
3003
,
1000
0000
0000
0001
0000
0000
0010
0000
,
0000
0100
0000
0000
1000
0000
0001
0000
,
1000
0100
0010
0000
0001
0100
0010
0000
,
0100
0000
0100
0000
0001
1000
0001
0000
,
1001
1000
0100
0010
,
0001
1000
0001
0000
,
1000
1000
0010
0100
,
0010
0010
1000
0001
,
1000
1000
0100
0100
,
0010
0000
0010
0000
0001
1000
0001
0000
,
0100
0100
0010
0010
,
1000
1000
0001
0010
,
1001
0000
0001
1000
0000
0010
0200
0000
,
0301
0000
1000
0001
0000
0010
0200
0000
,
1300
0000
0001
0100
0000
0001
2000
0000
,
3001
0000
0010
0100
0000
1000
0002
0000
,
0103
0000
0001
1000
0000
0100
0020
0000
,
0130
0000
1000
0001
0000
0100
0020
0000
,
2030
0000
3001
0100
,
1000
0000
0100
0001
,
1001
0000
0110
0000
,
1000
0000
1000
0000
0001
0100
0001
0000
,
2002
0000
0000
0000
,
0000
0000
0000
0000
,
3003
0000
0000
0000
;

//--------------- dance-single - Fred-104 ----------------
#NOTES:
     dance-single:
     Fred-104:
     Medium:
     14:
     :
0000
0000
0000
0000
,
0000
0000
0000
0000
,
0000
0000
0000
0000
,
0000
0000
0000
0000
,
0000
0000
0000
0000
,
0000
0000
0000
0000
,
0000
0000
0000
0000
,
0000
0000
0000
0000
,
0000
0000
0000
0000
0001
0100
0010
1000
,
0002
0000
0000
0000
,
0000
1003
0100
0010
0001
1000
0010
1000
,
0002
0000
0000
0023
0000
0000
0000
0000
,
0000
0000
0000
0000
0030
0000
0100
1000
0100
0000
1000
0000
0001
0000
0001
0000
,
1000
0100
0010
0001
1000
0010
0100
0001
,
0010
0100
1000
0001
0100
0010
1000
0001
,
0010
0000
0100
0000
0010
0000
0100
0000
0010
0100
0010
0100
0010
0100
0010
0100
,
0010
0000
0000
1001
,
1000
0100
1000
0200
0000
0301
0100
0010
,
0001
1000
0010
2000
0000
3001
2000
0000
,
3001
0100
0001
0200
0000
1300
0100
0010
,
1000
0100
0010
0002
0000
1003
0001
0010
,
0001
1000
0010
0002
0000
0013
0100
0001
,
1000
0100
0010
0200
0000
0301
0100
1000
,
1001
0000
1000
0100
0001
1000
0010
0001
,
2000
0000
3001
0100
1000
0001
0010
1000
,
0001
0010
0100
2000
0000
3001
0100
0010
,
1000
0010
0100
0002
0000
1003
0002
0000
,
1003
0010
0100
0020
0000
0031
0010
0100
,
0001
1000
0001
0020
0000
1030
0010
0001
,
1000
0010
0001
0020
0000
0130
0010
1000
,
0001
0100
0010
0002
0000
1003
0100
0010
,
2000
0000
3001
0010
1000
0001
0100
0010
,
0001
1000
0010
0001
1000
0100
0010
1000
,
0002
0000
0000
2000
0000
0000
3003
0000
,
2000
0000
0000
0002
0000
0000
3003
0000
,
0002
0000
0000
0200
0000
0303
0000
0220
,
0000
0000
0000
0000
0000
0000
0330
0001
,
1000
0000
0010
0000
0100
0000
0010
1000
0000
1000
0010
0000
1000
0000
0001
0000
,
0010
0000
0100
0000
1000
0000
0001
0100
0000
0100
0001
0000
0010
0000
0100
0000
,
1000
0000
0001
0000
0100
0000
0001
0010
0000
0010
0001
0000
1000
0000
0001
0000
,
0010
0100
1000
0001
0100
0010
1000
0000
,
0001
0100
1000
0100
0001
1000
0100
0010
,
0001
1000
0010
0100
0010
1000
0001
0010
,
0100
0010
0001
1000
0010
0100
0010
2000
,
0000
0000
3001
0000
0100
0000
1000
0000
0100
0001
0100
0000
0001
0000
1000
0000
,
0001
0100
0100
1000
0100
0100
0001
0010
,
0010
1000
0010
0010
0001
1000
1001
0000
,
0001
0010
0010
1000
0010
0010
0001
0200
,
0000
0310
0100
1000
0100
0001
1001
0000
,
1000
1000
0100
0100
0010
0010
0001
0001
,
1000
0010
0001
0010
0100
1000
0100
0001
,
1000
1000
0010
0010
0100
0100
0001
0001
,
1000
0100
0001
0100
0010
1000
0010
0001
,
1000
0100
0001
0100
1000
0010
0001
0010
,
1000
0001
0010
0100
1000
0001
0100
0010
,
1000
0010
0001
0010
1000
0100
0001
0100
,
0010
0001
1000
0010
0100
0100
0101
0000
,
1001
0000
0002
0000
0203
0000
0000
0320
,
0000
2030
0000
0000
3200
0000
0320
0000
,
0032
0000
0000
2003
0002
0000
3003
0000
,
0022
0000
0033
2020
0000
3030
0022
0033
,
2200
0000
3300
0202
0000
0303
2002
0000
,
0000
3003
0000
0000
2000
0000
3020
0000
,
0230
0000
0000
2300
,
3200
0000
0000
0301
1000
0100
0010
0001
,
1000
0010
0100
0001
2000
0000
0000
0000
,
0000
0000
0000
0000
0000
3000
0000
0001
,
1000
0100
0001
1000
0010
0100
1000
0001
,
0100
0010
0100
0010
0000
0000
1000
0001
1000
0001
0000
0000
,
0001
0100
0001
0100
0010
1000
0010
1000
,
0001
0010
0001
0010
0100
1000
0100
1000
,
0001
0000
1000
0000
0001
0000
1000
0000
0001
1000
0001
1000
0001
1000
0001
1000
,
0001
0000
1000
0000
0010
0100
0110
0000
,
0001
0100
0001
0100
0010
1000
0100
0010
,
0001
1000
0010
1000
0010
0100
0001
1000
,
0001
0100
1000
0100
0001
0100
1000
0100
,
0001
0010
1000
0010
0001
0010
1000
0010
,
0001
0100
0010
1000
0100
0010
0001
1000
,
0001
0010
0100
1000
0010
0100
0001
1000
,
0010
0100
1000
0100
0001
0100
1000
0100
,
0010
0001
0010
1000
0010
0001
0010
0100
,
0001
0010
0100
2100
0000
3001
0100
0001
,
1000
0100
0010
0012
0000
1003
1001
0000
,
0001
1000
0010
0210
0000
0301
1000
0100
,
0010
0001
1000
1002
0000
0103
0110
0000
,
0001
0010
1000
0002
0000
0103
0010
0001
,
1000
0010
0001
2000
0000
3100
0010
1000
,
1001
0000
0001
0100
1000
0001
0010
1000
,
0001
0000
0000
0000
1000
0000
0100
0000
1000
0100
1000
0100
0010
0000
0001
0000
,
0011
1010
0101
1100
,
1000
0000
0100
0000
0010
0000
0001
0000
1000
0001
1000
0001
1000
0001
1000
0001
,
2000
0000
0000
0000
,
0000
0000
0000
0000
,
3000
0000
0000
0000
;

//--------------- dance-single - Fred-104 ----------------
#NOTES:
     dance-single:
     Fred-104:
     Hard:
     17:
     :
0000
0000
0000
0000
,
0000
0000
0000
0000
,
0000
0000
0000
0000
,
0000
0000
0000
0000
,
0000
0000
0000
0000
,
0000
0000
0000
0000
,
0000
0000
0000
0000
,
0000
0000
0000
0000
,
0000
0000
0000
0000
2000
3002
0023
0230
,
0320
0000
0000
0000
,
0030
0002
2003
3020
0230
0302
2003
3002
,
0023
0000
0000
0230
0000
0000
1300
0000
,
0002
0000
0000
0000
0000
0000
0103
0010
0100
0000
0001
0000
1000
0000
1000
0000
,
0001
0010
1000
0010
0001
0010
1000
0010
,
0100
0001
0100
1000
0100
0001
0100
1000
,
0001
0010
0100
0000
1000
0010
0100
0000
0001
0010
0100
1000
0001
1000
0010
0100
,
0001
0000
0001
0000
1000
0000
0010
0100
0000
0100
0001
0000
0100
0000
0010
0000
,
1000
0100
0010
0012
0000
0103
0001
1000
,
0100
1000
0001
0201
0000
0301
1000
0100
,
0010
0001
1000
1020
0000
0130
0001
1000
,
0100
0010
0001
2001
0000
3001
0010
0100
,
0010
0001
0100
0102
0000
1003
0100
0001
,
0100
0010
0100
2100
0000
3001
0100
0010
,
2000
0000
0000
0000
3010
0000
1000
0001
0010
0000
0100
1000
0010
0000
0100
0001
,
0020
0000
0000
0000
0130
1000
0100
0000
0010
0001
0010
0001
1000
0001
1000
0000
,
0001
0010
0100
2100
0000
3001
0100
0001
,
1000
0001
0010
0012
0000
0103
0010
1000
,
0001
0010
0100
2100
0000
3010
0100
0001
,
1000
0000
0100
0000
0010
0000
0012
0000
0000
0000
1003
0001
1000
0000
0001
0000
,
0011
1000
0001
1010
0000
0001
1000
0001
,
0101
1000
0001
1100
0000
0001
1000
0001
,
2001
0000
0000
0000
3100
0000
0010
0001
0100
0000
0010
1000
0100
0000
0010
0001
,
2000
0000
0000
0000
3001
0010
0001
0000
1000
0010
1000
0010
0100
0001
1000
0000
,
2200
0000
3300
0022
0000
0000
0000
0033
,
2020
0000
3030
0202
0000
0000
0303
0000
,
2002
0000
3003
0220
0000
0000
0330
2002
,
0000
0000
0000
0000
0000
0000
0000
0000
0000
0000
0000
0000
3003
0000
0001
1000
,
0001
0000
0100
0000
0001
0000
1000
0000
0100
0010
0001
0000
1000
0000
0010
1000
,
0001
0000
1000
0000
0010
0000
0100
0000
0010
1000
0001
0000
0010
0000
0100
1000
,
0001
0000
1000
0000
0001
0000
0100
0000
0010
1000
0001
0000
0010
0000
0100
0010
,
0001
0000
1000
0010
0100
0000
0001
0100
0010
1000
0001
0000
1000
0100
1000
0100
,
0010
0000
0001
1000
0010
0000
1000
0001
0010
0000
0100
0000
1000
0000
0001
0010
,
0100
0000
1000
0001
0100
0000
0001
1000
0100
0000
0010
0000
0001
0000
1000
0001
,
0100
0000
0010
1000
0001
0000
0010
0100
1000
0000
0001
0000
0100
1000
0200
0000
,
0000
0301
0010
0000
0100
0000
1000
0001
0100
0001
1000
0000
0001
0100
0001
0000
,
1000
0100
0010
0000
0001
0000
1000
0010
0100
0000
0001
0000
1000
0100
0010
0000
,
0001
0000
1000
0010
0100
0001
1000
0000
0001
0010
0100
1000
0001
0000
1000
0000
,
0001
0000
1000
0100
0010
0000
0001
0000
1000
0001
0100
0000
0001
1000
0001
0020
,
0000
0000
1030
0010
0100
0000
0010
0001
1000
0000
0001
0000
1001
0000
0000
0000
,
2000
0000
3100
0010
0002
0000
0013
0100
2000
0000
3001
0100
0020
0000
1030
0001
,
1000
0100
0010
0001
1000
0010
1000
0001
,
2000
0000
3001
0100
0020
0000
1030
0001
0020
0000
0130
1000
0002
0000
0103
0001
,
1000
0001
0010
0100
1000
1000
0001
0001
,
1000
0001
0020
0000
0130
1000
0020
0000
0130
0001
0020
0000
0031
1000
0020
0000
,
0130
0001
1000
0001
0010
0100
1000
0001
,
1000
0010
1000
0001
0010
0100
2000
0000
3001
0010
0001
1000
0010
0100
0002
0000
,
1003
0000
0001
0100
0010
0000
1000
0100
0010
0000
0010
0000
0100
0000
0100
0000
,
0110
0000
0002
0000
2003
0000
0000
3200
,
0000
0302
0000
0000
2003
0000
3020
0000
,
0130
0000
0000
2000
0002
0000
3003
0000
,
2000
0000
0000
3002
0000
0000
2003
3000
,
2200
0000
3300
0202
0000
0303
2002
0000
,
0000
3003
0000
0000
0002
0000
0023
0000
,
2030
0000
0000
3002
,
0203
0000
0000
2300
3002
0023
0230
2300
,
3001
1000
0010
0100
0002
0000
0000
0000
,
0000
0000
0000
0000
0000
0000
0000
0000
0000
0000
0003
0000
0000
0000
0001
0100
,
0001
0100
0010
0000
1000
0001
0010
0000
0100
1000
0001
0000
0100
0010
1000
0000
,
0001
0010
1000
0001
0100
1000
0001
0010
0100
2000
0000
0000
,
3001
0010
1000
0010
0100
0001
0100
1000
,
0001
0010
0100
0000
1000
0100
0010
0000
0001
1000
0010
0000
0100
0001
1000
0000
,
0001
0010
0001
0010
0100
1000
0100
1000
0001
0100
0001
0100
0010
1000
0001
0010
,
0100
0000
0000
1000
0000
0000
0001
0000
0000
0100
0000
0000
0110
0000
0000
0010
1000
0010
1000
0000
0000
0001
0000
0000
,
1000
0100
1000
0000
0001
0000
0100
0010
0100
0010
0100
0000
0001
0000
1000
0100
,
0010
0000
0001
1000
0010
0000
1000
0001
0010
0100
1000
0000
0001
1000
0001
0000
,
1000
0010
1000
0000
0001
0010
0001
0000
1000
0100
1000
0000
0001
0100
0001
0000
,
1000
0010
1000
0000
0001
0010
0001
0000
1000
0001
0010
0100
0010
0001
1000
0001
,
1000
0000
0010
0000
0100
0001
0100
0001
1000
0100
0010
0001
1000
0010
1000
0000
,
0001
0010
0100
0000
1000
0001
0100
0000
0010
1000
0010
0100
0001
1000
0100
0000
,
0010
0000
0001
1000
0010
0000
0100
0001
1000
0001
0010
0100
0010
0000
0001
0000
,
1000
0010
1000
0010
0100
0001
0100
0001
1000
0100
1000
0100
0010
0001
1000
0000
,
0001
0100
0010
2010
0000
3100
0010
0001
,
1000
0010
0100
0120
0000
1030
0001
0100
,
0010
1000
0100
0120
0000
0031
0100
1000
,
0100
0000
0001
0000
1000
0000
0100
0000
0010
0001
0010
0100
1000
0001
1000
0000
,
0001
0000
0100
0000
0010
0000
2010
0000
0000
0000
3100
0010
0100
0000
1000
0000
,
0001
0000
0010
0000
0100
0000
0120
0000
0000
0000
0031
1000
0001
0000
0100
0000
,
0120
0000
0000
0000
1030
0100
0010
0001
1000
0010
0100
0001
1000
0100
0010
0001
,
2000
0000
0000
0000
3001
0010
0001
1000
0010
1000
0001
0100
0010
1000
0001
0010
,
0001
0100
0110
0000
1000
0100
0110
0000
,
1000
0100
1000
0001
0100
0001
1000
0100
1000
0001
0100
0001
1000
0100
1000
0001
,
0200
0000
0000
0000
,
0000
0000
0000
0000
,
0300
0000
0000
0000
;

//--------------- dance-single - Fred-104† ----------------
#NOTES:
     dance-single:
     Fred-104†:
     Challenge:
     18:
     :
0000
0000
0000
0000
,
0000
0000
0000
0000
,
0000
0000
0000
0000
,
0000
0000
0000
0000
,
0000
0000
0000
0000
,
0000
0000
0000
0000
,
0000
0000
0000
0000
,
0000
0000
0000
0000
,
0000
0000
0000
0000
2000
3200
0320
0032
,
2003
0000
0000
0000
,
3000
0002
0023
2030
3002
0203
0320
0032
,
0203
0000
0000
0302
0000
0000
0000
0000
,
0000
0000
0000
0000
0000
0000
1003
0010
0100
0000
0001
0000
1000
0000
0001
0000
,
1000
0100
1000
0100
0010
0001
0010
0001
1000
0010
1000
0010
0100
0001
0100
0001
,
1000
0001
1000
0001
0010
0100
0010
0100
1000
0001
1000
0001
0100
0010
0100
0010
,
1000
0001
0010
0100
1000
0100
0010
0001
1000
0010
0100
0001
1000
0001
0100
0010
,
1000
0000
0001
0000
0010
0000
1000
0001
0000
0100
1000
0000
0100
0000
0010
0000
,
0001
1000
0100
0102
0000
0103
0010
0001
,
0100
0010
0001
0021
0000
0130
0001
1000
,
0001
0010
0100
2100
0000
3001
0100
0010
,
1000
0000
0100
0000
0010
0000
0012
0000
0000
0000
1003
0010
0100
0000
0001
0000
,
1000
0010
0001
0021
0000
0130
0001
1000
,
0001
0000
0010
0000
1000
0000
1020
0000
0000
0000
0130
1000
0001
0100
0010
0000
,
2000
0000
0000
0000
3100
1000
0001
0100
0010
0000
0100
0001
0010
0000
0100
1000
,
0020
0000
0000
0000
0130
0001
0010
0100
1000
0001
0100
0001
1000
0100
0010
0001
,
1000
0000
0001
0000
0010
0000
0110
0000
0000
0100
1000
0000
0001
0000
0010
0000
,
1000
0000
0001
0000
0100
0000
1100
0000
0000
1000
0001
0000
0100
0000
1000
0000
,
0001
0000
0010
0000
0100
0000
0101
0000
0000
0001
1000
0000
0100
0000
0001
0000
,
1000
0000
0010
0000
0100
0000
1100
0000
0000
1000
0001
1000
0100
0010
0100
0000
,
0110
0000
0010
0000
0001
0000
1001
0000
0000
1000
0001
0100
1000
0000
0100
0000
,
0110
0000
1000
0000
0100
0000
0110
0000
0000
0010
0001
0100
0010
0000
0001
0000
,
0020
0000
0000
0000
0130
0001
1000
0100
0010
0001
1000
0010
0100
0001
1000
0100
,
0010
0001
1000
0010
1000
0001
0010
0100
1000
0001
1000
0001
0100
0010
1000
0001
,
2000
0000
3000
2002
0000
0000
0000
3003
,
2020
0000
3030
0202
0000
0000
0303
0000
,
2200
0000
3300
0022
0000
0000
0033
2002
,
0000
0000
0000
0000
0000
0000
0000
0000
0000
0000
0000
0000
3003
0000
0001
1000
,
0001
0000
1000
0000
0010
0000
0001
0010
0000
0100
0010
0000
1000
0000
0001
0010
,
0100
0000
1000
0000
0001
0000
0100
1000
0000
0100
0010
0000
0100
0000
0001
1000
,
0100
0000
0010
0000
0001
0000
0100
0010
0000
0100
1000
0000
0100
0000
0010
0100
,
0001
0000
1000
0100
0010
0000
0001
1000
0010
0000
1000
0001
0010
0100
1000
0001
,
1000
0000
0001
0010
0100
1000
0001
0100
0010
1000
0010
0100
0001
1000
0001
1000
,
0100
0000
1000
0001
0010
0001
1000
0010
0100
0010
1000
0001
0010
0100
1000
0001
,
1000
0100
0001
0000
0001
0100
1000
0000
0001
1000
0100
0010
0100
0001
0200
0000
,
0000
1300
0001
0000
1000
0010
0100
0001
1000
0100
1000
0001
0100
0010
1000
0000
,
0001
0100
0010
0100
1000
0000
0001
0010
0100
0010
1000
0000
0001
0010
0100
0010
,
1000
0000
0001
0100
0010
0100
1000
0001
0010
0100
1000
0001
1000
0000
0001
1000
,
0010
0100
0010
1000
0001
0000
0010
0100
1000
0001
1000
0000
0001
0010
0100
0020
,
0000
0000
0130
1000
0001
0100
0010
0100
0001
1000
0100
0010
0001
0000
1000
0000
,
0001
0010
0100
1000
0100
0010
0001
1000
0001
0100
0010
1000
0010
0100
0001
1000
,
0001
0000
0001
0100
0010
0000
0100
0000
1000
0000
1000
0100
0001
0000
1000
0000
,
0010
1000
0010
0100
0001
0100
0010
1000
0001
0010
0100
1000
0100
0010
0001
1000
,
0001
0000
0001
0010
0100
0000
0001
0000
0100
0000
1000
0000
0010
0000
0100
0000
,
0001
1000
0100
1000
0001
0100
0001
1000
0010
1000
0001
0010
0100
1000
0100
0010
,
0001
0000
1000
0100
0001
0000
0001
0100
1000
0000
1000
0010
0001
0000
0010
0000
,
1000
0010
1000
0001
0010
0100
1000
0001
0100
0001
1000
0100
0010
0001
1000
0010
,
1000
0000
0001
0100
1000
0000
0001
0010
1000
0000
0100
0000
0010
0000
0001
0000
,
1001
0000
1020
0000
0230
0000
0300
0202
,
0303
2200
0000
3300
0022
0033
2200
3300
,
2002
0000
3003
0020
0200
0000
0330
0000
,
2010
0000
3001
0200
0000
1300
0200
0000
,
0302
0000
0023
0230
0000
2300
3020
0000
,
0000
0200
0000
0330
0220
0330
0202
0303
,
2002
0000
3003
2000
,
0002
0000
3003
2000
3200
0320
0032
2003
,
3020
0230
0302
2003
3020
0000
0000
0000
,
0000
0000
0000
0000
0000
0000
0000
0000
0000
0000
0030
0000
0000
0000
1000
0001
,
0010
0100
1000
0001
0010
0001
1000
0010
1000
0001
0100
0001
1000
0100
0010
0001
,
1000
0100
0100
0001
0010
0010
1000
1000
1000
0002
0000
0000
,
1003
0100
0010
0100
1000
0100
0010
0100
1000
0001
0100
0001
1000
0001
0100
0001
,
1000
0010
0100
0010
1000
0010
0100
0010
1000
0001
0010
0001
1000
0001
0010
0001
,
1000
0010
0100
0001
0010
0001
0100
0010
1000
0100
1000
0010
0100
0001
0010
0001
,
1000
0000
0000
0010
0000
0000
0100
0000
0000
0001
0000
0000
1001
0000
0000
0001
1000
0100
1000
0000
0000
0001
0000
0000
,
1000
0100
0010
0100
0001
0000
1000
0010
0100
0010
0001
0000
1000
0000
0001
1000
,
0001
0010
1000
0000
0001
0100
1000
0000
0001
0100
0010
1000
0010
0100
0001
0000
,
1000
0100
0010
0000
0100
0010
0001
0000
0010
0001
1000
0000
0001
1000
0100
0000
,
1000
0100
0010
0001
1000
0010
1000
0001
0010
0100
1000
0001
0100
0001
1000
0100
,
0010
0000
0001
1000
0010
0000
0100
0001
1000
0100
0010
0001
1000
0010
1000
0000
,
0001
0010
0100
0010
1000
0010
0001
0000
1000
0010
0001
0010
0100
0010
1000
0000
,
0001
0010
0100
1000
0100
0010
0001
1000
0001
0100
0010
0100
0001
1000
0001
0000
,
1000
0010
1000
0001
0010
0100
1000
0001
0100
0010
0001
0010
0100
1000
0100
0010
,
1000
0001
0010
0110
0100
0001
0100
1000
,
0001
0100
0001
1001
0011
0000
1100
0000
,
1001
0001
1000
1010
0010
0100
0001
1000
,
1100
0000
0100
0000
0010
0000
0001
0000
1000
0010
0100
0001
0010
0001
1000
0010
,
0100
0001
1000
0100
0010
0001
1000
0010
0100
0001
1000
0100
0010
0100
1000
0001
,
1000
0010
0100
0001
1000
0001
0100
0010
1000
0001
0010
0100
1000
0100
0010
0001
,
2000
0000
0000
0000
3001
1000
0010
0100
0010
1000
0100
0010
0001
0100
0010
1000
,
0002
0000
0010
0000
2003
0000
0100
0000
3001
1000
0001
1000
0001
1000
0001
0000
,
1100
0001
0101
1000
1010
0001
0011
1000
,
0001
0100
0010
0001
1000
0100
0010
1000
0100
0010
1000
0001
0100
0010
0001
1000
,
0020
0000
0000
0000
,
0000
0000
0000
0000
,
0030
0000
0000
0000
;

//--------------- dance-double - Fred-104 ----------------
#NOTES:
     dance-double:
     Fred-104:
     Easy:
     9:
     :
00000000
00000000
00000000
00000000
,
00000000
00000000
00000000
00000000
,
00000000
00000000
00000000
00000000
,
00000000
00000000
00000000
00000000
,
00000000
00000000
00000000
00000000
,
00000000
00000000
00000000
00000000
,
00000000
00000000
00000000
00000000
,
00000000
00000000
00000000
00000000
,
00000000
00000000
00000000
00000000
,
00002000
00000000
00000000
00000000
,
01003000
00000000
00010000
00000000
10000000
01000000
00010000
00000000
,
00002000
00000000
00000000
00023000
00000000
00000000
00030200
00000000
,
00000000
00000320
00000000
00000000
00000031
00001000
00000001
00000000
,
00000100
00000100
00001000
00001000
,
00010000
00010000
00100000
00100000
,
10000000
00010000
10000000
00000000
01000000
00010000
00001000
00000000
,
00010000
00000000
00010000
00000000
00010000
00001000
00010000
00000000
,
00001000
00000000
00000000
00010000
00000000
00000000
00100000
00000000
,
00010000
00000000
00000000
00001000
00000000
00000000
00010000
00000000
,
00001000
00000000
00000000
00010000
00000000
00000000
00000010
00000000
,
00001000
00000000
00000000
00000100
00000000
00000000
00000010
00000000
,
00000001
00000000
00000000
00000100
00000000
00000000
00001000
00000000
,
00010000
00000000
00000000
00001000
00000000
00000000
01000000
00000000
,
00002000
00000000
00013000
00100000
,
02000000
00000000
03010000
10000000
,
00010000
00000000
00000000
10000000
00000000
10000000
01000000
00000000
,
00100000
00000000
00000000
00001000
00000000
00001000
00010000
00000000
,
00000100
00000000
00000000
00000010
00000000
00000010
00000001
00000000
,
00000100
00000000
00000000
00000100
00000000
00000100
00000010
00000000
,
00000100
00000000
00000000
00001000
00000000
00001000
00010000
00000000
,
00001000
00000000
00000000
01000000
00000000
01000000
00001000
00000000
,
00020000
00000000
00031000
00000010
,
00000002
00000000
00000103
00001000
,
00020000
00000000
00000000
00002000
00000000
00000000
00033000
00000000
,
00002000
00000000
00000000
02000000
00000000
00000000
03003000
00000000
,
00020000
00000000
00000000
20030000
00000000
00000000
00000000
32000000
,
00000000
00000000
00000000
03000000
,
00100000
00000000
00010000
10000000
00000000
10000000
00100000
00000000
,
10000000
00000000
01000000
00100000
00000000
00100000
00001000
00000000
,
00010000
00000000
00001000
00010000
00000000
00010000
00000010
00000000
,
00001000
00000000
00000100
00000000
00000010
00000000
00000001
00001000
,
00000001
00000000
00000001
00000100
00000000
00000000
00001000
00010000
,
00001000
00000000
00010000
00001000
00000000
00000000
01000000
00010000
,
10000000
00000000
01000000
00100000
00000000
00000000
00001000
00010000
,
00001000
01000000
00001000
00010000
,
00001000
00010000
00100000
10000000
,
01000000
00010000
00001000
00010000
,
00001000
00000100
00000001
00000010
,
00001000
00010000
00011000
00000000
,
00001000
00001000
00010000
00010000
,
01000000
01000000
00100000
00100000
,
00010000
00010000
10000000
10000000
,
01000000
00000000
00010000
00000000
00001000
00000100
00000001
00000000
,
00000010
00000010
00001000
00001000
,
00100000
00100000
00010000
00010000
,
10000000
10000000
01000000
01000000
,
00100000
00010000
00100000
00000000
00001000
00010000
00001000
00000000
,
00011000
00000000
00010000
00000000
00000200
00000000
00000000
00001300
,
00000000
00001000
00000000
00000000
00000001
00000000
00000010
00000000
,
00001000
00000000
00000000
00001000
00020000
00000000
00000000
00000000
,
00031000
00000000
00000000
00010000
00000000
00000000
00100000
00000000
,
10000000
00000000
00000000
01000000
00000000
00000000
00200000
00000000
,
00000000
00000000
00301000
00010000
,
00002000
00000000
00000000
01003000
,
00002000
00000000
00013000
00001000
,
00000010
00000001
00002000
00000000
,
00000000
00000000
00000000
00003000
,
00000100
00010000
00000100
00000000
00010000
00001000
00010000
00000000
,
00022000
00000000
00000000
00033000
,
00001000
00010000
01000000
00100000
,
00010000
10000000
00100000
00010000
,
00001000
00010000
00001000
00000000
00010000
00000100
00010000
00000000
,
00001000
00000000
00000100
00000000
00000001
00001000
00000001
00000000
,
00001001
00000001
00000100
00001000
,
00010000
00000000
00001000
00000000
00100000
00001000
00100000
00000000
,
00001000
00010000
01000000
00100000
,
00010000
00000000
10000000
00000000
00100000
01000000
00100000
00000000
,
10000000
00000000
01000000
00000000
00100000
00010000
00100000
00000000
,
00001000
00000000
00010000
00000000
00000010
00001000
00000010
00000000
,
00000100
00000001
00001000
00000100
,
00010000
00001000
00010000
00000000
00001000
00100000
00001000
00000000
,
00011000
00000000
00000000
00001000
00000000
00001000
00010000
00000000
,
00100000
00000000
00000000
01000000
00000000
01000000
00010000
00000000
,
10000000
00000000
00000000
01000000
00000000
01000000
00010000
00000000
,
00001000
00000000
00000000
00000100
00000000
00000100
00000001
00000000
,
00000010
00000000
00000100
00001000
00000000
00000100
00010000
00000000
,
00001000
00000000
01000000
00010000
00000000
10000000
01000000
00000000
,
00200000
00000000
00301000
00010000
,
00000020
00000000
00001030
00000100
,
00001100
00000001
00000101
00001000
,
00000001
00000100
00001000
00000000
00010000
00100000
10000000
00000000
,
20020000
00000000
00000000
00000000
,
00000000
00000000
00000000
00000000
,
30030000
00000000
00000000
00000000
;

//--------------- dance-double - Fred-104 ----------------
#NOTES:
     dance-double:
     Fred-104:
     Medium:
     14:
     :
00000000
00000000
00000000
00000000
,
00000000
00000000
00000000
00000000
,
00000000
00000000
00000000
00000000
,
00000000
00000000
00000000
00000000
,
00000000
00000000
00000000
00000000
,
00000000
00000000
00000000
00000000
,
00000000
00000000
00000000
00000000
,
00000000
00000000
00000000
00000000
,
00000000
00000000
00000000
00000000
00010000
00001000
00010000
00001000
,
00010000
00000000
00001000
00000000
00010000
00001000
00000100
00000000
,
00000001
00001000
00000100
00000010
00000001
00000100
00000010
00000100
,
00001000
00000000
00010000
00001000
00000000
01000000
00001000
00000000
,
00010000
01000000
00000000
10000000
01000000
00100000
00001000
00000000
,
00010000
00001000
00010000
00001000
00000100
00000001
00000100
00000001
,
00001000
00000001
00001000
00000001
00000010
00001000
00000010
00001000
,
00010000
00000000
00100000
00000000
00010000
00000000
00100000
00000000
10000000
00010000
10000000
00010000
10000000
00010000
10000000
00010000
,
10000000
00000000
01000000
00000000
00010000
00001000
00011000
00000000
,
00010000
00001000
00000010
00000200
00000000
00001300
00000001
00001000
,
00000010
00000100
00001000
00020000
00000000
00031000
01001000
00000000
,
00001000
00010000
01000000
00200000
00000000
00310000
10000000
00100000
,
00010000
00001000
00010000
02000000
00000000
03100000
00110000
00000000
,
10000000
00010000
01000000
20000000
00000000
31000000
00100000
10000000
,
00010000
00100000
01000000
00200000
00000000
00301000
00010000
00001000
,
00011000
00000000
00010000
00001000
00000100
00000010
00000100
00001000
,
00010000
00000000
00001000
00010000
01000000
00100000
01000000
00010000
,
00001000
00010000
00100000
02000000
00000000
03010000
10000000
00010000
,
00100000
01000000
00010000
00002000
00000000
00013000
00010100
00000000
,
00010000
00001000
00000100
00000020
00000000
00001030
00000001
00000010
,
00001000
00010000
00001000
00000200
00000000
00000310
00001010
00000000
,
00000001
00001000
00000100
00000002
00000000
00000103
00000010
00000001
,
00001000
00000010
00000100
00000020
00000000
00010030
00001000
00010000
,
00011000
00000000
00001000
00010000
01000000
00100000
01000000
00010000
,
00001000
00000000
00010000
00001000
00000100
00000010
00000100
00001000
,
00020000
00000000
00000000
00002000
00000000
00000000
00033000
00000000
,
00020000
00000000
00000000
00000020
00000000
00000000
00030030
00000000
,
00020000
00000000
00000000
00030200
00000000
00000000
00000000
00002000
,
00000000
00000000
00000000
00000000
00000000
00000000
00003300
00000001
,
00000001
00000000
00000010
00000000
00000100
00000000
00010000
00001000
00000000
00001000
00010000
00000000
00001000
00000000
00000000
00000000
,
01000000
00000000
00010000
00000000
00100000
00000000
01000000
10000000
00000000
10000000
00100000
00000000
00010000
00000000
00000000
00000000
,
00001000
00000000
00010000
00000000
00000010
00000000
00001000
00000100
00000000
00000100
00000010
00000000
00000001
00000000
00001000
00000000
,
00000010
00000100
00001000
00010000
00100000
10000000
00010000
00000000
,
00100000
01000000
10000000
00010000
01000000
00100000
10000000
01000000
,
00100000
00010000
10000000
00100000
00010000
00001000
01000000
00010000
,
00000100
00000001
00001000
00000100
00000010
00000001
00001000
00000020
,
00000000
00000000
00000130
00000000
00001000
00000000
00010000
00000000
00100000
01000000
00100000
00000000
10000000
00000000
00010000
00000000
,
10000000
01000000
00010000
00001000
00000010
00000001
00000001
00000100
,
00001000
00010000
00100000
10000000
10000000
01000000
00100000
00010000
,
10000000
00100000
00010000
00001000
00000100
00000001
00000001
00000010
,
00001000
00010000
01000000
10000000
00010000
10000000
10010000
00000000
,
10000000
10000000
01000000
01000000
00010000
00010000
00001000
00001000
,
00010000
00001000
00000010
00001000
00010000
00000010
00001000
00000000
,
00000001
00000001
00000010
00000010
00001000
00001000
00010000
00010000
,
00001000
00010000
00100000
00010000
00001000
00100000
00010000
00000000
,
10000000
01000000
00100000
00010000
00001000
00000100
00000010
00000001
,
00001000
00000010
00000100
00001000
00010000
00100000
10000000
00010000
,
10000000
00100000
01000000
00010000
00001000
00000010
00000100
00000001
,
00001000
00000100
00000010
00001000
00010000
01000000
00100000
00010000
,
10010000
00000000
20000000
00000000
32000000
00000000
00000000
03020000
,
00000000
00030200
00000000
00000000
00002300
00000000
00003002
00000000
,
00000023
00000000
00000000
00000230
00002000
00000000
00003300
00000000
,
00000002
00000000
00000000
00000203
00000000
00000000
00002300
00000000
,
00023000
00000000
00000000
00032000
00000000
00000000
00020000
00000000
,
00000000
00033000
00002000
00023000
,
00230000
00000000
00000000
20300000
,
00020000
00000000
30030000
10000000
01000000
00010000
01000000
10000000
,
00100000
01000000
00100000
00010000
00002000
00000000
00000000
00000000
,
00000000
00000000
00000000
00000000
00000000
00003000
00000000
00010000
,
00000100
00010000
00001000
00000100
00000001
00001000
00000100
00000010
,
00000001
00001000
00000001
00001000
00000000
00000000
00000010
00000100
00000010
00000100
00000000
00000000
,
00000001
00000010
00000100
00000000
00010000
00001000
00100000
00000000
,
00010000
00100000
01000000
10000000
00100000
00010000
00001000
00000100
,
00000001
00000000
00001000
00000000
00000100
00000000
00000010
00000000
00000001
00001000
00000001
00001000
00000001
00001000
00000001
00001000
,
00000001
00000000
00000100
00000000
00001000
00010000
00011000
00000000
,
00001000
00010000
00001000
00010000
00100000
01000000
00100000
01000000
,
00010000
00100000
01000000
10000000
01000000
00100000
00010000
00000000
,
10000000
00100000
10000000
00100000
00010000
00001000
00010000
00001000
,
00000100
00000001
00001000
00000100
00000010
00000001
00001000
00000000
,
00000001
00000100
00000010
00000100
00001000
00010000
00001000
01000000
,
00010000
10000000
01000000
00100000
00001000
00010000
00001000
00000000
,
00010000
00100000
01000000
10000000
01000000
00010000
10000000
00100000
,
00010000
00000010
00001000
00000100
00000010
00000001
00001000
00000000
,
00000001
00000010
00000100
00002000
00000000
00003001
00000100
00001000
,
00010000
00001000
01000000
00020000
00000000
10030000
10010000
00000000
,
00010000
00100000
01000000
00100000
00000000
00010000
10000000
00100000
,
00010000
00001000
00100000
00001000
00000010
00000100
00001000
00000000
,
00000001
00000100
00000010
00000100
00000000
00001000
00010000
00001000
,
01000000
00001000
00010000
00100000
01000000
00010000
10000000
01000000
,
01100000
00000000
00001000
00010000
00000010
00001000
00000010
00010000
,
00001000
00000000
00000100
00000000
00000001
00001000
00000100
00000000
,
00000011
00001000
00010010
00001000
,
00010000
00000000
00010000
00000000
00001000
00000000
00001000
00000000
00010000
00001000
00010000
00001000
00010000
00001000
00010000
00001000
,
00020000
00000000
00000000
00000000
,
00000000
00000000
00000000
00000000
,
00030000
00000000
00000000
00000000
;

//--------------- dance-double - Fred-104 ----------------
#NOTES:
     dance-double:
     Fred-104:
     Hard:
     17:
     :
00000000
00000000
00000000
00000000
,
00000000
00000000
00000000
00000000
,
00000000
00000000
00000000
00000000
,
00000000
00000000
00000000
00000000
,
00000000
00000000
00000000
00000000
,
00000000
00000000
00000000
00000000
,
00000000
00000000
00000000
00000000
,
00000000
00000000
00000000
00000000
,
00000000
00000000
00000000
00000000
00001000
00010000
00100000
10000000
,
02000000
00000000
00000000
00000000
,
00000000
03100000
00010000
01000000
00100000
00010000
00000010
00001000
,
00000002
00000000
00000000
00000023
00000000
00000000
00000000
00000000
,
00000000
00000000
00000000
00000000
00000000
00000000
00000130
00001000
00000100
00000000
00010000
00000000
00001000
00000000
01000000
00000000
,
00001000
00010000
01000000
00010000
00001000
00010000
00100000
00010000
,
00001000
00000100
00001000
00010000
00001000
00000010
00001000
00010000
,
00001000
00100000
00001000
00100000
00001000
00010000
00001000
00010000
00000010
00001000
00000010
00001000
00000010
00010000
00000010
00010000
,
00001000
00010000
00100000
10000000
01000000
00010000
00011000
00000000
,
00001000
00010000
01000000
00100000
00010000
01000000
00001000
00000100
,
00000010
00010000
00000100
00000010
00001000
00010000
00001000
00000000
,
01000000
00010000
00000100
00001000
00010000
00100000
01000000
00001000
,
00010000
00001000
00000010
00000100
00001000
00000010
00010000
00000000
,
00001000
00010000
01000000
00100000
00010000
01000000
00001000
00000010
,
00000100
00001000
00000010
00010000
01000000
00100000
00001000
00010000
,
00011000
00000000
00010000
00100000
10000000
01000000
00010000
00001000
,
00011000
00000000
00000000
00000000
00001000
00000000
00000010
00000000
00000001
00001000
00000010
00001000
00000010
00010000
00001000
00000000
,
00010000
00001000
00000100
00000010
00001000
00000100
00010000
01000000
,
00100000
00001000
01000000
00100000
00010000
00001000
00010000
00000000
,
00000100
00001000
01000000
00010000
00001000
00000010
00000100
00010000
,
00001000
00010000
00100000
01000000
00010000
00100000
00001000
00000000
,
00010000
00001000
00000100
00000010
00001000
00000100
00010000
00100000
,
01000000
00010000
00100000
00001000
00000100
00000010
00010000
00001000
,
00011000
00000000
00000000
00000000
00010000
00000100
00001000
00000000
00000001
00001000
00000100
00000000
00000010
00000001
00000010
00000001
,
00000020
00000000
00000000
00000000
00000130
00001000
00000001
00000000
00000100
00000010
00000100
00001000
00010000
00001000
00010000
00000000
,
00012000
00000000
00000000
02000000
00000000
00000000
03003000
00000000
,
00020000
00000000
00000000
20000000
00000000
00000000
30030000
00000000
,
22000000
00000000
33000000
02020000
00000000
00000000
03030000
00022000
,
00000000
00000000
00000000
00000000
00000000
00000000
00000000
00000000
00000000
00000000
00000000
00000000
00033000
00000000
00010000
00001000
,
00010000
00000000
00000100
00000000
00001000
00000000
00000001
00000000
00000010
00000100
00000010
00000000
00000100
00000000
00010000
00001000
,
00010000
00000000
00100000
00000000
10000000
00000000
00010000
00000000
01000000
00100000
01000000
00000000
00010000
00000000
00100000
00001000
,
00100000
00000000
00001000
00000000
00010000
00000000
00001000
00000000
00000100
00000010
00000100
00000000
00000001
00000000
00001000
00000100
,
00001000
00000000
00000001
00000000
00000100
00000000
00001000
00000000
00010000
00000000
01000000
00000000
00100000
00010000
00100000
00010000
,
10000000
00000000
00010000
01000000
00010000
00000000
10000000
01000000
00100000
00000000
00001000
00000000
00010000
00000000
00000100
00001000
,
00000001
00000000
00000010
00000100
00001000
00000000
00000100
00000010
00001000
00000000
00010000
00000000
00001000
00000000
01000000
00010000
,
00100000
00000000
01000000
10000000
00010000
00000000
01000000
00010000
10000000
00000000
01000000
00100000
00001000
00000000
00010000
00000000
,
00000000
00010000
00000100
00000000
00000010
00000000
00000001
00000000
00000010
00000100
00001000
00000000
00000001
00000000
00001000
00000000
,
00000001
00000100
00000010
00000000
00000100
00000000
00001000
00010000
00001000
00000000
00010000
00000000
00100000
01000000
00010000
00000000
,
00100000
00000000
01000000
10000000
00010000
00000000
01000000
00000000
00100000
10000000
01000000
00000000
00100000
00010000
10000000
00000000
,
00100000
01000000
00100000
00000000
00010000
00000000
00001000
00000100
00000010
00000000
00001000
00000000
00000100
00000010
00000001
00000000
,
00000000
00000001
00000100
00000010
00000100
00000000
00001000
00010000
00001000
00000000
00010000
00000000
00011000
00000000
00000000
00000000
,
00001000
00000000
01000000
00001000
00010000
00000000
00000100
00010000
00001000
00000000
00100000
00001000
00010000
00000000
00000010
00010000
,
00001000
00010000
00100000
10000000
01000000
00010000
00001000
00000000
,
00010000
00000000
00000010
00010000
00001000
00000000
00100000
00001000
00010000
00000000
00000100
00010000
00001000
00000000
01000000
00001000
,
00010000
00001000
00000100
00000001
00000010
00001000
00010000
00001000
,
00010000
00001000
00100000
00000000
00010000
00100000
01000000
00000000
10000000
00100000
01000000
00000000
00100000
10000000
01000000
00000000
,
00010000
00000100
00001000
00000001
00000010
00000100
00010000
00001000
,
00010000
00000100
00001000
00000000
00000100
00000010
00000001
00000000
00000010
00000100
00001000
00000000
00000100
00010000
00001000
00000000
,
00010000
00000000
00001000
00010000
01000000
00000000
10000000
00100000
01000000
00000000
00100000
00000000
00010000
00000000
00001000
00000000
,
00011000
00000000
00020000
00000000
00032000
00000000
00000000
00003200
,
00000000
00000302
00000000
00000000
00000023
00000000
00000230
00000000
,
00010300
00000000
00000000
00020000
00002000
00000000
00033000
00000000
,
00002000
00000000
00000000
00023000
00000000
00000000
00230000
00300000
,
20200000
00000000
30300000
02200000
00000000
03300000
20020000
00000000
,
00000000
30030000
00000000
00000000
20000000
00000000
30200000
00000000
,
00320000
00000000
00000000
00032000
,
00003020
00000000
00000000
00000032
00002003
00003020
00000230
00002300
,
00023000
02030000
03200000
00320000
20030000
00000000
00000000
00000000
,
00000000
00000000
00000000
00000000
00000000
00000000
00000000
00000000
00000000
00000000
30000000
00000000
00000000
00000000
10000000
01000000
,
00100000
00000000
01000000
00100000
00010000
00000000
00100000
00001000
00010000
00000000
00001000
00010000
00000100
00000000
00001000
00000100
,
00000010
00000001
00001000
00000010
00000100
00001000
00010000
00100000
10000000
00020000
00000000
00000000
,
00130000
01000000
10000000
00010000
01000000
00100000
00010000
00001000
,
00010000
00001000
00000010
00000100
00000010
00000001
00001000
00000010
,
00010000
00001000
00010000
00001000
01000000
00010000
01000000
00010000
10000000
01000000
10000000
01000000
00100000
00010000
00100000
00010000
,
10000000
01000000
00010000
00001000
00000100
00000001
00001001
00000000
,
00000001
00000010
00000100
00000000
00001000
00000000
00000010
00010000
00001000
00000000
00010000
00000000
00100000
00000000
01000000
00010000
,
10000000
00000000
01000000
00100000
00010000
00000000
01000000
00001000
00010000
00000000
01000000
00100000
00001000
00010000
00001000
00000000
,
00010000
00000100
00001000
00000000
00000001
00001000
00000100
00000000
00000010
00000001
00001000
00000000
00000010
00010000
00001000
00000000
,
00100000
00010000
01000000
00000000
00100000
10000000
01000000
00000000
00100000
00010000
00100000
00001000
00010000
00000010
00001000
00000010
,
00000100
00000000
00000001
00001000
00000100
00000000
00000010
00000001
00001000
00000000
00000010
00000100
00001000
00000000
00010000
00000000
,
00001000
00000000
01000000
00010000
00100000
00000000
00001000
00100000
00010000
00000000
10000000
00010000
10000000
01000000
10000000
00000000
,
00010000
10000000
00100000
00000000
01000000
00010000
10000000
00000000
01000000
00100000
00010000
00000000
00100000
00001000
00010000
00000000
,
00000010
00001000
00000001
00000010
00000100
00001000
00000100
00010000
00001000
01000000
00010000
10000000
01000000
00100000
00010000
00100000
,
00001000
00010000
01000000
00100000
00001000
01000000
00100000
00010000
,
00001000
01000000
00010000
00000100
00000110
00000000
00011000
00000000
,
00010000
00001000
00000010
00000100
00010000
00000010
00000100
00001000
,
01000000
00000000
00010000
00000000
00100000
00000000
00001000
00000000
00010000
00000100
00010000
00001000
00010000
00000010
00010000
00000000
,
00001000
00000000
00010000
00000000
00100000
00000000
01000000
00000000
00010000
00100000
01000000
10000000
01000000
10000000
00010000
00000000
,
10000000
00000000
00100000
00000000
00010000
00000000
00001000
00000000
00010000
00000100
00001000
00000100
00000010
00000001
00001000
00000001
,
00000200
00000000
00000000
00000000
00000301
00001000
00000100
00001000
00000100
00010000
00000100
00010000
00001000
01000000
00010000
10000000
,
00010000
00000000
10000000
00000000
01000000
00000000
00100000
00000000
00001000
00010000
00001000
00000000
00011000
00000000
00000000
00000000
,
00001000
00001000
00010000
00010000
00100000
00100000
10000000
10000000
,
00010000
10000000
01000000
00100000
00010000
00100000
00001000
00010000
00001000
00010000
00000100
00001000
00000100
00000010
00000001
00001000
,
00000002
00000000
00000000
00000000
,
00000000
00000000
00000000
00000000
,
00000003
00000000
00000000
00000000
;

//--------------- dance-double - Fred-104† ----------------
#NOTES:
     dance-double:
     Fred-104†:
     Challenge:
     18:
     :
00000000
00000000
00000000
00000000
,
00000000
00000000
00000000
00000000
,
00000000
00000000
00000000
00000000
,
00000000
00000000
00000000
00000000
,
00000000
00000000
00000000
00000000
,
00000000
00000000
00000000
00000000
,
00000000
00000000
00000000
00000000
,
00000000
00000000
00000000
00000000
,
00000000
00000000
00000000
00000000
00020000
00032000
00003020
00000032
,
00002003
00000000
00000000
00000000
,
00003000
00000002
00000203
00002300
02003000
03020000
00230000
02300000
,
23000000
00000000
00000000
30200000
00000000
00000000
00000000
00000000
,
00000000
00000000
00000000
00000000
00000000
00000000
00310000
00001000
00010000
00000000
00001000
00000000
00010000
00000000
00001000
00000000
,
00010000
00000010
00010000
00000010
00001000
00000010
00001000
00000010
00000100
00000001
00000100
00000001
00001000
00000001
00001000
00000001
,
00000010
00000100
00000010
00000100
00001000
00000100
00001000
00000100
00010000
00001000
00010000
00001000
01000000
00010000
01000000
00010000
,
10000000
01000000
00100000
00001000
00010000
00000010
00001000
00000100
00010000
00000100
00001000
00000100
00000010
00000001
00000100
00000010
,
00001000
00000000
00000001
00000000
00000100
00000000
00001000
00010000
00000000
00010000
00100000
00000000
01000000
00000000
00010000
00000000
,
10000000
01000000
00100000
00102000
00000000
00013000
00100000
01000000
,
00010000
10000000
00100000
00120000
00000000
00031000
00011000
00000000
,
00010000
00001000
00000100
00000102
00000000
00001003
00000100
00000010
,
00000001
00000100
00001000
00021000
00000000
00031000
01000000
00001000
,
00010000
00001000
00000010
00000210
00000000
00001300
00000001
00000100
,
00001000
00000000
00010000
00000000
01000000
00000000
21000000
00000000
00000000
00000000
30010000
10000000
01000000
00100000
00001000
00000000
,
00020000
00000000
00000000
00000000
00031000
00010000
00000010
00001000
00000001
00000000
00000100
00001000
00010000
00000000
01000000
10000000
,
00020000
00000000
00000000
00000000
10030000
00100000
01000000
00100000
00010000
00001000
00010000
00000100
00001000
00000001
00000100
00000010
,
00001000
00000000
00000100
00000000
00000010
00000000
00000011
00000000
00000000
00000001
00000100
00000000
00001000
00000000
00010000
00000000
,
00100000
00000000
01000000
00000000
00010000
00000000
10010000
00000000
00000000
10000000
01000000
00000000
00010000
00000000
00001000
00000000
,
01000000
00000000
00001000
00000000
00000100
00000000
00000110
00000000
00000000
00000010
00001000
00000000
00000100
00000000
00000001
00000000
,
00000100
00000000
00001000
00000000
00000010
00000000
00010010
00000000
00000000
00010000
00001000
00000000
00010000
00000000
00100000
00000000
,
10000000
00000000
01000000
00000000
00100000
00000000
00101000
00000000
00000000
00001000
00010000
00000010
00001000
00000010
00010000
00000000
,
00011000
00000000
00001000
00000000
00010000
00000000
00110000
00000000
00000000
00100000
10000000
00010000
00100000
01000000
10000000
00010000
,
02000000
00000000
00000000
00000000
03001000
00010000
00000010
00001000
00000100
00000010
00000001
00001000
00000010
00000100
00000001
00001000
,
00000100
00000010
00001000
00010000
00001000
01000000
00010000
00100000
01000000
10000000
00010000
01000000
00100000
00010000
00001000
00000100
,
00000002
00000000
00000003
00002002
00000000
00000000
00003003
00000000
,
00020020
00000000
00030030
00202000
00000000
00000000
00303000
00000000
,
00022000
00000000
00033000
02200000
00000000
00000000
03300000
20020000
,
00000000
00000000
00000000
00000000
00000000
00000000
00000000
00000000
00000000
00000000
00000000
00000000
30030000
00000000
00010000
10000000
,
01000000
00000000
00100000
00000000
00001000
00000000
00010000
00001000
00000000
00000010
00000100
00000000
00001000
00000000
00000001
00000100
,
00001000
00000000
00010000
00000000
00001000
00000000
01000000
00100000
00000000
00010000
00001000
00000000
01000000
00000000
00001000
00010000
,
00001000
00000000
00000100
00000000
00000010
00000000
00001000
00000010
00000000
00000100
00001000
00000000
00010000
00000000
00001000
00100000
,
00010000
00000000
00100000
00000000
01000000
00000000
10000000
00010000
01000000
00010000
10000000
01000000
00100000
00010000
00100000
00001000
,
00010000
00000000
00001000
00010000
00000010
00000000
00001000
00000100
00000010
00000001
00001000
00000001
00001000
00000100
00000010
00000001
,
00001000
00000000
00000001
00000100
00000010
00000000
00000100
00001000
00010000
00001000
01000000
00010000
10000000
01000000
10000000
00010000
,
01000000
00010000
10000000
00010000
00100000
00000000
01000000
10000000
00010000
01000000
00100000
00010000
00001000
00010000
00000010
00000000
,
00000000
00000010
00000100
00000000
00000001
00000010
00000100
00001000
00000100
00010000
00001000
00010000
00001000
01000000
00010000
00000000
,
10000000
01000000
00100000
00010000
00100000
00000000
00001000
00010000
00000010
00001000
00000100
00000000
00000010
00000001
00000100
00000010
,
00001000
00000000
00000001
00000010
00000100
00001000
00000100
00010000
00000100
00001000
00000100
00000010
00000001
00001000
00000010
00000000
,
00010000
00001000
00010000
00100000
01000000
00000000
00010000
10000000
01000000
10000000
00100000
01000000
00010000
10000000
01000000
00100000
,
00000000
00000000
00100000
00001000
00010000
00001000
00010000
00000010
00001000
00000000
00000100
00000000
00000110
00000000
00000000
00000000
,
00000001
00000010
00000100
00001000
00000001
00000010
00000100
00001000
00000010
00010000
00001000
00100000
00010000
00100000
01000000
10000000
,
00010000
00000000
10000000
01000000
00010000
00000000
00001000
00010000
00001000
00000000
00000100
00000000
00000001
00000000
00001000
00000000
,
00000001
00000100
00000010
00001000
00000001
00000100
00000010
00001000
00000100
00010000
00001000
01000000
00010000
01000000
00100000
10000000
,
00010000
00000000
10000000
00100000
00010000
00000000
00001000
00010000
00001000
00000000
00000010
00000000
00000001
00000000
00001000
00000000
,
00000001
00001000
00000010
00010000
00001000
00100000
00010000
00100000
01000000
10000000
00010000
01000000
00001000
00010000
00000010
00010000
,
00001000
00000000
00010000
00100000
01000000
00000000
00010000
00100000
01000000
00000000
10000000
00100000
00010000
00000000
00001000
00000000
,
00010000
00000100
00001000
00000100
00000010
00000001
00000010
00000100
00001000
00000100
00010000
00001000
01000000
00010000
00100000
01000000
,
10000000
00000000
00010000
10000000
00100000
00000000
00010000
00001000
00000010
00000000
00000001
00000000
00001000
00000000
00000001
00000000
,
00001001
00000000
00000002
00000000
00000203
00000000
00000000
00002300
,
00000000
00023000
00000000
00000000
00230000
00000000
20300000
30000000
,
22000000
00000000
33000000
00200000
00002000
00000000
00303000
00000000
,
00022000
00000000
00033000
00020020
00000000
00030030
00000202
00000303
,
00002200
00000000
00003300
00020200
00000000
00030300
00022000
00000000
,
00000000
00033000
00000000
00000000
00002000
00000000
00023000
00000000
,
02030000
00000000
00000000
23000000
,
00020000
00000000
30030000
00200000
02300000
03020000
00032000
00003200
,
00000302
00002003
00003200
00000320
00000032
00000000
00000000
00000000
,
00000000
00000000
00000000
00000000
00000000
00000000
00000000
00000000
00000000
00000000
00000003
00000000
00000000
00000000
00000001
00001000
,
00000001
00000010
00000100
00001000
00000100
00010000
00001000
01000000
00010000
01000000
00001000
00010000
00001000
00100000
00010000
10000000
,
00010000
10000000
01000000
00010000
00001000
00000100
00000001
00001000
00000100
00000110
00000000
00000000
,
00000001
00000010
00000001
00000010
00000100
00001000
00000100
00001000
00000100
00010000
00000100
00010000
00001000
01000000
00001000
01000000
,
00010000
10000000
00010000
10000000
01000000
00100000
01000000
00100000
00001000
00010000
00001000
00010000
00000010
00001000
00000010
00001000
,
00000001
00000010
00000100
00010000
00001000
01000000
00010000
10000000
01000000
00100000
00010000
00100000
00001000
00010000
00000010
00001000
,
00000010
00000000
00000000
00000100
00000000
00000000
00000001
00000000
00000000
00000010
00000000
00000000
00000100
00000000
00000000
00010000
00001000
00010000
00001000
00000000
00000000
01000000
00000000
00000000
,
00010000
10000000
00100000
01000000
00100000
00000000
00010000
00001000
00010000
00000010
00001000
00000000
00000100
00000000
00000010
00000001
,
00001000
00000000
00000001
00000000
00000100
00000000
00001000
00000000
00010000
00001000
01000000
00010000
10000000
00010000
00100000
00010000
,
10000000
00100000
01000000
00010000
00100000
00001000
00010000
00000000
00001000
00100000
00010000
01000000
00100000
10000000
00010000
00000000
,
00100000
01000000
10000000
01000000
00100000
00010000
00100000
00001000
00010000
00000010
00001000
00000010
00000100
00000001
00001000
00000100
,
00000010
00000000
00000001
00001000
00000010
00000000
00000100
00000001
00000010
00000000
00000100
00010000
00001000
00000000
00010000
00000000
,
00100000
10000000
00010000
00100000
01000000
00100000
00010000
10000000
00100000
01000000
00100000
00010000
00001000
00010000
00000010
00000000
,
00010000
00001000
00000100
00000010
00001000
00000001
00000100
00000001
00001000
00000100
00010000
00001000
00010000
00001000
00100000
00010000
,
10000000
00010000
01000000
00100000
00010000
00001000
00000100
00000010
00001000
00000001
00000010
00001000
00010000
00001000
00100000
00010000
,
10000000
01000000
00100000
00101000
00001000
00010000
00000010
00001000
,
00000100
00000010
00000001
00000100
00000110
00000000
00011000
00000000
,
01001000
01000000
00010000
00110000
00100000
01000000
10000000
00100000
,
00110000
00000000
00010000
00000000
00001000
00000000
00000100
00000000
00000001
00001000
00000100
00000010
00000001
00001000
00000010
00000000
,
00010000
00000000
00001000
00100000
00010000
00000000
00100000
01000000
10000000
00010000
01000000
00000000
00100000
10000000
00010000
00000000
,
00100000
00001000
00010000
00001000
00000100
00000001
00001000
00000000
00000100
00000010
00000001
00000100
00000010
00001000
00000100
00010000
,
00002000
00000000
00000000
00000000
00013000
00001000
00100000
00010000
01000000
00100000
10000000
00100000
01000000
00010000
00100000
00001000
,
00010000
00000100
00001000
00000100
00000010
00000001
00001000
00000010
00000100
00001000
00010000
00001000
01000000
00001000
00010000
00000000
,
00010100
01001000
00010010
00101000
,
00010000
00001000
00000010
00000001
00001000
00000001
00000100
00001000
00010000
00100000
10000000
00010000
10000000
01000000
00010000
00001000
,
00020000
00000000
00000000
00000000
,
00000000
00000000
00000000
00000000
,
00030000
00000000
00000000
00000000
;
