#VERSION:0.83;
#TITLE:532nm;
#ARTIST:Ryu☆;
#GENRE:HARDCORE;
#BANNER:532nm.png;
#BACKGROUND:532nm-bg.png;
#CDTITLE:./CDTitles/APPEND TRAVEL.png;
#MUSIC:532nm.ogg;
#SAMPLESTART:13.559;
#SAMPLELENGTH:15;
#BPMS:0=177;
#BGSTAGE:28;

//--------------- dance-single - Fred-104 ----------------
#NOTEDATA:;
#STEPSTYPE:dance-single;
#DESCRIPTION:Fred-104;
#DIFFICULTY:Beginner;
#METER:3;
#CREDIT:Fred-104;
#NOTES:
0000
0000
0000
0000
,
0000
0000
0000
0000
,
0000
0000
0000
0000
,
0000
0000
0000
0000
,
0000
0000
0000
0000
,
0000
0000
0000
0000
,
1000
0000
0000
0000
,
0001
0000
0000
0000
,
2000
0000
0000
0000
,
3000
0000
0000
0000
,
0001
0000
0000
0000
,
1000
0000
0100
0000
,
0010
0000
0000
0000
,
0001
0000
1000
0000
,
0001
0000
0000
0000
,
0010
0000
0010
0000
,
0020
0000
0000
0000
,
0030
0000
0000
0000
,
0001
0000
1000
0000
,
0100
0000
0000
0000
,
1000
0000
0001
0000
,
1000
0000
0000
0000
,
0010
0000
0000
0000
,
0100
0000
0000
0000
,
0002
0003
0002
0003
,
2000
0000
0000
3000
,
0002
0000
0000
0000
,
0003
0000
0000
0000
,
0200
0000
0000
0000
,
0300
0000
0000
0000
,
0020
0000
0000
0000
,
0030
0000
0000
0000
,
2000
0000
0000
0000
,
3000
0000
0000
0000
,
2002
0000
0000
0000
,
0000
0000
3003
0000
,
2000
0000
0000
0000
,
0000
0000
0000
0000
,
0000
0000
0000
0000
,
0000
0000
3000
0000
,
0002
0000
0000
0000
,
0000
0000
0000
0000
,
0000
0000
0000
0000
,
0000
0000
0003
0000
,
2000
0000
0000
3000
,
0002
0000
0000
0003
,
2000
0000
0000
3000
,
0002
0000
0000
0003
,
2000
3000
0002
0003
,
2000
3000
0002
0003
,
2000
0000
0000
3000
,
0002
0000
0000
0000
,
0000
0000
0000
0000
,
0000
0000
0000
0003
,
1000
0000
0100
0000
,
0010
0000
0000
0000
,
0001
0000
1000
0000
,
0001
0000
0000
0000
,
0100
0000
0100
0000
,
0001
0000
0000
0000
,
0010
0000
0010
0000
,
0100
0000
1000
0000
,
0001
0000
1000
0000
,
0100
0000
1000
0000
,
0001
0000
1000
0000
,
0001
0000
1000
0000
,
0001
0000
0001
0000
,
0010
0000
0010
0000
,
1000
0000
0100
0000
,
0100
0000
0001
1000
,
1001
0000
0000
0000
;

//--------------- dance-single - Fred-104 ----------------
#NOTEDATA:;
#STEPSTYPE:dance-single;
#DESCRIPTION:Fred-104;
#DIFFICULTY:Easy;
#METER:7;
#CREDIT:Fred-104;
#NOTES:
0000
0000
0000
0000
,
0000
0000
0000
0000
,
0000
0000
0000
0000
,
0000
0000
0000
0000
,
0000
0000
0000
0000
,
0000
0000
0000
0000
,
2000
0000
3000
2000
0000
3000
0100
0000
,
0020
0000
0030
0020
0000
0030
0001
0000
,
0002
0000
0003
0002
0000
0003
0100
0000
,
0010
0010
0010
1001
,
0001
0000
0000
0100
0000
0000
0001
0000
,
0010
0000
0000
0100
0000
0000
1000
0000
,
0001
0000
0000
0100
0000
0000
0010
0000
,
1000
0100
0110
0000
,
0001
0000
0000
1000
0000
0000
0010
0000
,
0100
0000
0000
0001
0000
0000
1000
0000
,
0100
0000
0000
0010
0000
0000
0001
0000
,
1000
0001
1001
0000
,
1000
0000
0000
0100
0000
0000
0010
0000
,
0001
0000
0000
0100
0000
0000
0010
0000
,
1000
0000
0000
0010
0000
0000
0100
0000
,
0001
0000
0000
0010
0000
0000
0100
0000
,
1001
0000
0000
0001
0000
0000
0100
0000
,
0110
0000
0000
0010
0000
0000
1000
0000
,
0001
0001
0100
0100
,
0010
1000
1001
0000
,
1000
0000
0000
0001
0000
1000
0000
0001
,
0000
0100
0000
0100
0000
0000
0010
0000
,
0010
0000
0000
0100
0000
0001
0000
0001
,
0000
1000
0000
0100
0000
0010
0000
0001
,
1000
0000
0000
0001
0000
0100
0000
0010
,
0000
0100
0000
0001
0000
1000
1000
0000
,
0100
0000
1000
0000
0001
0000
0100
0100
,
0000
0110
0000
0110
0000
1001
0000
0000
,
2002
0000
0000
0000
,
0000
0000
3003
0000
,
2000
0000
3200
0000
,
2300
3002
0203
0320
,
2030
0000
3002
0023
,
0230
2300
3002
0000
,
0203
0000
0320
0000
,
0230
0302
2003
3200
,
0320
0000
0032
0000
,
2000
0000
0000
3003
,
2000
0000
3000
0200
0000
0300
0020
0000
,
0032
0000
0003
2000
0000
3000
0002
0000
,
0203
0000
0300
0020
0000
0030
0200
0000
,
0302
0000
0003
0020
0000
0030
0100
0000
,
1000
0000
0010
0000
,
0001
0000
0100
0000
,
1000
1000
0010
0010
,
0001
0001
0100
0100
,
0000
0000
0000
0000
,
1000
1000
0001
1001
,
0001
0000
0000
1000
0000
0000
0010
0000
,
0100
0000
0000
0001
0000
0000
1000
0000
,
0100
0000
0000
0010
0000
0000
0001
0000
,
1000
0000
0000
0001
0000
0001
0000
0100
,
0010
0000
0000
0100
0000
0000
0001
0000
,
1000
0000
0000
0100
0000
0000
0010
0000
,
0001
0000
0000
1000
0000
0000
0001
0000
,
0100
0100
0010
0100
,
0110
0000
0000
0001
0000
1000
0000
0001
,
0000
0100
0000
0010
0000
0100
0100
0000
,
0001
0000
0000
1000
0000
1000
0000
0010
,
0000
0100
0000
0010
0000
1000
0001
0000
,
1001
0000
0000
0001
0000
0000
0100
0000
,
0010
0000
0000
1000
0000
0000
0001
0000
,
0010
0000
0100
0000
1000
0000
0001
0001
,
0000
0100
0000
0010
0000
1000
0000
0000
,
1001
0000
0000
0000
;

//--------------- dance-single - Fred-104 ----------------
#NOTEDATA:;
#STEPSTYPE:dance-single;
#DESCRIPTION:Fred-104;
#DIFFICULTY:Medium;
#METER:11;
#CREDIT:Fred-104;
#NOTES:
0000
0000
0000
0000
,
0000
0000
0000
0000
,
0000
0000
0000
0000
,
0000
0000
0000
0000
,
0000
0000
0000
0000
,
0000
0000
0000
0000
,
1000
0000
0000
1000
0000
0000
0001
0000
0000
0001
0000
0000
0200
0000
0001
0000
,
0301
0000
0000
0001
0000
0000
1000
0000
0000
1000
0000
0000
0020
0000
0100
0000
,
0130
0000
0000
0001
0000
0000
1000
0000
0000
0010
0000
0000
0200
0000
0001
0000
,
0301
0000
0000
0010
0000
0000
0100
0000
0000
1000
0000
0000
1001
0000
0000
0000
,
0001
0000
0000
0100
0000
0000
0001
0000
0000
1000
0000
0000
0001
0000
0010
0000
,
0100
0000
0000
1000
0000
0000
0001
0000
0000
0100
0000
0000
0010
0000
1000
0000
,
0100
0000
0000
1000
0000
0000
0001
0000
0000
0010
0000
0000
0100
0000
0010
0000
,
0001
0000
0000
1000
0000
0000
0001
0000
0000
0100
0000
0000
1001
0000
0000
0000
,
1000
0000
0000
0100
0000
0000
0010
0000
0000
0001
0000
0000
1000
0000
0001
0000
,
0100
0000
0000
0010
0000
0000
1000
0000
0000
0010
0000
0000
0100
0000
0001
0000
,
0010
0000
0000
0100
0000
0000
1000
0000
0000
0001
0000
0000
0100
0000
0001
0000
,
1000
0000
0000
0100
0000
0000
0010
0000
0000
0001
0000
0000
1001
0000
0000
0000
,
1000
0000
0000
0100
0000
0000
0001
0000
0000
0100
0000
0000
1000
0000
1000
0000
,
0001
0000
0000
0100
0000
0000
1000
0000
0000
0100
0000
0000
0001
0000
0001
0000
,
1000
0000
0000
0010
0000
0000
0001
0000
0000
0010
0000
0000
1000
0000
1000
0000
,
0001
0000
0000
0010
0000
0000
1000
0000
0000
0010
0000
0000
0001
0000
0000
0000
,
1001
0000
0000
0001
0000
0000
0100
0000
0000
0100
0000
0000
0010
0000
1000
0000
,
1001
0000
0000
1000
0000
0000
0100
0000
0000
0100
0000
0000
0010
0000
0001
0000
,
0001
0000
0000
1000
0000
0000
0001
0000
0000
0100
0000
0000
0010
0000
1000
0000
,
0100
0000
0000
1000
0000
0000
0001
0000
0000
1000
0000
0000
1001
0000
0000
0000
,
0001
0000
0010
0100
0000
1000
0000
0001
,
0100
0010
0000
1000
0000
0001
0010
0000
,
0100
0000
0010
0001
0000
1000
0000
0001
,
0100
1000
0000
0100
0000
0001
0000
1000
,
0100
0000
0010
0001
0000
1000
0000
0001
,
0010
0100
0000
0001
0000
0100
0010
0000
,
0001
0000
1000
0001
0000
0100
0000
0010
,
0000
0110
0000
0110
0000
0110
0000
0100
,
2002
0000
0000
0000
,
0000
0000
0000
3003
,
2000
0000
3002
0000
,
2003
3200
0302
0203
,
2300
0000
3002
0203
,
2300
3200
0302
0000
,
2003
0000
3002
0000
,
2003
3020
0032
0023
,
2030
0000
3002
0000
,
0200
0000
0000
0303
,
0001
0000
0000
0010
0000
0000
0100
0000
0000
1000
0000
0000
0001
0000
0001
0000
,
0100
0000
0000
0010
0000
0000
0100
0000
0000
0001
0000
0000
1000
0000
1000
0000
,
0100
0000
0000
0010
0000
0000
0100
0000
0000
1000
0000
0000
0010
0000
0010
0000
,
0100
0000
0000
0001
0000
0000
1000
0000
0000
0100
0000
0000
1000
0000
1000
0000
,
0001
0000
0000
0001
0000
0000
0010
0000
0100
0000
0000
1000
0000
0000
1000
0000
,
0001
0000
0000
0001
0000
0000
0100
0000
0010
0000
0000
0010
0000
0000
1000
0000
,
0001
0010
0001
0010
0100
1000
0100
1000
,
0001
1000
0001
1000
0001
1000
0001
1000
,
0000
0000
0000
0000
,
0001
0001
1000
1000
0001
0001
1001
0000
,
0001
0001
0000
1000
0000
0010
0100
0000
,
0001
0010
0000
1000
0000
0010
0000
0100
,
1000
0000
0001
0100
0000
0010
1000
0000
,
0100
0000
0010
0001
0000
1000
0001
0100
,
0001
0010
0000
0100
0000
0010
0001
0000
,
1000
0010
0000
0100
0000
0001
1000
0000
,
0001
0010
0100
1000
0000
0001
0100
0000
,
0010
0000
1000
0000
0001
0000
1000
0000
0100
0000
1000
0000
2002
3003
0000
0000
,
1000
0100
1000
0001
0000
0100
0010
1000
,
0000
0001
0010
0100
0000
0010
0001
0000
,
1000
0001
0100
0001
0000
0010
0100
0010
,
0000
0001
1000
0010
0100
0001
1000
0000
,
0001
0000
0000
0011
0000
0000
1000
0000
0000
1010
0000
0000
0001
0000
0001
0000
,
1000
0000
0000
1100
0000
0000
0001
0000
0000
0101
0000
0000
1000
0000
1000
0000
,
0100
0010
0001
0100
0100
0010
1000
0001
,
0000
0011
0000
1010
0000
0101
0000
1000
,
1001
0000
0000
0000
;

//--------------- dance-single - Fred-104 ----------------
#NOTEDATA:;
#STEPSTYPE:dance-single;
#DESCRIPTION:Fred-104;
#DIFFICULTY:Hard;
#METER:15;
#CREDIT:Fred-104;
#NOTES:
0000
0000
0000
0000
,
0000
0000
0000
0000
,
0000
0000
0000
0000
,
0000
0000
0000
0000
,
0000
0000
0000
0000
,
0000
0000
0000
0000
,
1000
0000
0000
0010
0000
0000
0100
0000
0000
0001
0000
0000
1000
0000
0100
0000
,
0010
0000
0000
0001
0000
0000
1000
0000
0000
0010
0000
0000
0100
0000
0001
0000
,
1000
0100
1000
0000
0001
0010
0001
0000
1000
0010
1000
0000
0001
0100
0001
0000
,
1000
0001
1000
0000
0010
0100
0010
0000
1000
0001
1000
0001
2000
0000
0000
0000
,
3001
0000
0100
0001
0000
1000
0001
0000
0010
0001
0000
1000
0001
0000
0010
0000
,
0100
0000
1000
0001
0000
0100
0010
0000
1000
0001
0000
0010
0100
0000
1000
0000
,
0001
0000
0100
0001
0000
1000
0001
0000
0010
0001
0000
1000
0010
0000
0100
0000
,
0001
0000
1000
0100
0000
1000
0001
0000
0100
0010
0000
1000
0010
0000
0100
0000
,
0001
0000
1000
0100
0000
0010
0001
0000
1000
0010
0000
0100
0001
0000
1000
0000
,
0001
0000
0010
0100
0000
1000
0001
0000
0100
0010
0000
1000
0001
0000
0010
0000
,
0100
0000
1000
0001
0000
0010
0001
0000
1000
0001
0000
0100
0001
0000
1000
0000
,
0100
0000
0010
0001
0000
1000
0100
0000
0010
0001
1000
0100
1000
0000
0000
0000
,
2001
0000
0000
3002
0000
0000
0203
0000
0000
0320
0000
0000
1030
0000
0001
0000
,
0020
0000
0000
0230
0000
0000
2300
0000
3001
1000
0000
0001
0100
0000
0010
0000
,
0200
0000
0000
0302
0000
0000
2003
0000
0000
3200
0000
0000
0310
0000
0001
0000
,
2000
0000
0000
3002
0000
0000
0203
0000
0310
1000
0000
0001
0010
0000
0100
0000
,
1100
0000
0000
0101
0000
0000
1010
0000
0000
0011
0000
0000
0001
0000
1000
0000
,
1010
0000
0000
0011
0000
0000
1100
0000
0000
0101
0000
0000
0001
0000
1000
0000
,
1001
0000
0000
0110
0000
0000
1001
0000
0001
0100
0001
0100
0010
0000
1000
0000
,
0001
0010
0001
0000
1000
0100
1000
0000
0001
0100
0010
1000
0002
0000
0000
0000
,
1003
0000
1000
0200
0000
0320
0000
0032
,
0103
0020
0000
0032
0000
0023
2030
0000
,
3001
0000
0001
0200
0000
2300
0000
3200
,
0310
2000
0000
3200
0000
0320
0031
1000
,
1001
0000
0000
0001
0100
0000
0010
0000
0000
0100
0001
0000
1000
0000
0100
0000
,
0110
0000
0000
0010
0001
0000
1000
0000
0000
0001
0100
0000
0010
0000
1000
0000
,
0001
0000
0010
0000
0100
1000
0100
0000
0010
0100
0010
0001
1000
0000
0001
0000
,
0000
0101
0000
1100
0000
1010
0000
0011
,
2002
0000
0000
0000
,
0000
0000
0000
3003
,
2000
0000
3020
0000
,
0032
0203
2300
3002
,
0203
0000
0320
2030
,
3002
0023
0230
0000
,
2300
0000
3200
0000
,
0302
0023
2030
3002
,
0023
0000
0230
0000
,
2000
0000
0000
3300
,
1010
0000
0000
1000
0000
0000
0001
0000
0000
0100
0000
0000
0001
1000
0001
1000
,
0001
0000
0000
0010
0000
0000
0100
0000
0000
1000
0000
0000
0001
0100
0001
0100
,
0001
0000
0000
1000
0000
0000
0001
0000
0000
0010
0000
0000
0100
1000
0100
1000
,
0100
0000
0000
1000
0000
0000
0001
0000
0000
0100
0000
0000
0001
1000
0001
1000
,
0001
0000
0000
0010
0000
0000
0010
0000
1000
0000
0000
0100
0000
0000
0100
0000
,
0001
0000
0000
0100
0000
0000
0100
0000
1000
0000
0000
0010
0000
0000
0010
0000
,
0001
0100
0001
0000
1000
0100
1000
0000
0001
0100
0001
0000
1000
0100
1000
0000
,
0001
1000
0001
1000
0001
1000
0001
1000
0001
1000
0001
1000
0001
1000
0001
1000
,
0000
0000
0000
0000
,
0100
0010
0100
0010
0100
0010
0100
0010
0100
0010
0100
0010
0100
0000
0000
0000
,
1000
0100
0010
1000
0010
0100
1000
0000
,
0001
0100
0010
0001
0010
0100
0010
1000
,
0001
0010
0100
0001
0100
1000
0001
0000
,
1000
0000
0010
0000
0001
0000
0010
0000
0100
0000
0001
0100
0001
0000
1000
0000
,
0100
0010
1000
0010
0100
0010
0001
0000
,
1000
0001
0100
1000
0100
0010
1000
0001
,
0010
0000
0100
1000
0100
0000
0010
0000
0001
1000
0001
0000
0100
0000
0010
0000
,
0100
0010
0100
0000
0001
1000
0001
0000
1000
0100
1000
0100
0020
0000
0000
0000
,
0031
0000
0100
0010
0100
0000
0001
0000
1000
0100
1000
0000
0001
0100
0001
0000
,
1000
0010
1000
0000
0001
0010
0001
0000
1000
0001
0010
0100
1000
0000
0000
0000
,
0001
0000
0010
0100
0010
0000
0001
0000
1000
0010
1000
0000
0001
0010
0001
0000
,
1000
0100
1000
0000
0001
0100
0001
0000
1000
0010
0100
0001
0100
0000
0010
0000
,
1010
0000
0000
0011
0000
0000
1100
0000
0000
0101
0000
0000
0001
0000
0100
0000
,
0110
0000
0000
1010
0000
0000
0101
0000
0000
1100
0000
0000
0100
0010
0100
0010
,
0001
0010
1000
0010
0001
0100
1000
0100
,
0000
0101
0000
1100
0000
0011
0000
1010
,
1001
0000
0000
0000
;

//--------------- dance-single - Fred-104 ----------------
#NOTEDATA:;
#STEPSTYPE:dance-single;
#DESCRIPTION:Fred-104;
#DIFFICULTY:Challenge;
#METER:17;
#CREDIT:Fred-104;
#NOTES:
0000
0000
0000
0000
,
0000
0000
0000
0000
,
0000
0000
0000
0000
,
0000
0000
0000
0000
,
0000
0000
0000
0000
,
0000
0000
0000
0000
,
0001
0000
0001
0010
0000
0010
0100
0000
0100
1000
0000
1000
0001
0000
0100
0000
,
0010
0000
1000
0001
0000
0001
0010
0000
0010
0100
0000
0100
1000
0000
0001
0000
,
1000
0010
1000
0010
1000
0010
1000
0010
1000
0010
1000
0010
1000
0010
1000
0010
,
0100
0001
0100
0001
0100
0001
0100
0001
0100
0001
0100
0001
1000
0000
0000
0000
,
1001
0000
1000
0010
0000
1000
0001
0000
1000
0100
0000
0010
0100
0000
1000
0000
,
0001
0000
0100
0001
0000
1000
0001
0000
0010
0100
0000
0010
0001
0000
1000
0000
,
0010
0000
0100
0001
0000
1000
0001
0000
0010
0001
0000
1000
0001
0000
0100
0000
,
0010
0000
1000
0001
0000
0010
0100
0000
1000
0001
0000
1000
0010
0000
1000
0000
,
0001
0000
1000
0100
0000
0010
0001
0000
1000
0010
0000
1000
0100
0000
0010
0000
,
0001
0000
1000
0010
0000
0100
0001
0000
0010
0100
0000
0010
0001
0000
1000
0000
,
0001
0010
0001
0010
0001
0010
0001
0010
0100
1000
0100
1000
0100
1000
0100
1000
,
0001
1000
0001
1000
0001
1000
0001
1000
0001
1000
0001
1000
0001
0000
0000
0000
,
1000
0000
0000
0010
0000
0000
0100
0000
1000
0100
0010
0100
0001
0000
1000
0000
,
0100
0000
0000
0001
0000
0000
0100
0000
0010
0100
1000
0001
1000
0000
0001
0000
,
1000
0000
0000
0001
0000
0000
0100
0000
1000
0100
0010
1000
0001
0000
1000
0000
,
0100
0000
0000
0010
0000
0000
1000
0000
0010
0100
0010
0001
1000
0000
0010
0000
,
1010
0000
0000
0101
0000
0000
1100
0000
0000
0011
0000
0000
1001
0000
0100
0000
,
1100
0000
0000
0101
0000
0000
1010
0000
1000
0001
0000
0100
0010
0000
1000
0000
,
0001
1000
0001
1000
0001
1000
0001
1000
0100
0010
0100
0010
0100
0010
0100
0010
,
0001
1000
0001
1000
0010
0100
0010
0100
0001
1000
0100
0010
0001
0000
0000
0000
,
1001
0000
1000
0100
0001
1000
0001
0100
,
1000
0000
0001
0000
0100
0000
1000
0000
0001
0000
0010
1000
0001
0000
0000
0000
,
1001
0000
0001
0100
1000
0001
1000
0100
,
0001
0000
1000
0000
0100
0000
0001
0000
1000
0000
0010
0001
0100
0000
0010
0000
,
1010
0000
0000
0101
0000
0000
1100
0000
0000
0110
0000
0000
0011
0000
0100
0000
,
1001
0000
0000
1100
0000
0000
0101
0000
0000
1010
0000
0000
0011
0000
1000
0000
,
0001
1000
0001
1000
0001
1000
0001
1000
0001
1000
0001
1000
0001
0000
0100
0000
,
0001
0000
1000
0100
0010
0000
0001
0100
0010
0000
1000
0100
0010
0000
0001
0100
,
0020
0000
0000
0000
,
0000
0000
0030
0000
,
2000
0000
3002
0000
,
2003
3020
0032
0203
,
2300
0000
3002
0203
,
2300
3020
0032
0000
,
2003
0000
3002
0000
,
0203
0320
0032
0023
,
2030
0000
3200
0000
,
0320
0000
0000
0030
,
0001
0000
0000
0010
0000
0000
0100
0000
0000
1000
0000
0000
0001
0100
0010
1000
,
0100
0000
0000
0010
0000
0000
0001
0000
0000
1000
0000
0000
0010
1000
0100
1000
,
0001
0000
0000
0100
0000
0000
0010
0000
0000
1000
0000
0000
0100
0010
0001
1000
,
0010
0000
0000
1000
0000
0000
0001
0000
0000
0010
0000
0000
0100
0010
0001
0100
,
0010
1000
0010
1000
0010
1000
0010
1000
0001
0010
0001
0010
0001
0010
0001
0010
,
0100
1000
0100
1000
0100
1000
0100
1000
0001
0100
0001
0100
0001
0100
0001
0100
,
0001
1000
0001
1000
0001
1000
0001
1000
0001
1000
0001
1000
0001
1000
0001
1000
,
0100
0010
0100
0010
0100
0010
0100
0010
0100
0010
0100
0010
0100
0010
0100
0010
,
0000
0000
0000
0000
,
0001
1000
0001
1000
0001
1000
0001
1000
0001
1000
0001
1000
0001
0000
0000
0000
,
1000
0000
0001
0100
0010
0000
1000
0001
0010
0000
0100
0010
0002
0000
0000
0000
,
1003
0000
0010
1000
0001
0000
0010
0100
1000
0000
0001
1000
0010
0000
1000
0000
,
0001
0000
1000
0010
0100
0000
0001
0000
1000
0000
0100
0010
0002
0000
0000
0000
,
1003
0000
0001
0100
0010
0000
1000
0000
0001
0010
0100
0010
0001
0000
1000
0000
,
0001
0000
0100
0001
1000
0000
0100
0010
0001
0000
1000
0010
0200
0000
0000
0000
,
0301
0000
1000
0001
0010
0000
0100
0010
0001
0000
1000
0001
0100
0000
0010
0000
,
1000
0001
1000
0001
1000
0001
1000
0001
1000
0001
1000
0001
1000
0001
1000
0001
,
0010
0100
0010
0100
0010
0100
0010
0100
0010
0100
0010
0100
1000
0000
0000
0000
,
0001
0100
0010
0100
0001
0000
1000
0000
0100
0010
0001
0010
0100
0000
1000
0000
,
0001
1000
0010
0000
1000
0001
0010
0000
0100
0010
0001
1000
0020
0000
0000
0000
,
1030
0001
0100
0001
1000
0000
0100
0000
0010
0100
1000
0001
0100
0000
0010
0000
,
1000
0001
0010
0000
0100
0010
0001
0000
1000
0010
1000
0001
0010
0100
0010
0001
,
1000
0100
0001
1000
0010
0100
2000
0000
,
3001
0100
1000
0001
1000
0100
0001
0010
,
0100
1000
0100
1000
0100
1000
0100
1000
0100
1000
0100
1000
0100
1000
0100
1000
,
0001
1000
0001
1000
0001
1000
0001
1000
0001
1000
0001
1000
0001
1000
0001
1000
,
0001
0000
0000
0000
;

//--------------- dance-double - Fred-104 ----------------
#NOTEDATA:;
#STEPSTYPE:dance-double;
#DESCRIPTION:Fred-104;
#DIFFICULTY:Easy;
#METER:7;
#CREDIT:Fred-104;
#NOTES:
00000000
00000000
00000000
00000000
,
00000000
00000000
00000000
00000000
,
00000000
00000000
00000000
00000000
,
00000000
00000000
00000000
00000000
,
00000000
00000000
00000000
00000000
,
00000000
00000000
00000000
00000000
,
00002000
00000000
00003000
00002000
00000000
00003000
00100000
00000000
,
00020000
00000000
00030000
00020000
00000000
00030000
10000000
00000000
,
02000000
00000000
03000000
02000000
00000000
03000000
00100000
00000000
,
00001000
00001000
00010000
00011000
,
00010000
00000000
00000000
00001000
00000000
00000000
00000010
00000000
,
00000100
00000000
00000000
00001000
00000000
00000000
00000001
00000000
,
00000010
00000000
00000000
00000100
00000000
00000000
00010000
00000000
,
00001000
01000000
01100000
00000000
,
00010000
00000000
00000000
10000000
00000000
00000000
00100000
00000000
,
10000000
00000000
00000000
01000000
00000000
00000000
00100000
00000000
,
01000000
00000000
00000000
00100000
00000000
00000000
00001000
00000000
,
00010000
00001000
00011000
00000000
,
00010000
00000000
00000000
00001000
00000000
00000000
00000100
00000000
,
00000001
00000000
00000000
00001000
00000000
00000000
00000001
00000000
,
00000010
00000000
00000000
00001000
00000000
00000000
00010000
00000000
,
01000000
00000000
00000000
00100000
00000000
00000000
00010000
00000000
,
10010000
00000000
00000000
10000000
00000000
00000000
01000000
00000000
,
01100000
00000000
00000000
00100000
00000000
00000000
00001000
00000000
,
00010000
00001000
00000100
00000010
,
00010000
00001000
00011000
00000000
,
00010000
00000000
00000000
00001000
00000000
00010000
00000000
00000100
,
00000000
00010000
00000000
00000100
00000000
00000000
00001000
00000000
,
00000001
00000000
00000000
00000010
00000000
00000001
00000000
00000010
,
00000000
00000100
00000000
00010000
00000000
00001000
00000000
00010000
,
00001000
00000000
00000000
00100000
00000000
00010000
00000000
10000000
,
00000000
00010000
00000000
10000000
00000000
01000000
01000000
00000000
,
00100000
00000000
00001000
00000000
00010000
00000000
00001000
00001000
,
00000000
00000000
00000000
00000010
00000000
00001000
00000000
00000000
,
00002002
00000000
00000000
00000000
,
00000000
00000000
00003003
00000000
,
00000002
00000000
00002003
00000000
,
00003002
00000203
00002300
00023000
,
00032000
00000000
00023000
00230000
,
02300000
03020000
20030000
00000000
,
32000000
00000000
03200000
00000000
,
00302000
00023000
00030020
00020030
,
00032000
00000000
00023000
00000000
,
00002000
00000000
00000000
00033000
,
00010000
00000000
00000000
00001000
00000000
00000000
00010000
00000000
,
00000010
00000000
00000000
00001000
00000000
00000000
00000010
00000000
,
00000100
00000000
00000000
00000001
00000000
00000000
00000010
00000000
,
00000100
00000000
00000000
00010000
00000000
00000000
00001000
00000000
,
00010000
00000000
00001000
00000000
,
00000010
00000000
00000100
00000000
,
00010000
00010000
00001000
00001000
,
00000010
00000010
00000100
00000100
,
00000000
00000000
00000000
00000000
,
00022000
00000000
00000000
00033000
,
00001000
00000000
00000000
00010000
00000000
00000000
00100000
00000000
,
01000000
00000000
00000000
00010000
00000000
00000000
10000000
00000000
,
01000000
00000000
00000000
00100000
00000000
00000000
00001000
00000000
,
00010000
00000000
00000000
00001000
00000000
00001000
00010000
00000000
,
00001000
00000000
00000000
00010000
00000000
00000000
00000100
00000000
,
00001000
00000000
00000000
00000001
00000000
00000000
00000100
00000000
,
00000010
00000000
00000000
00001000
00000000
00000000
00000100
00000000
,
00010000
00001000
00010000
00011000
,
01100000
00000000
00000000
00010000
00000000
10000000
00000000
00010000
,
00000000
10000000
00000000
01000000
00000000
00100000
00100000
00000000
,
00001000
00000000
00000000
00010000
00000000
00001000
00000000
00010000
,
00000000
00000010
00000000
00010000
00000000
00001000
00010000
00000000
,
00011000
00000000
00000000
00010000
00000000
00000000
00000100
00000000
,
00001000
00000000
00000000
00000001
00000000
00000000
00001000
00000000
,
00000100
00000000
00010000
00000000
00000100
00000000
00010000
00001000
,
00000000
00010000
00000000
00100000
00000000
10000000
00000000
00010000
,
10010000
00000000
00000000
00000000
;

//--------------- dance-double - Fred-104 ----------------
#NOTEDATA:;
#STEPSTYPE:dance-double;
#DESCRIPTION:Fred-104;
#DIFFICULTY:Medium;
#METER:11;
#CREDIT:Fred-104;
#NOTES:
00000000
00000000
00000000
00000000
,
00000000
00000000
00000000
00000000
,
00000000
00000000
00000000
00000000
,
00000000
00000000
00000000
00000000
,
00000000
00000000
00000000
00000000
,
00000000
00000000
00000000
00000000
,
00000001
00000000
00000000
00001000
00000000
00000000
00000010
00000000
00000000
00010000
00000000
00000000
00002000
00000000
00010000
00000000
,
00013000
00000000
00000000
00000010
00000000
00000000
00001000
00000000
00000000
00000010
00000000
00000000
00020000
00000000
00001000
00000000
,
00031000
00000000
00000000
00100000
00000000
00000000
00010000
00000000
00000000
00100000
00000000
00000000
01000000
00000000
01000000
00000000
,
10000000
00000000
00000000
01000000
00000000
00000000
00100000
00000000
00000000
00001000
00000000
00000000
00011000
00000000
00000000
00000000
,
00010000
00000000
00000000
00001000
00000000
00000000
00000010
00000000
00000000
00000001
00000000
00000000
00001000
00000000
00000100
00000000
,
00000010
00000000
00000000
00000001
00000000
00000000
00000100
00000000
00000000
00000010
00000000
00000000
00000100
00000000
00001000
00000000
,
00010000
00000000
00000000
00100000
00000000
00000000
01000000
00000000
00000000
00100000
00000000
00000000
10000000
00000000
00010000
00000000
,
00100000
00000000
00000000
00001000
00000000
00000000
00010000
00000000
00000000
00000010
00000000
00000000
00001010
00000000
00000000
00000000
,
00001000
00000000
00000000
00000001
00000000
00000000
00000010
00000000
00000000
00001000
00000000
00000000
00010000
00000000
01000000
00000000
,
00100000
00000000
00000000
01000000
00000000
00000000
10000000
00000000
00000000
00010000
00000000
00000000
01000000
00000000
00001000
00000000
,
00010000
00000000
00000000
00001000
00000000
00000000
00000010
00000000
00000000
00000100
00000000
00000000
00001000
00000000
00000001
00000000
,
00000100
00000000
00000000
00001000
00000000
00000000
00010000
00000000
00000000
00001000
00000000
00000000
00011000
00000000
00000000
00000000
,
00010000
00000000
00000000
00001000
00000000
00000000
00000010
00000000
00000000
00001000
00000000
00000000
00010000
00000000
00010000
00000000
,
00001000
00000000
00000000
00010000
00000000
00000000
00100000
00000000
00000000
00010000
00000000
00000000
00001000
00000000
00001000
00000000
,
00010000
00000000
00000000
00001000
00000000
00000000
00000100
00000000
00000000
00001000
00000000
00000000
00010000
00000000
00010000
00000000
,
00001000
00000000
00000000
00010000
00000000
00000000
01000000
00000000
00000000
00010000
00000000
00000000
00001000
00000000
00000000
00000000
,
00011000
00000000
00000000
00000010
00000000
00000000
00001000
00000000
00000000
00000010
00000000
00000000
00010000
00000000
00001000
00000000
,
00011000
00000000
00000000
00001000
00000000
00000000
00100000
00000000
00000000
00010000
00000000
00000000
10000000
00000000
01000000
00000000
,
00100000
00000000
00000000
00001000
00000000
00000000
00010000
00000000
00000000
00100000
00000000
00000000
01000000
00000000
00001000
00000000
,
00010000
00000000
00000000
01000000
00000000
00000000
10000000
00000000
00000000
01000000
00000000
00000000
01100000
00000000
00000000
00000000
,
10000000
00000000
01000000
00100000
00000000
00001000
00000000
00010000
,
00001000
00010000
00000000
00000010
00000000
00001000
00000001
00000000
,
00000100
00000000
00000010
00000100
00000000
00000001
00000000
00000010
,
00000100
00000010
00000000
00001000
00000000
00010000
00000000
01000000
,
00100000
00000000
00000000
00010000
00000000
00000000
10000000
00000000
00000000
00100000
00000000
00000000
01000000
00000000
00010000
00000000
,
10000000
00000000
00000000
01000000
00000000
00000000
00010000
00000000
00000000
00001000
00000000
00000000
00000010
00000000
00000100
00000000
,
00001000
00000000
00000001
00000010
00000000
00001000
00000000
00010000
,
00000000
00011000
00000000
00110000
00000000
01100000
00000000
01000000
,
20020000
00000000
00000000
00000000
,
00000000
00000000
00000000
30030000
,
20000000
00000000
30200000
00000000
,
00320000
00032000
00003200
00000320
,
00002030
00000000
00003020
00000230
,
00000302
00002003
00003020
00000000
,
00020030
00000000
00032000
00000000
,
00023000
00032000
00203000
00320000
,
20030000
00000000
30200000
00000000
,
02000000
00000000
00000000
03300000
,
00100000
00000000
00000000
10000000
00000000
00000000
00010000
00000000
00000000
10000000
00000000
00000000
01000000
00000000
00100000
00000000
,
00001000
00000000
00000000
00010000
00000000
00000000
00001000
00000000
00000000
00000100
00000000
00000000
00000001
00000000
00001000
00000000
,
00000001
00000000
00000000
00000100
00000000
00000000
00000010
00000000
00000000
00000100
00000000
00000000
00001000
00000000
00010000
00000000
,
00100000
00000000
00000000
10000000
00000000
00000000
00010000
00000000
00000000
00100000
00000000
00000000
01000000
00000000
00100000
00000000
,
00010000
00000000
00000000
10000000
00000000
00000000
01000000
00000000
00010000
00000000
00000000
00001000
00000000
00000000
00000010
00000000
,
00000001
00000000
00000000
00000100
00000000
00000000
00001000
00000000
00010000
00000000
00000000
00100000
00000000
00000000
10000000
00000000
,
00010000
00100000
01000000
10000000
00010000
01000000
00100000
10000000
,
01000000
01000000
00100000
00100000
00001000
00001000
00010000
00010000
,
00000000
00000000
00000000
00000000
,
00010000
00010000
00001000
00001000
00010000
00010000
00011000
00000000
,
00010000
00010000
00000000
00001000
00000000
00000100
00000001
00000000
,
00001000
00000100
00000000
00000010
00000000
00000001
00000000
00001000
,
00000010
00000000
00010000
00001000
00000000
00000100
00000010
00000000
,
00010000
00000000
00000100
00001000
00000000
00010000
00100000
01000000
,
10000000
00010000
00000000
00100000
00000000
00001000
00010000
00000000
,
00001000
01000000
00000000
00100000
00000000
01000000
00001000
00000000
,
00010000
00001000
00000010
00000100
00000000
00001000
00000100
00000000
,
00000010
00000000
00000001
00000000
00000100
00000000
00001000
00000000
00010000
00000000
00001000
00000000
00022000
00033000
00000000
00000000
,
00001000
00010000
00100000
01000000
00000000
00001000
00010000
01000000
,
00000000
00010000
00001000
00000100
00000000
00001000
00010000
00000000
,
00001000
00010000
00100000
10000000
00000000
00010000
10000000
01000000
,
00000000
00100000
00001000
00010000
00001000
00000010
00000100
00001000
,
00000001
00000100
00000010
00000100
00000000
00001000
00010000
00000000
,
00100000
01000000
00100000
10000000
00000000
00010000
10000000
01000000
,
00100000
00000000
00001000
00000000
00010000
00000100
00001000
00000001
,
00000000
00000101
00000000
00001010
00000000
00000011
00000000
00001000
,
00001001
00000000
00000000
00000000
;

//--------------- dance-double - Fred-104 ----------------
#NOTEDATA:;
#STEPSTYPE:dance-double;
#DESCRIPTION:Fred-104;
#DIFFICULTY:Hard;
#METER:15;
#CREDIT:Fred-104;
#NOTES:
00000000
00000000
00000000
00000000
,
00000000
00000000
00000000
00000000
,
00000000
00000000
00000000
00000000
,
00000000
00000000
00000000
00000000
,
00000000
00000000
00000000
00000000
,
00000000
00000000
00000000
00000000
,
00010000
00000000
00000000
00001000
00000000
00000000
00010000
00000000
00000000
00001000
00000000
00000000
00000010
00000000
00000100
00000000
,
00001000
00000000
00000000
00000001
00000000
00000000
00000100
00000000
00000000
00000010
00000000
00000000
00000100
00000000
00001000
00000000
,
00010000
00000000
00000000
00100000
00000000
00000000
01000000
00000000
00000000
00100000
00000000
00000000
10000000
00000000
01000000
00000000
,
00100000
00000000
00000000
00001000
00000000
00000000
00010000
00000000
00000000
00001000
00000000
00000000
00011000
00000000
00000000
00000000
,
00010000
00000000
00000010
00001000
00000000
00000010
00010000
00000000
00000010
00001000
00000000
00000010
00010000
00000000
00000010
00000000
,
00001000
00000000
00000001
00000010
00000000
00000100
00000010
00000000
00000001
00000010
00000000
00000100
00000010
00000000
00000001
00000000
,
00001000
00000000
00000100
00010000
00000000
00001000
00010000
00000000
00000100
00010000
00000000
00001000
00010000
00000000
00000100
00000000
,
00010000
00000000
00001000
01000000
00000000
00010000
01000000
00000000
00001000
01000000
00000000
00010000
01000000
00000000
00001000
00000000
,
00010000
00000000
00000010
00000100
00000000
00000001
00000100
00000000
00000010
00001000
00000000
00000001
00000010
00000000
00000100
00000000
,
00001000
00000000
00000001
00000100
00000000
00000010
00010000
00000000
00001000
00100000
00000000
00010000
00100000
00000000
00001000
00000000
,
00010000
00000000
00001000
01000000
00000000
00010000
01000000
00000000
00100000
10000000
00000000
00010000
00100000
00000000
00010000
00000000
,
10000000
00000000
00100000
00010000
00000000
00001000
00000100
00000000
00000010
00001000
00000000
00000001
00002000
00000000
00000000
00000000
,
00003002
00000000
00000000
00000203
00000000
00000000
00002300
00000000
00000000
00023000
00000000
00000000
00031000
00000000
00000100
00000000
,
00000002
00000000
00000000
00000023
00000000
00000000
00000230
00000000
00010300
00001000
00000000
00001000
00100000
00000000
00010000
00000000
,
20000000
00000000
00000000
32000000
00000000
00000000
03200000
00000000
00000000
00302000
00000000
00000000
00013000
00000000
00100000
00000000
,
20000000
00000000
00000000
30020000
00000000
00000000
20030000
00000000
31000000
00100000
00000000
00100000
00001000
00000000
00010000
00000000
,
00011000
00000000
00000000
00010010
00000000
00000000
00011000
00000000
00000000
00010100
00000000
00000000
00000100
00000000
00001000
00000000
,
00001001
00000000
00000000
00001010
00000000
00000000
00000101
00000000
00000000
00001100
00000000
00000000
00000100
00000000
00000010
00000000
,
00000011
00000000
00000000
00001010
00000000
00000000
00000101
00000000
00000001
00000010
00000100
00001000
00000100
00000000
00010000
00000000
,
00001000
00100000
00001000
00000000
00100000
00010000
00100000
00000000
00010000
10000000
00010000
10000000
00020000
00000000
00000000
00000000
,
10030000
00000000
00010000
01000000
00100000
00010000
00001000
00000100
,
00000010
00001000
00000100
00000010
00000001
00001000
00000100
00000000
,
00010000
00000000
00001000
00010000
00100000
01000000
00001000
00010000
,
00100000
10000000
01000000
00010000
00000100
00000010
00000001
00001000
,
00001100
00000000
00000000
00001010
00000000
00000000
00000101
00000000
00000000
00000011
00000000
00000000
00000001
00000000
00001000
00000000
,
00001100
00000000
00000000
00010100
00000000
00000000
01001000
00000000
00000000
00011000
00000000
00000000
00001000
00000000
00100000
00000000
,
00010000
00000000
10000000
01000000
10000000
00000000
00010000
01000000
00100000
10000000
01000000
00000000
00100000
00000000
00101000
00000000
,
00000000
00010010
00000000
01001000
00000000
00010100
00000000
00010000
,
00022000
00000000
00000000
00000000
,
00000000
00000000
00000000
00033000
,
00020000
00000000
00032000
00000000
,
00003020
00000032
00002003
00003002
,
00000203
00000000
00002300
00023000
,
00230000
02300000
03020000
00000000
,
20030000
00000000
32000000
00000000
,
03020000
00032000
00003020
00000032
,
00002003
00000000
00003002
00000000
,
00002000
00000000
00000000
00003003
,
00000011
00000000
00000000
00000001
00000000
00000000
00001000
00000000
00000000
00000100
00000000
00000000
00010000
00001000
00010000
00001000
,
00010000
00000000
00000000
00000010
00000000
00000000
00001000
00000000
00000000
00000010
00000000
00000000
00000100
00000001
00000100
00000001
,
00000100
00000000
00000000
00000001
00000000
00000000
00000010
00000000
00000000
00001000
00000000
00000000
00010000
00001000
00010000
00001000
,
00010000
00000000
00000000
01000000
00000000
00000000
00100000
00000000
00000000
00010000
00000000
00000000
10000000
00100000
10000000
00100000
,
10000000
00000000
00000000
01000000
00000000
00000000
00010000
00000000
00001000
00000000
00000000
00000010
00000000
00000000
00000001
00000000
,
00000001
00000000
00000000
00000100
00000000
00000000
00001000
00000000
00010000
00000000
00000000
00100000
00000000
00000000
10000000
00000000
,
01000000
00010000
00001000
00000100
00000001
00001000
00000100
00000001
,
00000100
00001000
00000001
00000010
00001000
00010000
00100000
10000000
,
00000000
00000000
00000000
00000000
,
10000000
00010000
10000000
00010000
10000000
00010000
10000000
00010000
10000000
00010000
10000000
00010000
10000000
00000000
00000000
00000000
,
00010000
10000000
00100000
00010000
00001000
00010000
00100000
00000000
,
01000000
00001000
00010000
00001000
00000010
00000100
00001000
00000001
,
00000100
00000000
00010000
01000000
10000000
01000000
00010000
00000000
,
10000000
00000000
00000000
00000000
01000000
00000000
00010000
00000000
00001000
00000000
00000010
00000100
00001000
00000000
00000001
00000000
,
00000010
00001000
00010000
00001000
00000010
00000100
00010000
00000000
,
00000100
00010000
00001000
00010000
00100000
10000000
00010000
00000000
,
00100000
01000000
00010000
00001000
00000010
00000100
00001000
00010000
,
00001000
00000100
00000010
00001000
00010000
00001000
01000000
00000000
,
00010000
00100000
10000000
00100000
00001000
00010000
00001000
00000010
,
00001000
00010000
00001000
00000100
00000010
00001000
00000001
00000000
,
00001000
00000001
00000100
00010000
01000000
10000000
01000000
00010000
,
00100000
00001000
00010000
00100000
00010000
00001000
00010000
00000010
,
00001000
00000001
00000010
00001000
00010000
01000000
10000000
00000000
,
00010000
10000000
00100000
00010000
00001000
00000100
00000001
00001000
,
00000001
00000100
00000001
00000000
00001000
00000100
00001000
00000000
00000010
00010000
00000010
00000000
00010000
00001000
00010000
00000000
,
00001000
00010000
00001000
00010000
00001000
00010000
00001000
00010000
00001000
00010000
00001000
00010000
00001000
00010000
00001000
00010000
,
00001000
00000000
00000000
00000000
;

//--------------- dance-double - Fred-104 ----------------
#NOTEDATA:;
#STEPSTYPE:dance-double;
#DESCRIPTION:Fred-104;
#DIFFICULTY:Challenge;
#METER:17;
#CREDIT:Fred-104;
#NOTES:
00000000
00000000
00000000
00000000
,
00000000
00000000
00000000
00000000
,
00000000
00000000
00000000
00000000
,
00000000
00000000
00000000
00000000
,
00000000
00000000
00000000
00000000
,
00000000
00000000
00000000
00000000
,
00010000
00000000
00010000
00001000
00000000
00001000
00000100
00000000
00000100
00000010
00000000
00000010
00001000
00000000
00000001
00000000
,
00000010
00000000
00000010
00000100
00000000
00000100
00010000
00000000
00010000
00001000
00000000
00001000
01000000
00000000
00010000
00000000
,
10000000
00010000
10000000
00010000
10000000
00010000
10000000
00010000
10000000
00010000
10000000
00010000
10000000
00010000
10000000
00010000
,
00100000
01000000
00100000
01000000
00100000
01000000
00100000
01000000
00100000
01000000
00100000
01000000
10000000
00000000
00000000
00000000
,
00010000
00000000
10000000
00100000
00000000
01000000
00010000
00000000
10000000
00100000
00000000
01000000
00010000
00000000
10000000
00000000
,
01000000
00000000
00100000
00001000
00000000
00010000
00001000
00000000
00100000
00001000
00000000
00010000
00001000
00000000
00000100
00000000
,
00000001
00000000
00001000
00000100
00000000
00000010
00000001
00000000
00001000
00000100
00000000
00000010
00000001
00000000
00001000
00000000
,
00000010
00000000
00010000
00001000
00000000
01000000
00001000
00000000
00010000
00001000
00000000
01000000
00001000
00000000
00010000
00000000
,
00000100
00000000
00001000
00000001
00000000
00000010
00000100
00000000
00001000
00000100
00000000
00010000
00001000
00000000
01000000
00000000
,
00001000
00000000
00010000
00100000
00000000
01000000
00010000
00000000
10000000
01000000
00000000
00100000
00001000
00000000
00010000
00000000
,
00000010
00001000
00000010
00001000
00000010
00001000
00000010
00001000
00000010
00001000
00000010
00001000
00000010
00001000
00000010
00001000
,
00000001
00001000
00000001
00001000
00000001
00001000
00000001
00001000
00000001
00001000
00000001
00001000
00000001
00000000
00000000
00000000
,
00001000
00000000
00000000
00000001
00000000
00000000
00000100
00000000
00001000
00010000
00001000
01000000
00010000
00000000
00100000
00000000
,
01000000
00000000
00000000
10000000
00000000
00000000
00100000
00000000
01000000
00100000
00010000
00001000
00010000
00000000
00000100
00000000
,
00000001
00000000
00000000
00000100
00000000
00000000
00001000
00000000
00000010
00000100
00001000
00010000
00001000
00000000
00100000
00000000
,
01000000
00000000
00000000
00100000
00000000
00000000
00010000
00000000
10000000
00100000
01000000
00100000
00010000
00000000
00001000
00000000
,
00011000
00000000
00000000
00010010
00000000
00000000
00001010
00000000
00000000
00000101
00000000
00000000
00001100
00000000
00000100
00000000
,
00000110
00000000
00000000
00000011
00000000
00000000
00001001
00000000
00001000
00000001
00000000
00000100
00001000
00000000
00010000
00000000
,
00001000
00100000
00001000
00100000
00001000
00100000
00001000
00100000
00010000
10000000
00010000
10000000
00010000
10000000
00010000
10000000
,
01000000
00100000
01000000
00100000
01000000
00100000
01000000
00100000
01000000
00100000
01000000
00100000
00010000
00000000
00000000
00000000
,
10010000
00000000
00010000
01000000
10000000
01000000
00001000
00000100
,
00000001
00000100
00010000
01000000
10000000
01000000
00001000
00000000
,
00011000
00000000
00010000
00000100
00000001
00000100
00001000
01000000
,
10000000
01000000
00010000
00000100
00000001
00000100
00010000
00000000
,
00011000
00000000
00000000
00101000
00000000
00000000
00010010
00000000
00000000
00101000
00000000
00000000
00011000
00000000
00001000
00000000
,
01001000
00000000
00000000
00010100
00000000
00000000
00011000
00000000
00000000
01001000
00000000
00000000
00011000
00000000
00010000
00000000
,
00000100
00001000
00000100
00001000
00000100
00001000
00000100
00001000
00000100
00001000
00000100
00001000
00000001
00000000
00000100
00000000
,
00001000
00000000
00010000
00100000
01000000
00000000
00100000
00010000
00001000
00000000
00010000
01000000
00100000
00000000
01000000
00010000
,
00002000
00000000
00000000
00000000
,
00000000
00000000
00003000
00000000
,
00020000
00000000
00032000
00000000
,
00003200
00000302
00000023
00002030
,
00023000
00000000
02030000
23000000
,
30200000
00320000
00032000
00000000
,
00023000
00000000
00032000
00000000
,
00003200
00000302
00002003
00003002
,
00000023
00000000
00002030
00000000
,
00023000
00000000
00000000
00030000
,
00001000
00000000
00000000
00010000
00000000
00000000
00100000
00000000
00000000
10000000
00000000
00000000
00010000
00100000
01000000
10000000
,
00010000
00000000
00000000
01000000
00000000
00000000
00100000
00000000
00000000
00010000
00000000
00000000
00001000
00010000
00000010
00001000
,
00000100
00000000
00000000
00000010
00000000
00000000
00000001
00000000
00000000
00001000
00000000
00000000
00000010
00010000
00001000
00010000
,
00100000
00000000
00000000
01000000
00000000
00000000
00010000
00000000
00000000
10000000
00000000
00000000
01000000
10000000
00100000
10000000
,
00010000
00000000
00000000
10000000
00000000
00000000
01000000
00000000
00010000
00000000
00000000
00001000
00000000
00000000
00000010
00000000
,
00000001
00000000
00000000
00000100
00000000
00000000
00001000
00000000
00010000
00000000
00000000
00100000
00000000
00000000
10000000
00000000
,
01000000
00100000
01000000
00100000
01000000
00100000
01000000
00100000
01000000
00100000
01000000
00100000
01000000
00100000
01000000
00100000
,
00001000
00010000
00001000
00010000
00001000
00010000
00001000
00010000
00001000
00010000
00001000
00010000
00001000
00010000
00001000
00010000
,
00000000
00000000
00000000
00000000
,
00000001
00001000
00000001
00001000
00000001
00001000
00000001
00001000
00000001
00001000
00000001
00001000
00000001
00000000
00000000
00000000
,
00001000
00000000
00000010
00000100
00001000
00000000
00010000
00100000
01000000
00000000
00010000
10000000
02000000
00000000
00000000
00000000
,
03100000
00000000
00001000
00010000
00001000
00000000
00000100
00000010
00001000
00000000
00000001
00001000
00000100
00000000
00000010
00000000
,
00000001
00000000
00000100
00000010
00000100
00000000
00001000
00000000
00010000
00000000
00100000
01000000
00200000
00000000
00000000
00000000
,
10300000
00000000
00010000
01000000
00010000
00000000
10000000
00000000
01000000
00100000
00010000
00100000
00001000
00000000
00010000
00000000
,
00001000
00000000
00000100
00000010
00001000
00000000
00000100
00000010
00000001
00000000
00000010
00000100
00002000
00000000
00000000
00000000
,
00003010
00000000
00000100
00001000
00010000
00000000
00001000
01000000
00010000
00000000
00100000
01000000
10000000
00000000
00010000
00000000
,
01000000
00010000
01000000
00010000
01000000
00010000
01000000
00010000
01000000
00010000
01000000
00010000
01000000
00010000
01000000
00010000
,
10000000
01000000
10000000
01000000
10000000
01000000
10000000
01000000
10000000
01000000
00100000
00010000
00100000
00000000
00000000
00000000
,
00001000
00010000
00000010
00001000
00000010
00000000
00000100
00000000
00000001
00001000
00000100
00000000
00000010
00000001
00001000
00000000
,
00000010
00010000
00001000
00000000
00010000
00100000
01000000
00000000
00010000
00100000
01000000
10000000
00020000
00000000
00000000
00000000
,
10030000
00100000
01000000
00100000
00010000
00000000
00001000
00000000
00010000
00000100
00001000
00000000
00000100
00000010
00000001
00000000
,
00001000
00000010
00000100
00000000
00001000
00010000
00001000
00000000
01000000
00010000
10000000
01000000
00100000
01000000
10000000
00100000
,
10000000
00000000
01000000
00000000
00010000
00000000
00001000
00000000
00000010
00000001
00000010
00000001
00001000
00000000
00000000
00000000
,
00000001
00000000
00000100
00000000
00001000
00000000
00010000
00000000
00100000
10000000
00100000
10000000
01000000
00000000
00010000
00000000
,
00001000
00010000
00001000
00010000
00001000
00010000
00001000
00010000
00001000
00010000
00001000
00010000
00001000
00010000
00001000
00010000
,
00000010
00001000
00000010
00001000
00000010
00001000
00000010
00001000
00000010
00001000
00000010
00001000
00000010
00001000
00000001
00000000
,
00001001
00000000
00000000
00000000
;
