#VERSION:0.83;
#TITLE:405nm (Ryu☆mix);
#ARTIST:Another Infinity;
#GENRE:HARDCORE;
#BANNER:405nm (Ryu mix).png;
#BACKGROUND:405nm (Ryu mix)-bg.png;
#CDTITLE:./CDTitles/bm IIDX 20 tricoro.png;
#MUSIC:405nm (Ryu mix).ogg;
#SAMPLESTART:52.543;
#SAMPLELENGTH:15;
#BPMS:0=177;
#BGSTAGE:19;

//--------------- dance-single - Fred-104 ----------------
#NOTEDATA:;
#STEPSTYPE:dance-single;
#DESCRIPTION:Fred-104;
#DIFFICULTY:Beginner;
#METER:4;
#CREDIT:Fred-104;
#NOTES:
0000
0000
0000
0000
,
0000
0000
0000
0000
,
0000
0000
0000
0000
,
0000
0000
0000
0000
,
0000
0000
0000
0000
,
1000
0000
0010
0010
,
0010
0000
1000
0000
,
0001
0000
0010
0010
,
0010
0000
0100
0000
,
1000
0000
0001
0001
,
0001
0000
1000
0000
,
0002
0000
0000
0003
,
1000
1000
1000
0000
,
1001
0000
0000
0000
,
0000
0000
0000
0000
,
0002
0000
0000
0003
,
2000
0000
0000
3000
,
0002
0000
0000
0003
,
2000
3000
0002
0003
,
0200
0000
0000
0300
,
0020
0030
0200
0300
,
0020
0000
0000
0030
,
2000
3000
0002
0003
,
2000
0000
0000
3000
,
0002
0000
0000
0003
,
2000
0000
0000
3000
,
0002
0000
0000
0003
,
1000
0000
1000
0000
,
0100
0000
0100
0000
,
0010
0010
0010
0010
,
0001
0001
1001
0000
,
0001
0000
0100
0000
,
0001
0000
0100
0000
,
1000
0000
1000
0000
,
1000
0000
1000
0000
,
0100
0000
1000
0000
,
0100
0000
0001
0000
,
1000
0000
1000
0000
,
0001
0001
0001
0000
,
1000
0000
0010
0000
,
1000
1000
2000
3000
,
0001
0000
0010
0000
,
0100
0100
0200
0300
,
0010
0000
0001
0000
,
1000
1000
2000
3000
,
0001
0000
1000
0000
,
0001
0001
1001
0000
,
1000
0000
0000
0010
,
0000
0000
0001
0000
,
0001
0000
0000
0010
,
0000
0000
1000
0000
,
1001
0000
0000
0000
,
0110
0000
0000
0000
,
2002
0000
0000
0000
,
0000
0000
0000
0000
,
3003
0000
0000
0000
,
0001
0001
1001
0000
,
1000
0000
0010
0000
,
1000
0000
0010
0000
,
0001
0000
0010
0000
,
0001
0000
0010
0000
,
1000
0000
1000
0000
,
1000
1000
1000
0000
,
0001
0000
0010
0000
,
0001
0001
0002
0003
,
1000
0000
0010
0000
,
0100
0100
0200
0300
,
0010
0000
1000
0000
,
0001
0001
0002
0003
,
1000
0000
0001
0000
,
1000
1000
1001
0000
,
0001
0000
0010
0000
,
0001
0001
0002
0003
,
1000
0000
0001
0000
,
0100
0100
0200
0300
,
0010
0000
0100
0000
,
0001
0001
0002
0003
,
1000
0000
0001
0000
,
1000
1000
1000
0000
,
1001
0000
0000
0000
;

//--------------- dance-single - Fred-104 ----------------
#NOTEDATA:;
#STEPSTYPE:dance-single;
#DESCRIPTION:Fred-104;
#DIFFICULTY:Easy;
#METER:8;
#CREDIT:Fred-104;
#NOTES:
0000
0000
0000
0000
,
0000
0000
0000
0000
,
0000
0000
0000
0000
,
0000
0000
0000
0000
,
0000
0000
0000
0000
,
0001
0000
0010
0000
0001
1000
0001
0000
,
0010
0010
0100
1000
,
0001
0001
0100
0001
,
1000
0100
0010
0001
,
1000
0000
0010
0000
0100
0001
0100
0000
,
0010
1000
0100
0010
,
0001
1000
0001
0000
1000
0001
1000
0000
,
0001
0100
0110
0000
,
1001
0000
0000
0000
,
0000
0000
0000
0000
,
2000
0000
0000
0000
,
3002
0000
2003
0000
,
3020
0000
0000
0000
,
2030
0000
3002
0000
,
0023
0000
0000
0000
,
0230
0000
2300
0000
,
3020
0000
0000
0000
,
0230
0000
0302
0000
,
1003
0000
0000
0100
0000
0000
1000
0000
,
0001
0000
0000
0100
0000
0000
0010
0000
,
1000
0000
0000
0001
0000
0000
0010
0000
,
0100
0000
0000
1000
0000
0000
0010
0000
,
0110
0000
0000
0100
0000
0000
0001
0000
,
1000
0000
0000
0100
0000
0000
0010
0000
,
0001
0001
1000
1000
,
0001
1000
0001
1000
0001
0000
0000
0000
,
1000
0000
0000
0010
0000
0000
1000
0000
,
0100
0000
0000
0010
0000
0000
0001
0000
,
1000
0000
0000
0010
0000
0000
1000
0000
,
0001
0000
0000
0010
0000
0000
0100
0000
,
0010
0000
0000
0001
0000
0000
0100
0000
,
0010
0000
0000
1000
0000
0000
0010
0000
,
0100
0001
1000
0001
,
1000
0001
1000
0001
1000
0000
0001
0000
,
0010
0100
1000
0001
,
0100
0010
0110
0000
,
1000
0100
0001
0100
,
1000
0001
1001
0000
,
0001
0100
0010
0100
,
0001
0010
0110
0000
,
1000
0000
0001
0000
1000
0010
1000
0010
,
1000
0001
1001
0000
,
1000
0000
0000
0100
0000
0100
0000
0100
,
0000
0010
0000
0001
1000
0000
0001
0000
,
0100
0000
0000
0010
0000
0010
0000
1000
,
0000
1000
0000
0001
0010
0000
0100
0000
,
1001
0000
0100
0100
,
1001
0000
0100
0000
,
2002
0000
0000
0000
,
0000
0000
0000
3003
,
1001
0000
0000
0000
,
1000
0001
1000
0001
1000
0000
0000
0000
,
1000
0000
0000
0010
0000
0000
0100
0000
,
0010
0000
0000
1000
0000
0000
0001
0000
,
0010
0000
0000
0100
0000
0000
1000
0000
,
0001
0000
0000
0100
0000
0000
0001
0000
,
1000
0000
0100
0000
0010
0001
0010
0000
,
0001
1000
0001
1000
0001
0000
1000
0000
,
0010
0100
0001
1000
,
0100
0010
0110
0000
,
0001
0100
1000
0100
,
0001
1000
1001
0000
,
1000
0100
0010
0100
,
1000
0010
0110
0000
,
0001
0000
1000
0000
0001
0010
0001
0010
,
0001
1000
1001
0000
,
1100
1000
0001
0100
,
0110
0010
1000
0001
,
0011
0000
0010
0000
0100
1000
0100
0000
,
1000
0001
1001
0000
,
1000
0000
0010
0000
1000
0001
1000
0000
,
0100
0010
0001
1000
,
0010
0000
0100
0000
0010
0100
0010
0100
,
0010
0100
0110
0000
,
1001
0000
0000
0000
;

//--------------- dance-single - Fred-104 ----------------
#NOTEDATA:;
#STEPSTYPE:dance-single;
#DESCRIPTION:Fred-104;
#DIFFICULTY:Medium;
#METER:10;
#CREDIT:Fred-104;
#NOTES:
0000
0000
0000
0000
,
0000
0000
0000
0000
,
0000
0000
0000
0000
,
2002
0000
0000
0000
0000
0000
0000
3003
,
1000
0100
0010
0001
1000
0100
0100
0000
,
1000
0001
0000
0101
0000
1000
0001
0010
,
0100
0010
0000
0011
0000
1010
0000
0011
,
0000
1001
0000
0110
0000
1001
0000
1010
,
0000
0101
0000
1100
0000
0011
0000
0001
,
1000
0001
0000
0101
0000
0010
1000
0010
,
0100
0001
0000
1001
0000
0110
0000
0100
,
1000
0100
1000
0010
0100
0001
0100
0001
,
1000
0100
0010
0001
1000
0000
0000
0000
,
1001
0000
0000
0000
,
0000
0000
0000
0000
,
0002
0000
0000
0000
,
2003
0000
3020
0000
,
0230
0000
0000
0000
,
0302
0000
2003
0000
,
3200
0000
0000
0000
,
0320
0000
0032
0000
,
2003
0000
0000
0000
,
0002
0000
3000
0003
,
1000
0000
0000
1000
0000
0000
1000
0000
0000
1000
0000
0000
1000
0000
0000
0000
,
0001
0000
0000
0001
0000
0000
0001
0000
0000
0001
0000
0000
0001
0000
0000
0000
,
0100
0000
0000
0100
0000
0000
0100
0000
0000
0100
0000
0000
0100
0000
0000
0000
,
0010
0000
0000
0010
0000
0000
0010
0000
0000
0010
0000
0000
0010
0000
0000
0000
,
1000
0000
0000
0001
0000
0000
1000
0000
0000
0100
0000
0000
0010
0000
0000
0000
,
0001
0000
0000
1000
0000
0000
0010
0000
0000
1000
0000
0000
0001
0000
0000
0000
,
0010
0100
0010
0100
0010
0100
0010
0100
,
1000
0001
1000
0001
0010
0100
0100
0000
,
1000
0000
0000
0010
0000
0000
1000
0000
0000
0001
0000
0000
0010
0000
0000
0000
,
0100
0000
0000
0010
0000
0000
0001
0000
0000
1000
0000
0000
0010
0000
0000
0000
,
0100
0000
0000
0001
0000
0000
0010
0000
0000
0001
0000
0000
1000
0000
0000
0000
,
0001
0000
0000
0010
0000
0000
0100
0000
0000
1000
0000
0000
0001
0000
0000
0000
,
0100
0000
0000
0010
0000
0000
1000
0000
0000
0010
0000
0000
0100
0000
0000
0000
,
0001
0000
0000
1000
0000
0000
0100
0000
0000
0010
0000
0000
0001
0000
0000
0000
,
1000
0001
1000
0001
0010
0100
0010
0100
,
1000
0000
0001
0000
1001
0000
0001
1000
,
0002
0000
0023
0000
0230
0000
1300
0001
,
0200
0000
0320
0000
0230
0000
0301
1000
,
0200
0000
0302
0000
0103
0010
0100
1000
,
0001
0100
2002
3003
,
2000
0000
3020
0000
0032
0000
0013
1000
,
0002
0000
0023
0000
0230
0000
0301
0100
,
2000
0000
3002
0000
0103
0100
0010
0010
,
0100
0110
1001
0000
,
1000
0100
0010
0100
0000
0001
0000
0100
,
0000
0001
0000
0100
0010
0100
1000
0000
,
0001
0100
0010
0100
0000
1000
0000
0100
,
0000
1000
0000
0100
0010
0100
0001
0000
,
1001
0000
1000
0000
0100
0100
0010
0010
,
0001
0000
1000
0000
0001
1000
0010
0000
,
0100
0001
0100
0000
0010
1000
0010
0000
,
0100
0001
0010
0100
1000
0001
1000
0000
,
1001
0000
0000
0000
,
0001
0010
0100
1000
0001
0100
0100
0000
,
0001
0000
0000
0010
0000
0000
0100
0000
0000
0010
0000
0000
0001
0000
0000
0000
,
1000
0000
0000
0010
0000
0000
0100
0000
0000
0010
0000
0000
1000
0000
0000
0000
,
0001
0000
0000
0010
0000
0000
0100
0000
0000
1000
0000
0000
0001
0000
0000
0000
,
0100
0000
0000
0010
0000
0000
1000
0000
0000
0010
0000
0000
0100
0000
0000
0000
,
0001
1000
0001
1000
0001
1000
0001
1000
,
0001
0000
1000
0000
1001
0000
1000
0001
,
2000
0000
3020
0000
0230
0000
0301
1000
,
0200
0000
0320
0000
0230
0000
1300
0001
,
0200
0000
2300
0000
3100
0010
0100
0001
,
1000
0100
2002
3003
,
0002
0000
0023
0000
2030
0000
3010
0001
,
2000
0000
3020
0000
0230
0000
1300
0100
,
0002
0000
2003
0000
3100
0100
0010
0010
,
0100
0110
2002
3003
,
2000
0000
3200
0000
0310
0001
1000
0000
,
0020
0000
2030
0000
3001
0010
0100
0000
,
0002
0000
0203
0000
1300
0001
0100
0000
,
0010
1000
2002
3003
,
0001
0000
0010
0000
0100
1000
0001
0100
,
0001
0000
1000
0000
0100
0010
0001
1000
,
0010
0000
0010
0000
0010
0100
0010
0100
,
0001
1000
0001
1000
0001
0000
0000
0000
,
1001
0000
0000
0000
;

//--------------- dance-single - Fred-104 ----------------
#NOTEDATA:;
#STEPSTYPE:dance-single;
#DESCRIPTION:Fred-104;
#DIFFICULTY:Hard;
#METER:15;
#CREDIT:Fred-104;
#NOTES:
0000
0000
0000
0000
,
0000
0000
0000
0000
,
0000
0000
0000
0000
,
2002
0000
0000
0000
0000
0000
0000
3003
,
0001
1000
0100
0010
0001
0100
0100
0000
,
0001
0010
0000
0110
0000
0100
1000
0001
,
1000
0010
0000
0110
0000
0101
0000
0001
,
1000
0100
0000
0110
0000
0011
0000
1000
,
0001
0100
0000
1100
0000
0101
0000
0001
,
1000
0010
1000
0100
0010
0001
0001
0001
,
1000
0010
0100
0001
1000
0100
0010
0001
,
1000
0001
1000
0001
1000
0001
1000
0001
1000
0001
1000
0001
1000
0001
1000
0001
,
1000
0001
0100
0010
0110
0000
0000
0000
,
1001
0000
0000
0000
,
0000
0000
0000
0000
,
2000
0000
0000
0000
,
3002
0000
2003
0000
,
3020
0000
0000
0000
,
0230
0000
0302
2003
,
3200
0000
0000
0000
,
0320
0000
0032
0000
,
2003
0000
0000
0000
,
3002
0000
2003
3002
,
1003
0000
0000
1000
0000
0000
1000
0000
0000
1000
0000
0000
0010
0000
1000
0000
,
0001
0000
0000
0001
0000
0000
0010
0100
0000
0100
0000
0100
1000
0000
0001
0000
,
0100
0000
0000
0100
0000
0000
0100
0000
0000
0100
0000
0000
0010
0000
1000
0000
,
0001
0000
0000
0001
0000
0000
0001
1000
0000
1000
0000
1000
0010
0000
1000
0000
,
0001
0000
0000
0010
0000
0000
0100
0000
0000
1000
0000
0000
0001
0000
1000
0000
,
0010
0000
0000
0100
0000
0000
0001
1000
0000
1000
0000
1000
0100
0000
0010
0000
,
0001
0010
0001
0010
0001
0010
0001
0010
0001
0010
0001
0010
0001
0010
0001
0010
,
0001
1000
0001
0100
0010
0100
0100
0000
,
0001
0000
0000
1000
0000
0000
0010
0000
0000
1000
0000
0000
0001
0000
0010
0000
,
0100
0000
0000
1000
0000
0000
0001
0100
0000
0010
0000
1000
0001
0000
0010
0000
,
0100
0000
0000
0010
0000
0000
0001
0000
0000
1000
0000
0000
0010
0000
1000
0000
,
0001
0000
0000
1000
0000
0000
0100
0010
0000
0100
0000
1000
0010
0000
1000
0000
,
0001
0000
0000
1000
0000
0000
0010
0000
0000
0100
0000
0000
0010
0000
1000
0000
,
0001
0000
0000
0010
0000
0000
0100
0010
0000
0001
0000
1000
0010
0000
1000
0000
,
0001
0000
0000
0010
0000
0000
0100
0000
0000
1000
0000
0000
0001
0000
0100
0000
,
0010
0010
0100
0100
0110
0000
0001
1000
,
1100
0000
0101
0000
1100
0000
0001
1000
,
0010
0000
0001
0000
0010
0000
0100
0000
0020
0000
0000
0000
1030
0000
0001
0010
,
0001
0000
1001
0000
1000
0100
0001
0100
,
1100
0000
0100
0010
0001
0000
1001
0000
,
0011
0000
1010
0000
0011
0000
0001
1000
,
0010
0100
1000
0100
0001
0000
0010
0100
,
1100
0000
0101
0000
1000
1000
0001
0001
,
0100
0100
0100
0100
0110
0000
0000
0000
,
0001
0010
1000
0010
0000
0100
0000
1000
,
0000
0001
0000
1000
0010
0001
0010
1000
,
0001
1000
0100
0010
0000
1000
0000
0010
,
0000
0001
0000
1000
0010
0100
1000
0100
,
0101
0000
1000
0000
0001
0010
0100
1000
,
1001
0000
0001
0000
0100
0010
0100
0000
,
0001
0010
1000
0010
0001
0010
1000
0010
,
0100
0001
0100
1000
0100
0001
0100
1000
,
1001
0000
0000
0000
,
0001
0010
0100
1000
0001
0100
0100
0000
,
0001
0000
1000
0010
0000
1000
0001
0000
1000
0100
0000
0010
0100
0000
1000
0000
,
0001
0000
0100
0001
0100
0000
0001
1000
0000
1000
0000
1000
0100
0000
0010
0000
,
0001
0000
1000
0010
0000
1000
0001
0000
0010
0100
0000
1000
0001
0000
0100
0000
,
0001
0000
1000
0001
1000
0000
0010
0100
0000
0100
0000
0100
0001
0000
1000
0000
,
0100
0000
0010
0001
0000
1000
0010
0000
0100
0001
0000
1000
0100
0000
0010
0000
,
0100
0100
0010
0010
0011
0000
0001
1000
,
1010
0000
0011
0000
1010
0000
0001
0010
,
1000
0000
0010
0000
0100
0000
0010
0000
0002
0000
0000
0000
1003
0000
0001
0100
,
0001
0000
0110
0000
1000
0100
0001
0100
,
1100
0000
0001
0100
0110
0000
1001
0000
,
1010
0000
0101
0000
1100
0000
0001
0100
,
1000
0001
0010
1000
0200
0000
0310
0001
,
0101
0000
1010
0000
0001
0001
0010
0010
,
0011
1100
2002
3003
,
0110
0000
1001
0000
1000
0100
0001
0100
,
0110
0000
0010
0001
1001
1000
0010
0100
,
1100
0000
0101
0000
1000
0100
0010
1000
,
1010
0000
0010
0001
1001
0000
0110
0000
,
0001
0100
1000
0100
0010
0001
0010
1000
,
0100
0010
0001
0100
0010
1000
0001
0010
,
0100
1000
0100
1000
0100
1000
0100
1000
0001
0100
0001
0100
0001
0100
0001
0100
,
0001
0010
0100
1000
0110
0000
0000
0000
,
1001
0000
0000
0000
;

//--------------- dance-single - Fred-104 ----------------
#NOTEDATA:;
#STEPSTYPE:dance-single;
#DESCRIPTION:Fred-104;
#DIFFICULTY:Challenge;
#METER:17;
#CREDIT:Fred-104;
#NOTES:
0000
0000
0000
0000
,
0000
0000
0000
0000
,
0000
0000
0000
0000
,
1000
0001
1000
0001
1000
0001
1000
0001
1000
0001
1000
0001
1000
0001
1000
0001
,
1000
0100
0010
0001
1001
0100
0100
0000
,
1000
0000
0000
0000
0000
0000
0000
0000
0001
0000
0000
0000
0000
0000
0000
0000
0100
0000
0000
0000
0000
0000
0000
0000
0001
0000
0000
0000
0000
0000
0000
0000
0010
0000
0000
0000
0000
0000
0000
0000
0200
0300
0000
0000
0000
0000
0000
0000
0200
0300
0000
0000
0000
0000
0000
0000
0001
0000
0000
0000
0000
0000
0000
0000
,
1000
0100
0010
0001
1000
0010
1000
0001
,
0010
0100
0001
0100
2000
0001
0000
3010
,
0100
0001
1000
0100
0010
0001
1000
0010
,
0100
0000
0000
0000
0000
0000
0000
0000
0001
0000
0000
0000
0000
0000
0000
0000
1000
0000
0000
0000
0000
0000
0000
0000
0100
0000
0000
0000
0000
0000
0000
0000
0010
0000
0000
0000
0000
0000
0000
0000
0200
0300
0000
0000
0000
0000
0000
0000
0200
0300
0000
0000
0000
0000
0000
0000
0001
0000
0000
0000
0000
0000
0000
0000
,
1000
0010
0100
1000
0001
0010
1000
0001
,
0010
0100
0010
0100
0010
0100
0010
0100
0010
0100
0010
0100
0010
0100
0010
0100
,
0010
0010
0011
0001
1001
1000
0010
0000
,
1001
0000
0000
0000
,
0000
0000
0000
0000
,
1000
0100
0010
1000
0010
0100
1000
0001
,
0100
0010
0001
1000
0100
0010
1000
0001
,
0010
0100
0001
0100
0010
0001
1000
0010
,
0100
1000
0100
0010
0001
1000
0100
0001
,
1000
0100
0001
0100
0010
0100
1000
0001
,
0100
0010
0100
1000
0001
0010
1000
0001
,
1000
0100
0001
0100
0010
1000
0010
0100
,
1000
0010
0001
1000
0100
0001
1000
0001
,
0010
0000
0000
0100
0000
0000
1000
0000
0000
0001
0000
0000
0100
0000
0010
1000
,
0010
0000
0000
1000
0000
0000
0010
0100
0000
0100
0000
0100
0001
0000
1000
0001
,
1000
0000
0000
0010
0000
0000
1000
0000
0000
0001
0000
0000
0010
0000
0100
1000
,
0100
0000
0000
1000
0000
0000
0001
0100
0000
0100
0000
0100
0001
0000
1000
0001
,
1000
0010
1000
0010
1000
0010
1000
0010
1000
0010
1000
0010
1000
0010
1000
0010
,
0100
0001
0100
0001
0100
0001
0100
0001
0100
0001
0100
0001
0100
0001
0100
0001
,
1000
0001
1000
0001
1000
0001
1000
0001
1000
0001
1000
0001
1000
0001
1000
0001
,
1000
0100
0010
0001
1001
0100
0100
0000
,
1000
0000
0001
0010
0000
0001
1000
0000
0010
1000
0000
0001
1000
0000
0100
0010
,
0100
0000
1000
0001
1000
0000
0010
0100
0000
0100
0000
0100
0001
0000
1000
0001
,
0010
0000
0100
1000
0000
0001
1000
0000
0010
1000
0000
0001
1000
0000
0100
0010
,
0100
0000
1000
0001
0100
0000
0001
1000
0000
1000
0000
1000
0100
0000
0010
0001
,
1000
0000
0001
0100
0000
0010
1000
0000
0001
0010
0000
0100
0010
0000
0001
1000
,
0001
0000
0100
0001
1000
0000
0100
0010
0000
0010
0000
0010
0001
0000
1000
0001
,
0100
0001
0100
0001
0100
0001
0100
0001
0100
0001
0100
0001
0100
0001
0100
0001
,
0100
0100
0110
0010
1010
0000
1001
0100
,
2000
0000
0010
0000
0001
0000
3100
0010
,
0002
0000
0000
0000
0100
0000
0000
0000
2003
0000
0000
0000
0100
0000
3100
0010
,
0001
0000
1001
0000
1000
0001
0010
0100
,
2100
0000
3001
1000
0020
0000
0001
0000
,
0230
0000
0001
0000
1000
0000
0301
1000
,
0200
0000
0001
0000
2300
0000
3100
0010
,
0001
1000
0001
1000
0001
1000
0001
1000
0010
0100
0010
0100
0010
0100
0010
0100
,
0001
1000
1100
0001
1001
0000
0000
0000
,
1000
0001
0100
1000
0000
1100
0000
0101
,
0000
0110
0000
1000
0100
0001
1000
0010
,
0001
1000
0010
0001
0000
0011
0000
1010
,
0000
1001
0000
0001
0100
1000
0001
0010
,
0110
0100
0001
1000
1100
0100
0010
0001
,
1001
1000
0010
1000
0001
0010
0100
1000
,
0001
0100
0001
0100
0001
0100
0001
0100
0001
0100
0001
0100
0001
0100
0001
0100
,
0010
1000
0010
1000
0010
1000
0010
1000
0010
1000
0010
1000
0010
1000
0010
1000
,
0001
0000
0000
0000
,
1000
0100
0010
0001
1001
0100
0100
0000
,
1000
0000
0001
0010
0000
0100
0010
0000
0001
1000
0000
0010
1000
0000
0001
1000
,
0001
0000
0100
0010
1000
0000
0001
1000
0000
0100
0010
0001
0010
0000
0001
1000
,
0001
0000
1000
0001
0000
0100
0001
0000
1000
0100
0000
0010
0100
0000
1000
0001
,
1000
0000
0010
1000
0001
0000
1000
0100
0000
0010
0100
0010
0001
0000
1000
0001
,
1000
0010
1000
0010
1000
0010
1000
0010
0100
0001
0100
0001
0100
0001
0100
0001
,
0100
0001
1010
0001
1001
0000
1100
0100
,
0020
0000
1000
0000
0100
0000
0031
1000
,
0020
0000
0000
0000
0001
0000
0000
0000
2030
0000
0000
0000
0001
0000
3001
0010
,
0100
0000
1100
0000
1000
0001
0100
0010
,
2010
0000
3100
0010
0002
0000
0100
0000
,
0023
0000
1000
0000
0001
0000
0130
0010
,
0002
0000
1000
0000
0203
0000
1300
0100
,
0001
0000
1001
0000
1100
0100
0110
0010
,
0012
1003
0102
1003
1010
0000
1001
0000
,
0002
0000
0010
0000
2003
0000
0100
0000
3001
1000
0100
0000
0010
0001
1000
0000
,
0020
0000
1000
0000
0230
0000
0001
0000
0310
0000
1000
0001
0010
0000
0100
0000
,
0020
0000
0001
0000
0230
0000
0010
0000
1300
0001
0100
0000
0010
0100
0001
0000
,
2100
3001
2010
3001
0110
0000
1001
0000
,
1000
0010
1000
0010
1000
0010
1000
0010
0100
0001
0100
0001
0100
0001
0100
0001
,
1000
0100
1000
0100
1000
0100
1000
0100
0010
0001
0010
0001
0010
0001
0010
0001
,
1000
0001
1000
0001
1000
0001
1000
0001
0010
0100
0010
0100
0010
0100
0010
0100
,
1000
1100
0001
0101
1010
0000
0011
0000
,
1001
0000
0000
0000
;

//--------------- dance-double - Fred-104 ----------------
#NOTEDATA:;
#STEPSTYPE:dance-double;
#DESCRIPTION:Fred-104;
#DIFFICULTY:Easy;
#METER:8;
#CREDIT:Fred-104;
#NOTES:
00000000
00000000
00000000
00000000
,
00000000
00000000
00000000
00000000
,
00000000
00000000
00000000
00000000
,
00000000
00000000
00000000
00000000
,
00000000
00000000
00000000
00000000
,
00001000
00000000
00010000
00000000
00001000
00100000
00001000
00000000
,
00010000
00001000
01000000
00010000
,
01000000
00010000
00100000
01000000
,
10000000
00100000
00010000
00000000
,
00001000
00000000
00010000
00000000
00000100
00001000
00000100
00000000
,
00000010
00000001
00001000
00000010
,
00010000
00001000
00010000
00000000
00001000
00010000
00001000
00000000
,
01000000
00010000
10000000
00000000
,
10010000
00000000
00000000
00000000
,
00000000
00000000
00000000
00000000
,
20000000
00000000
00000000
00000000
,
32000000
00000000
03200000
00000000
,
00302000
00000000
00000000
00000000
,
00023000
00000000
00030200
00000000
,
00002300
00000000
00000000
00000000
,
00003002
00000000
00002003
00000000
,
00003020
00000000
00000000
00000000
,
00020030
00000000
00032000
00000000
,
00013000
00000000
00000000
00001000
00000000
00000000
01000000
00000000
,
00010000
00000000
00000000
00100000
00000000
00000000
01000000
00000000
,
10000000
00000000
00000000
00100000
00000000
00000000
00010000
00000000
,
00001000
00000000
00000000
00010000
00000000
00000000
00001000
00000000
,
00010000
00000000
00000000
00001000
00000000
00000000
00000100
00000000
,
00000010
00000000
00000000
00001000
00000000
00000000
00000010
00000000
,
00001000
00000001
00000010
00000100
,
00010000
00001000
00010000
00001000
00010000
00000000
00000000
00000000
,
00001000
00000000
00000000
01000000
00000000
00000000
00010000
00000000
,
10000000
00000000
00000000
01000000
00000000
00000000
00100000
00000000
,
00001000
00000000
00000000
00010000
00000000
00000000
00000010
00000000
,
00001000
00000000
00000000
00000001
00000000
00000000
00000010
00000000
,
00000100
00000000
00000000
00001000
00000000
00000000
00000100
00000000
,
00010000
00000000
00000000
00001000
00000000
00000000
01000000
00000000
,
00010000
00100000
01000000
10000000
,
00010000
10000000
00010000
10000000
00010000
00000000
10000000
00000000
,
01000000
00100000
01000000
00010000
,
00001000
00010000
00011000
00000000
,
00010000
00001000
00000100
00000010
,
00001000
00000001
00001001
00000000
,
00000001
00000010
00000001
00000010
,
00000100
00010000
00011000
00000000
,
00001000
01000000
00010000
00100000
,
00001000
00010000
00011000
00000000
,
00010000
00000000
00000000
00001000
00000000
00001000
00000000
00010000
,
00000000
00010000
00000000
00000010
00001000
00000010
00001000
00000000
,
00000001
00000000
00000000
00000010
00000000
00000010
00000000
00000100
,
00000000
00000100
00000000
00010000
00001000
00010000
00001000
00000000
,
00011000
00000000
01000000
01000000
,
10010000
00000000
00100000
00000000
,
20020000
00000000
00000000
00000000
,
00000000
00000000
00000000
30030000
,
01100000
00000000
00000000
00000000
,
10000000
01000000
10000000
01000000
10000000
00000000
00000000
00000000
,
00010000
00000000
00000000
10000000
00000000
00000000
01000000
00000000
,
00100000
00000000
00000000
00001000
00000000
00000000
00010000
00000000
,
00001000
00000000
00000000
00000100
00000000
00000000
00000010
00000000
,
00001000
00000000
00000000
00000100
00000000
00000000
00000010
00000000
,
00000001
00000000
00000000
00001000
00000000
00000000
00000010
00000000
,
00001000
00000001
00001000
00000001
00001000
00000000
00000001
00000000
,
00000100
00000010
00000100
00001000
,
00010000
00001000
00011000
00000000
,
00001000
00010000
01000000
00100000
,
00010000
10000000
10010000
00000000
,
10000000
00100000
10000000
00100000
,
01000000
00001000
00011000
00000000
,
00010000
00000100
00001000
00000010
,
00010000
00001000
00011000
00000000
,
00011000
00010000
00000100
00000010
,
00000001
00001000
00000010
00010000
,
00001000
00010000
00100000
01000000
,
00010000
10000000
10010000
00000000
,
10000000
01000000
00100000
00001000
,
00010000
00000100
00000010
00000001
,
00001000
00000000
00000010
00000000
00000100
00000001
00000100
00000001
,
00000100
00000010
00000110
00000000
,
00001001
00000000
00000000
00000000
;

//--------------- dance-double - Fred-104 ----------------
#NOTEDATA:;
#STEPSTYPE:dance-double;
#DESCRIPTION:Fred-104;
#DIFFICULTY:Medium;
#METER:10;
#CREDIT:Fred-104;
#NOTES:
00000000
00000000
00000000
00000000
,
00000000
00000000
00000000
00000000
,
00000000
00000000
00000000
00000000
,
20020000
00000000
00000000
00000000
00000000
00000000
00000000
30030000
,
10000000
00010000
01000000
00100000
10000000
01000000
01000000
00000000
,
00100000
00001000
00000000
00011000
00000000
00010000
00000010
00001000
,
00000001
00000010
00000000
00000110
00000000
00001100
00000000
00010100
,
00000000
01001000
00000000
01010000
00000000
10100000
00000000
01010000
,
00000000
11000000
00000000
00110000
00000000
00101000
00000000
00001000
,
00010000
00000100
00000000
00001001
00000000
00001000
00000100
00000010
,
00000001
00001000
00000000
00010010
00000000
00011000
00000000
00001000
,
00010000
00001000
01000000
00010000
10000000
01000000
00100000
00001000
,
00010000
00000100
00001000
00000001
00001000
00000000
00000000
00000000
,
00001001
00000000
00000000
00000000
,
00000000
00000000
00000000
00000000
,
00000002
00000000
00000000
00000000
,
00000023
00000000
00000230
00000000
,
00020300
00000000
00000000
00000000
,
00032000
00000000
02003000
00000000
,
03020000
00000000
00000000
00000000
,
00230000
00000000
02300000
00000000
,
23000000
00000000
00000000
00000000
,
30200000
00000000
00320000
00032000
,
00013000
00000000
00000000
00010000
00000000
00000000
00010000
00000000
00000000
00010000
00000000
00000000
00010000
00000000
00000000
00000000
,
00001000
00000000
00000000
00001000
00000000
00000000
00001000
00000000
00000000
00001000
00000000
00000000
00001000
00000000
00000000
00000000
,
00000100
00000000
00000000
00000100
00000000
00000000
00000100
00000000
00000000
00000100
00000000
00000000
00000100
00000000
00000000
00000000
,
00000001
00000000
00000000
00000001
00000000
00000000
00000001
00000000
00000000
00000001
00000000
00000000
00000001
00000000
00000000
00000000
,
00000010
00000000
00000000
00000100
00000000
00000000
00001000
00000000
00000000
00000100
00000000
00000000
00010000
00000000
00000000
00000000
,
00001000
00000000
00000000
01000000
00000000
00000000
00010000
00000000
00000000
10000000
00000000
00000000
01000000
00000000
00000000
00000000
,
00100000
00010000
00100000
00001000
00010000
00000010
00001000
00000010
,
00000100
00000001
00000010
00000100
00001000
00000100
00000100
00000000
,
00010000
00000000
00000000
00001000
00000000
00000000
01000000
00000000
00000000
00010000
00000000
00000000
00100000
00000000
00000000
00000000
,
01000000
00000000
00000000
10000000
00000000
00000000
00010000
00000000
00000000
10000000
00000000
00000000
00100000
00000000
00000000
00000000
,
10000000
00000000
00000000
01000000
00000000
00000000
00100000
00000000
00000000
00010000
00000000
00000000
00100000
00000000
00000000
00000000
,
00001000
00000000
00000000
00010000
00000000
00000000
00000010
00000000
00000000
00010000
00000000
00000000
00001000
00000000
00000000
00000000
,
00010000
00000000
00000000
00001000
00000000
00000000
00000100
00000000
00000000
00000010
00000000
00000000
00001000
00000000
00000000
00000000
,
00000001
00000000
00000000
00000010
00000000
00000000
00000100
00000000
00000000
00001000
00000000
00000000
00000100
00000000
00000000
00000000
,
00010000
00000000
00000000
00001000
00000000
00000000
00000100
00000000
00000000
00000001
00000000
00000000
00000010
00000000
00000100
00000000
,
00001000
00000000
00001000
00000000
00001001
00000000
00000001
00001000
,
00000002
00000000
00000203
00000000
00002300
00000000
00013000
00001000
,
00000020
00000000
00002030
00000000
00023000
00000000
00130000
00010000
,
00002000
00000000
00023000
00000000
01030000
10000000
00010000
01000000
,
00100000
00000000
10000000
01000000
02200000
00000000
03300000
00000000
,
20000000
00000000
32000000
00000000
03020000
00000000
00031000
00010000
,
00200000
00000000
00320000
00000000
00032000
00000000
00003010
00001000
,
00020000
00000000
00032000
00000000
00003100
00000001
00001000
00000100
,
00000010
00000011
00001001
00000000
,
00000001
00000010
00000001
00000010
00000000
00001000
00000000
00010000
,
00000000
00001000
00000000
00000010
00001000
00010000
01000000
00000000
,
10000000
00100000
10000000
00100000
00000000
00010000
00000000
00001000
,
00000000
00000010
00000000
00001000
00010000
00001000
00000100
00000000
,
00000101
00000000
00001000
00000000
00000001
00000010
00000100
00010000
,
00001000
00000000
01000000
00000000
00010000
00010000
00010000
00000000
,
00100000
01000000
00100000
00000000
01000000
00100000
01000000
00000000
,
10000000
00010000
10000000
01000000
00100000
00001000
00010000
00000000
,
00011000
00000000
00000000
00000000
,
00001000
00010000
01000000
00100000
00010000
01000000
01000000
00000000
,
00010000
00000000
00000000
10000000
00000000
00000000
00100000
00000000
00000000
10000000
00000000
00000000
01000000
00000000
00000000
00000000
,
00100000
00000000
00000000
00010000
00000000
00000000
01000000
00000000
00000000
00001000
00000000
00000000
00010000
00000000
00000000
00000000
,
00000100
00000000
00000000
00001000
00000000
00000000
00000010
00000000
00000000
00000100
00000000
00000000
00000001
00000000
00000000
00000000
,
00000010
00000000
00000000
00000100
00000000
00000000
00001000
00000000
00000000
00000100
00000000
00000000
00010000
00000000
00000000
00000000
,
00001000
00000000
00000000
00010000
00000000
00000000
00100000
00000000
00000000
10000000
00000000
00000000
01000000
00000000
00000000
00000000
,
00100000
00000000
00100000
00000000
10010000
00000000
10000000
00010000
,
20000000
00000000
32000000
00000000
03020000
00000000
00031000
00010000
,
00200000
00000000
00320000
00000000
00032000
00000000
00003010
00001000
,
00020000
00000000
00032000
00000000
00003100
00000001
00001000
00000100
,
00000010
00000000
00000001
00000100
00000220
00000000
00000330
00000000
,
00000002
00000000
00000203
00000000
00002300
00000000
00013000
00001000
,
00000020
00000000
00002030
00000000
00023000
00000000
00130000
00010000
,
00002000
00000000
00023000
00000000
01030000
10000000
00010000
01000000
,
00100000
10100000
20020000
30030000
,
00020000
00000000
20030000
00000000
30100000
00010000
00001000
00010000
,
00000200
00000000
00000320
00000000
00000031
00000100
00002000
00000000
,
00023000
00000000
00032000
00000000
01003000
00001000
00010000
00001000
,
00000200
00000301
00000220
00000330
,
00000001
00000000
00000010
00000000
00001000
00010000
00001000
00010000
,
00100000
00000000
01000000
00000000
00010000
10000000
01000000
00000000
,
00100000
00000000
00100000
00000000
00001000
00010000
00001000
00010000
,
00000010
00010000
00001000
00100000
00001000
00000000
00000000
00000000
,
00011000
00000000
00000000
00000000
;

//--------------- dance-double - Fred-104 ----------------
#NOTEDATA:;
#STEPSTYPE:dance-double;
#DESCRIPTION:Fred-104;
#DIFFICULTY:Hard;
#METER:15;
#CREDIT:Fred-104;
#NOTES:
00000000
00000000
00000000
00000000
,
00000000
00000000
00000000
00000000
,
00000000
00000000
00000000
00000000
,
00002002
00000000
00000000
00000000
00000000
00000000
00000000
00003003
,
00000001
00000100
00001000
00010000
01000000
01000000
01000000
00000000
,
10000000
00010000
00000000
10100000
00000000
00010000
10000000
01000000
,
00100000
00001000
00000000
00011000
00000000
00010010
00000000
00010000
,
00001000
00000100
00000000
00000101
00000000
00000011
00000000
00001000
,
00000001
00000100
00000000
00000110
00000000
00001100
00000000
00001000
,
00010000
00001000
01000000
00010000
00100000
01000000
01000000
01000000
,
10000000
00010000
01000000
00100000
00010000
00001000
00010000
00000100
,
00001000
00000001
00001000
00000001
00001000
00000001
00001000
00000001
00001000
00000001
00001000
00000001
00001000
00000001
00001000
00000001
,
00001000
00000001
00000100
00000010
00000110
00000000
00000000
00000000
,
00011000
00000000
00000000
00000000
,
00000000
00000000
00000000
00000000
,
00020000
00000000
00000000
00000000
,
00032000
00000000
02003000
00000000
,
03020000
00000000
00000000
00000000
,
00230000
00000000
02300000
23000000
,
30020000
00000000
00000000
00000000
,
02030000
00000000
03200000
00000000
,
00320000
00000000
00000000
00000000
,
00032000
00000000
00003200
00000302
,
00000013
00000000
00000000
00000010
00000000
00000000
00000010
00000000
00000000
00000010
00000000
00000000
00000100
00000000
00001000
00000000
,
00000001
00000000
00000000
00000100
00000000
00000000
00001000
00010000
00000000
00010000
00000000
00010000
00001000
00000000
01000000
00000000
,
00010000
00000000
00000000
00010000
00000000
00000000
00010000
00000000
00000000
00010000
00000000
00000000
10000000
00000000
01000000
00000000
,
00100000
00000000
00000000
00001000
00000000
00000000
00010000
00000010
00000000
00000010
00000000
00000010
00001000
00000000
00000100
00000000
,
00000010
00000000
00000000
00000001
00000000
00000000
00001000
00000000
00000000
00000001
00000000
00000000
00000100
00000000
00001000
00000000
,
00010000
00000000
00000000
00001000
00000000
00000000
00100000
00010000
00000000
00010000
00000000
00010000
01000000
00000000
00100000
00000000
,
01000000
00010000
01000000
00010000
01000000
00010000
01000000
00010000
01000000
00010000
01000000
00010000
01000000
00010000
01000000
00010000
,
01000000
00010000
10000000
01000000
00100000
01000000
01000000
00000000
,
10000000
00000000
00000000
00010000
00000000
00000000
10000000
00000000
00000000
01000000
00000000
00000000
00100000
00000000
00001000
00000000
,
00010000
00000000
00000000
00001000
00000000
00000000
00000100
00000001
00000000
00001000
00000000
00000100
00000010
00000000
00000001
00000000
,
00001000
00000000
00000000
00000001
00000000
00000000
00001000
00000000
00000000
00000010
00000000
00000000
00010000
00000000
00001000
00000000
,
00100000
00000000
00000000
00010000
00000000
00000000
01000000
00001000
00000000
00010000
00000000
00001000
00000100
00000000
00000010
00000000
,
00000100
00000000
00000000
00001000
00000000
00000000
00010000
00000000
00000000
00001000
00000000
00000000
00100000
00000000
00010000
00000000
,
01000000
00000000
00000000
00010000
00000000
00000000
00100000
01000000
00000000
10000000
00000000
00010000
10000000
00000000
00100000
00000000
,
01000000
00000000
00000000
00010000
00000000
00000000
10000000
00000000
00000000
01000000
00000000
00000000
00010000
00000000
00001000
00000000
,
00010000
00010000
00001000
00001000
00011000
00000000
00010000
00001000
,
00011000
00000000
00001010
00000000
00011000
00000000
00010000
00001000
,
00000100
00000000
00000001
00000000
00001000
00000000
00000100
00000000
00000020
00000000
00000000
00000000
00000031
00000000
00001000
00000010
,
00001000
00000000
00001001
00000000
00000001
00000100
00001000
00010000
,
00011000
00000000
00001000
01000000
01100000
00000000
10010000
00000000
,
10100000
00000000
01010000
00000000
11000000
00000000
00010000
10000000
,
00100000
00010000
00100000
10000000
02000000
00000000
03100000
00001000
,
00011000
00000000
00000110
00000000
00001000
00000100
00000010
00000001
,
00000100
00001000
00010000
00001000
00011000
00000000
00000000
00000000
,
00001000
00010000
01000000
00100000
00000000
00010000
00000000
00100000
,
00000000
01000000
00000000
10000000
00100000
00010000
00001000
00010000
,
00001000
00000010
00000100
00001000
00000000
00000010
00000000
00000100
,
00000000
00001000
00000000
00000100
00000001
00000010
00000100
00010000
,
00011000
00000000
00001000
00000000
01000000
00010000
00100000
01000000
,
11000000
00000000
00010000
00000000
10000000
00100000
01000000
00000000
,
00100000
00010000
00001000
00010000
00000010
00000001
00000010
00001000
,
00010000
00100000
10000000
00100000
00001000
00010000
00100000
10000000
,
10010000
00000000
00000000
00000000
,
10000000
01000000
00010000
00001000
00000100
00000100
00000100
00000000
,
00000001
00000000
00001000
00000100
00000000
00000010
00000001
00000000
00001000
00000010
00000000
00010000
00001000
00000000
00100000
00000000
,
00010000
00000000
01000000
00100000
01000000
00000000
00010000
00100000
00000000
00100000
00000000
00100000
01000000
00000000
10000000
00000000
,
00010000
00000000
10000000
00100000
00000000
10000000
01000000
00000000
00100000
00010000
00000000
00100000
00001000
00000000
00010000
00000000
,
00001000
00000000
00000100
00000010
00000100
00000000
00000001
00001000
00000000
00001000
00000000
00001000
00000100
00000000
00000010
00000000
,
00000001
00000000
00001000
00000010
00000000
00001000
00000001
00000000
00000010
00000100
00000000
00001000
00000100
00000000
00010000
00000000
,
00001000
00010000
01000000
00010000
00011000
00000000
00001000
00010000
,
00011000
00000000
00110000
00000000
00011000
00000000
00001000
00010000
,
01000000
00000000
10000000
00000000
00010000
00000000
01000000
00000000
00200000
00000000
00000000
00000000
10300000
00000000
00010000
00100000
,
00010000
00000000
10010000
00000000
10000000
01000000
00010000
00001000
,
00011000
00000000
00010000
00000100
00000110
00000000
00001001
00000000
,
00000011
00000000
00001100
00000000
00000101
00000000
00001000
00000001
,
00000010
00001000
00000010
00000001
00000200
00000000
00000310
00010000
,
00011000
00000000
01100000
00000000
00010000
01000000
00100000
10000000
,
01000000
00010000
00001000
00010000
00011000
00000000
00000000
00000000
,
00010100
00000000
01001000
00000000
00001000
00010000
01000000
00100000
,
00110000
00000000
10010000
00000000
10000000
01000000
00010000
00001000
,
00011000
00000000
00000110
00000000
00001000
00000100
00000001
00000100
,
00001100
00000000
00000001
00000100
00000110
00000000
00001001
00000000
,
00000001
00000100
00000010
00001000
00000100
00010000
00001000
00100000
,
00010000
10000000
00100000
00010000
00001000
00010000
00100000
01000000
,
00100000
10000000
00100000
10000000
00100000
10000000
00100000
10000000
00100000
10000000
00100000
10000000
00100000
10000000
00100000
10000000
,
00010000
00100000
01000000
00010000
00001000
00000000
00000000
00000000
,
00011000
00000000
00000000
00000000
;

//--------------- dance-double - Fred-104 ----------------
#NOTEDATA:;
#STEPSTYPE:dance-double;
#DESCRIPTION:Fred-104;
#DIFFICULTY:Challenge;
#METER:17;
#CREDIT:Fred-104;
#NOTES:
00000000
00000000
00000000
00000000
,
00000000
00000000
00000000
00000000
,
00000000
00000000
00000000
00000000
,
00010000
00001000
00010000
00001000
00010000
00001000
00010000
00001000
00010000
00001000
00010000
00001000
00010000
00001000
00010000
00001000
,
00010000
00001000
00000100
00000001
00001001
00000100
00000100
00000000
,
00001000
00000000
00000000
00000000
00000000
00000000
00000000
00000000
00000001
00000000
00000000
00000000
00000000
00000000
00000000
00000000
00000100
00000000
00000000
00000000
00000000
00000000
00000000
00000000
00001000
00000000
00000000
00000000
00000000
00000000
00000000
00000000
00010000
00000000
00000000
00000000
00000000
00000000
00000000
00000000
00002000
00003000
00000000
00000000
00000000
00000000
00000000
00000000
00002000
00003000
00000000
00000000
00000000
00000000
00000000
00000000
00000010
00000000
00000000
00000000
00000000
00000000
00000000
00000000
,
00010000
00001000
00000010
00000100
00010000
00000010
00000100
00001000
,
00010000
00001000
01000000
00010000
00200000
10000000
00000000
10300000
,
00100000
00010000
10000000
00100000
00010000
00001000
00000100
00000001
,
00000010
00000000
00000000
00000000
00000000
00000000
00000000
00000000
00000100
00000000
00000000
00000000
00000000
00000000
00000000
00000000
00001000
00000000
00000000
00000000
00000000
00000000
00000000
00000000
00000010
00000000
00000000
00000000
00000000
00000000
00000000
00000000
00010000
00000000
00000000
00000000
00000000
00000000
00000000
00000000
00002000
00003000
00000000
00000000
00000000
00000000
00000000
00000000
00002000
00003000
00000000
00000000
00000000
00000000
00000000
00000000
00000100
00000000
00000000
00000000
00000000
00000000
00000000
00000000
,
00010000
01000000
00100000
00010000
10000000
00100000
00010000
00001000
,
00010000
00001000
00010000
00001000
00010000
00001000
00010000
00001000
00010000
00001000
00010000
00001000
00010000
00001000
00010000
00001000
,
00010000
00001000
01001000
01000000
01010000
00100000
10000000
00000000
,
10010000
00000000
00000000
00000000
,
00000000
00000000
00000000
00000000
,
10000000
01000000
00010000
00001000
00000100
00000001
00000010
00000100
,
00001000
00000001
00000100
00000010
00000100
00001000
00010000
00001000
,
00010000
00100000
10000000
00010000
01000000
00100000
10000000
00010000
,
10000000
01000000
00100000
01000000
00010000
00001000
00000010
00000001
,
00001000
00000010
00000001
00001000
00000100
00000001
00001000
00000100
,
00000010
00001000
00010000
10000000
00100000
01000000
00010000
00001000
,
00010000
00000010
00000001
00001000
00000100
00000001
00000010
00000100
,
00001000
00000001
00000100
00001000
00100000
00010000
10000000
00100000
,
01000000
00000000
00000000
00010000
00000000
00000000
10000000
00000000
00000000
01000000
00000000
00000000
00100000
00000000
00001000
00000000
,
00010000
00000000
00000000
00001000
00000000
00000000
00000100
00000001
00000000
00000001
00000000
00000001
00000010
00000000
00000100
00000000
,
00001000
00000000
00000000
00000010
00000000
00000000
00000100
00000000
00000000
00001000
00000000
00000000
00010000
00000000
00001000
00000000
,
01000000
00000000
00000000
00010000
00000000
00000000
00100000
01000000
00000000
01000000
00000000
01000000
10000000
00000000
00010000
00000000
,
10000000
01000000
10000000
01000000
10000000
01000000
10000000
01000000
10000000
01000000
10000000
01000000
10000000
01000000
10000000
01000000
,
00100000
00010000
00100000
00010000
00100000
00010000
00100000
00010000
00100000
00010000
00100000
00010000
00100000
00010000
00100000
00001000
,
00010000
00001000
00010000
00001000
00010000
00001000
00010000
00001000
00010000
00001000
00010000
00001000
00010000
00001000
00010000
00001000
,
00010000
00001000
00000100
00000001
00001001
00000100
00000100
00000000
,
00001000
00000000
00000001
00000010
00000000
00000100
00001000
00000000
00000100
00010000
00000000
00001000
00010000
00000000
00100000
00000000
,
01000000
00000000
00010000
10000000
00010000
00000000
00100000
01000000
00000000
01000000
00000000
01000000
10000000
00000000
00010000
00000000
,
10000000
00000000
01000000
00100000
00000000
00010000
00100000
00000000
00001000
00010000
00000000
00000010
00001000
00000000
00000010
00000000
,
00010000
00000000
00001000
00010000
00000100
00000000
00000010
00000001
00000000
00000001
00000000
00000001
00001000
00000000
00000010
00000000
,
00000100
00000000
00001000
00010000
00000000
00001000
01000000
00000000
00010000
00100000
00000000
01000000
00100000
00000000
00010000
00000000
,
10000000
00000000
00100000
01000000
00100000
00000000
00010000
00001000
00000000
00001000
00000000
00001000
00000010
00000000
00000100
00000000
,
00001000
00000001
00001000
00000001
00001000
00000001
00001000
00000001
00001000
00000001
00001000
00000001
00001000
00000001
00001000
00000001
,
00000010
00001000
00010000
00100000
10100000
00000000
00010000
10000000
,
00020000
00100000
20030000
01000000
30010000
00100000
01000000
00010000
,
00001000
00000000
00000010
00000000
00000100
00000000
00001000
00000000
00000001
00000000
00000100
00000000
00001000
00000000
00010000
00001000
,
00020000
00001000
00030020
00001000
00010030
00001000
01000000
00010000
,
00100000
01000000
10000000
00010000
01010000
00000000
10010000
00000000
,
20000000
00100000
30020000
01000000
10030000
00010000
01000000
00100000
,
00010000
00001000
00000100
00000001
00000010
00000100
00001000
00000010
,
00010000
00001000
00010000
00001000
00010000
00001000
00010000
00001000
01000000
00010000
01000000
00010000
01000000
00010000
01000000
00010000
,
00100000
01000000
10000000
00010000
01010000
00000000
00000000
00000000
,
10000000
01000000
00010000
00001000
00000000
00011000
00000000
00001010
,
00000000
00000011
00000000
00001000
00000001
00000010
00000100
00001000
,
00000001
00000100
00001000
00010000
00000000
00011000
00000000
00110000
,
00000000
10100000
00000000
10000000
00100000
01000000
10000000
01000000
,
01010000
00000000
10000000
00000000
01000000
00100000
00001000
00010000
,
00011000
00000000
00001000
00000000
00000100
00000001
00001000
00000000
,
00000100
00010000
00000100
00010000
00000100
00010000
00000100
00010000
00000100
00010000
00000100
00010000
00000100
00010000
00000100
00010000
,
00001000
00010000
00001000
00010000
00001000
00010000
00001000
00010000
00001000
00010000
00001000
00010000
00001000
00010000
00001000
00010000
,
00001000
00000000
00000000
00000000
,
00010000
00100000
10000000
00010000
10010000
01000000
01000000
00000000
,
10000000
00000000
00010000
01000000
00000000
00100000
10000000
00000000
01000000
00100000
00000000
00001000
00010000
00000000
00001000
00000000
,
00010000
00000000
00001000
00000100
00000010
00000000
00001000
00000100
00000000
00000010
00000000
00001000
00010000
00000000
00001000
00000000
,
00010000
00000000
00001000
00000100
00000000
00000010
00001000
00000000
00000001
00000010
00000000
00000100
00001000
00000000
00000100
00000000
,
00010000
00000000
00001000
00010000
00100000
00000000
01000000
00010000
00000000
00100000
00000000
01000000
00010000
00000000
00001000
00000000
,
00010000
00000010
00010000
00000010
00010000
00000010
00010000
00000010
00010000
00000010
00010000
00000010
00010000
00000010
00010000
00000010
,
00010000
00001000
00000010
00000100
00001100
00000000
00001000
00000001
,
00002000
00000010
00003002
00000100
00001003
00000010
00000100
00001000
,
00010000
00000000
00100000
00000000
01000000
00000000
00010000
00000000
10000000
00000000
01000000
00000000
00010000
00000000
00001000
00010000
,
00002000
00010000
00203000
00010000
00301000
00010000
00000100
00001000
,
00000010
00000100
00000001
00001000
00001100
00000000
00001001
00000000
,
00000002
00000010
00002003
00000100
00003001
00001000
00000100
00000010
,
00001000
00010000
01000000
10000000
00100000
01000000
00010000
00100000
,
00001000
00010000
00100000
10000000
01000000
01000000
00100000
00100000
,
00101000
00010010
00022000
00033000
,
00020000
00001000
00030200
00001000
00010300
01000000
00100000
00010000
,
20000000
00100000
30020000
01000000
10030000
01000000
00010000
00001000
,
00020000
00000010
00032000
00100000
00013000
00001000
00000100
00000001
,
00000011
00000100
00001100
00000100
00011000
00000000
01100000
00000000
,
10000000
01000000
10000000
01000000
10000000
01000000
10000000
01000000
00100000
00010000
00100000
00010000
00100000
00010000
00100000
00001000
,
00010000
00001000
00010000
00001000
00010000
00001000
00010000
00001000
00000100
00000010
00000100
00000010
00000100
00000010
00000100
00000010
,
00001000
00000001
00001000
00000001
00001000
00000001
00001000
00000001
00000010
00000100
00000010
00000100
00000010
00000100
00000010
00000100
,
00000010
00000001
00000100
00001000
00011000
00000000
00000000
00000000
,
10010000
00000000
00000000
00000000
;
