#VERSION:0.83;
#TITLE:3V0;
#ARTIST:BlackY;
#GENRE:NEO DANCE SPEED;
#BANNER:3V0.png;
#BACKGROUND:3V0-bg.png;
#CDTITLE:./CDTitles/bm IIDX 30 RESIDENT.png;
#MUSIC:3V0.ogg;
#SAMPLESTART:95.49;
#SAMPLELENGTH:15;
#BPMS:0=191;
#BGSTAGE:21;

//--------------- dance-single - FR3D-104 ----------------
#NOTEDATA:;
#STEPSTYPE:dance-single;
#DESCRIPTION:FR3D-104;
#DIFFICULTY:Beginner;
#METER:4;
#CREDIT:FR3D-104;
#NOTES:
0000
0000
0000
0000
,
0000
0000
0000
0000
,
0000
0000
0000
0000
,
1000
0000
0000
0000
,
0000
0000
0000
0000
,
0000
0000
0000
0000
,
0000
0000
0000
0000
,
0001
0000
1000
0000
,
0010
0000
1000
0000
,
0001
0000
1000
0000
,
0000
0000
0000
0000
,
0002
0000
0000
0000
,
0000
0000
0003
0000
,
2000
0000
0000
0000
,
0000
0000
3000
0000
,
0002
0000
0000
0000
,
0000
0000
0003
0000
,
2000
0000
0000
0000
,
0000
0000
3000
0000
,
0001
0000
0000
0000
,
1000
0000
0000
0000
,
0001
0000
0001
0000
,
1000
0000
1000
0000
,
0000
0000
0000
0000
,
0000
0000
0000
0000
,
1000
0000
0000
0000
,
0010
0000
1000
0000
,
0001
0000
0000
0000
,
1000
0000
0100
0000
,
0010
0000
0000
0000
,
0001
0000
1000
0000
,
0010
0000
0000
0000
,
1000
0000
0001
0000
,
1000
0000
0000
0000
,
0001
0000
0000
0000
,
0100
0000
0000
0000
,
0010
0000
0000
0000
,
0100
0000
0100
0000
,
0001
0000
0001
0000
,
1000
0000
0000
0000
,
0001
0000
0000
0000
,
0001
0000
0001
0000
,
1000
0000
1000
0000
,
0010
0000
0000
0000
,
1000
0000
0000
0000
,
0001
0000
0001
0000
,
0010
0000
0010
0000
,
0100
0000
0000
0000
,
2000
0000
0000
3000
,
0001
0000
0001
0000
,
1000
0000
1000
0000
,
0010
0000
0000
0000
,
1000
0000
0001
0000
,
1001
0000
0000
0000
,
0110
0000
0000
0000
,
1001
0000
0000
0000
,
0110
0000
0000
0000
,
0000
0000
0000
0000
,
0000
0000
0000
0000
,
2000
0000
0000
0000
,
0000
0000
0000
0000
,
0000
0000
0000
0000
,
0000
0000
3000
0000
,
0002
0000
0000
0000
,
0000
0000
0003
0000
,
2002
0000
0000
0000
,
3003
0000
0000
0000
,
0001
0000
0000
0000
,
1000
0000
0000
0000
,
0010
0000
0000
0000
,
1000
0000
0000
0000
,
0001
0000
0010
0000
,
0100
0000
1000
0000
,
0001
0000
0000
0000
,
0002
0000
0000
0000
,
0003
0000
1000
1000
,
1000
0000
0010
0000
,
1000
0000
0000
0000
,
0001
0000
1000
0000
,
0100
0000
0000
0000
,
0010
0000
0001
0000
,
1000
0000
0000
0000
,
0001
0000
1000
0000
,
0010
0000
0000
0000
,
1000
0000
1000
0000
,
0001
0000
0001
0000
,
0100
0000
0000
0000
,
0010
0000
0100
0000
,
0001
0000
0000
0000
,
1000
0000
0000
0000
,
0001
0001
0001
0001
,
1000
1000
1000
1000
,
2002
0000
0000
0000
,
0000
0000
0000
0000
,
0000
0000
0000
0000
,
0000
0000
0000
0000
,
3003
0000
0000
0000
;

//--------------- dance-single - FR3D-104 ----------------
#NOTEDATA:;
#STEPSTYPE:dance-single;
#DESCRIPTION:FR3D-104;
#DIFFICULTY:Easy;
#METER:9;
#CREDIT:FR3D-104;
#NOTES:
0000
0000
0000
0000
,
0000
0000
0000
0000
,
0000
0000
0000
0000
,
0001
0000
0001
0000
,
1000
0010
0100
0001
,
0010
0000
0010
0000
,
0001
0100
0010
1000
,
0100
0000
1000
0000
,
0001
1000
0010
0100
,
0001
0000
1000
0000
,
2002
0000
0000
3003
,
0110
0000
0010
0000
,
1000
0001
0100
0010
,
1000
0000
0100
0000
,
0010
0001
0100
0010
,
0100
0000
0001
0000
,
1000
0001
0010
0100
,
0010
0000
0001
0000
,
1000
0010
0100
0001
,
1000
0000
0100
0000
,
0001
0000
0010
0000
,
1000
1000
0001
0001
,
1000
0001
1000
0001
1000
0001
1000
0001
,
0000
0000
0000
0000
,
0000
0000
0000
1001
,
0001
0000
0010
0000
0100
0000
1000
0001
,
1000
0000
0010
0000
0100
0000
0001
1000
,
0001
0000
0010
0000
0100
0000
1000
0001
,
1000
0000
0001
0000
0100
0010
0100
0000
,
0001
0001
0010
0010
,
0100
0100
1000
1000
,
0001
0100
0001
0000
1000
0100
1000
0000
,
1001
0000
0110
0000
,
0001
0000
0001
0000
0100
0010
0100
0000
,
0001
1000
0200
0300
,
1000
0000
1000
0000
0010
0100
0010
0000
,
1000
0001
0020
0030
,
0011
0000
0100
0000
,
1010
0000
0100
0000
,
0001
0101
1001
0011
,
0220
0000
0330
0000
,
1000
0010
1000
0100
,
0001
0100
1000
0000
,
0001
0010
0001
0100
,
1000
0100
0001
0000
,
1000
0100
1000
0010
,
0001
0010
1000
0000
,
0001
0100
0010
1000
,
2002
0000
3003
0000
0001
1000
0001
1000
,
0001
0010
0100
1000
,
0001
0000
0100
0000
0010
1000
0010
0000
,
0100
0001
1000
0100
,
0010
0000
0001
0000
1000
0100
1000
0000
,
1001
0000
0000
0000
0001
0000
0000
1000
0000
0000
1001
0000
0000
0000
0000
0000
,
1000
0000
0000
0010
0000
0000
0100
0001
,
1000
0000
0000
0100
0000
0000
0010
0000
,
0001
1000
0001
1000
0001
1000
0001
1000
,
0000
0000
0000
0000
,
0000
0000
0000
0000
,
0002
0000
0000
0000
,
2003
0000
0000
0000
,
3020
0000
0000
0000
,
0000
0000
0030
0000
,
0200
0000
0000
0000
,
0000
0000
0302
0003
,
2002
0000
0000
0000
,
3003
0000
0000
0000
,
0001
0000
0010
0000
0100
0000
1000
1000
,
0000
0001
0000
0000
0100
0000
0010
0010
,
0000
0000
0100
0000
0001
0000
1000
1000
,
0000
0001
1000
0000
0100
0010
0100
0000
,
1000
1000
0001
0010
,
0100
0100
1000
0001
,
1000
0010
0100
0100
,
0001
0000
0001
0000
1000
0001
1000
0002
,
0000
0000
0000
0003
,
1001
0000
1000
0000
0010
0000
0100
0100
,
0000
0001
1000
0100
,
0010
0000
0001
0000
1000
0000
0010
0010
,
0000
0100
0010
1000
,
0001
0000
0010
0000
0100
0000
1000
1000
,
0000
0010
0100
0010
,
1000
1000
1000
0000
0001
0000
1000
0200
,
0000
0000
0000
0000
1300
0001
1000
0000
,
0001
0000
0100
0000
0010
0000
0100
0001
,
0000
0000
0010
0000
0100
1000
0100
0000
,
1000
0000
0010
0000
0100
0000
0010
1000
,
0000
0000
0100
0000
0010
0001
1000
0001
,
1001
0000
0000
0000
0000
0000
0001
0001
,
0000
0000
0000
0000
1000
0010
1000
1000
,
0001
0000
0000
0100
0000
0000
1000
0000
0100
0000
0000
0001
0000
0000
1000
0000
,
0000
0000
0001
0000
0000
0010
0000
0000
1000
0000
0000
0010
0000
0000
0001
0000
,
2002
0000
0000
0000
,
0000
0000
0000
0000
,
0000
0000
0000
0000
,
0000
0000
0000
0000
,
3003
0000
0000
0000
;

//--------------- dance-single - FR3D-104 ----------------
#NOTEDATA:;
#STEPSTYPE:dance-single;
#DESCRIPTION:FR3D-104;
#DIFFICULTY:Medium;
#METER:14;
#CREDIT:FR3D-104;
#NOTES:
0000
0000
0000
0000
,
0000
0000
0000
0000
,
0000
0000
0000
0000
,
0001
0000
0100
0010
0100
0010
0100
0001
,
0000
1000
0000
0001
0010
0100
1000
0100
,
0000
1000
0000
0001
0100
0010
0100
0001
,
0000
1000
0000
0001
0000
0010
0100
1000
,
0000
0000
0001
0010
0100
1000
0001
0100
,
0000
0010
0000
1000
0001
0010
0100
0010
,
0000
0001
0000
1000
0100
0010
0001
1000
,
0002
0000
0000
0003
,
1001
0000
0001
0100
0001
0100
1000
0100
,
0000
0001
0000
1000
0100
0001
0100
1000
,
0000
0001
0000
1000
0100
0001
0100
1000
,
0000
0001
0000
1000
0000
0001
0010
0100
,
0000
0000
1000
0001
1000
0010
0001
0010
,
0000
1000
0000
0001
0010
1000
0010
0001
,
0000
1000
0000
0001
0010
1000
0010
0001
,
0000
1000
0000
0001
0000
0010
0100
1000
,
0001
0100
0010
1000
,
0100
0010
0001
1000
,
0001
0001
1000
1000
0010
0010
0100
0100
,
0001
1000
0100
0010
0001
0100
0010
1000
,
0000
0000
0000
0000
,
0000
0000
0000
0000
0000
0000
0001
0001
,
1000
0100
0010
0100
1000
0001
0100
0010
,
0100
0001
1000
0100
0010
0001
1000
1000
,
0001
0010
0100
1000
0010
0100
0001
1000
,
0100
0000
0010
0000
0001
0000
1000
0000
0001
0100
0001
0000
1000
0100
1000
0000
,
0001
0100
0010
1000
0100
0010
0100
0100
,
1000
0010
0100
0001
0010
0001
1000
1000
,
0001
0010
0100
1000
0010
1000
0001
0010
,
0011
0000
0000
1010
0000
0000
1001
0000
0001
0000
1000
0000
0010
0000
0100
0000
,
0101
0000
1100
0000
0001
0010
0100
0000
,
1000
0001
0100
0010
1000
0100
1000
0000
,
1010
0000
0011
0000
1000
0010
0100
0000
,
0001
1000
0100
0010
0001
0100
0010
0000
,
1000
0010
0100
0001
0100
0010
1000
0000
,
0001
0010
0100
1000
0100
0010
0001
0000
,
1000
0000
0100
0000
0010
0000
0001
0000
0100
0010
0100
0010
0100
0010
0100
0010
,
0200
0000
0000
0000
0000
0000
0000
0000
0310
0000
1000
0000
0001
1000
0001
1000
,
0001
0000
0000
0000
1000
0000
0001
0010
0000
0001
0010
0000
0100
0000
1000
0000
,
0001
0000
0000
0000
0100
0000
0010
1000
0000
0010
1000
0000
0100
0000
0020
0000
,
0000
0000
0031
0000
1000
0000
0001
0100
0000
0001
0100
0000
0010
0000
0100
0000
,
0001
0000
0000
0000
1000
0000
0001
0010
0000
0001
0010
0000
0100
0000
1000
0000
,
0001
0000
0000
0000
0100
0000
0010
0100
0000
0010
1000
0000
0010
0000
0100
0000
,
0001
0000
0000
0000
1000
0000
0100
0010
0000
0001
1000
0000
0010
0000
0200
0000
,
0000
0000
0301
0000
1000
0000
0100
0010
0000
0100
1000
0000
0010
0000
0100
0000
,
0000
0000
0011
0000
0000
1010
0000
0000
0001
0000
1000
0000
0001
1000
0001
1000
,
0001
0000
0000
0000
0100
0000
0001
1000
0000
0010
0100
0000
0001
0000
0010
0000
,
0100
0000
0000
0000
1000
0000
0010
0100
0000
0010
1000
0000
0001
0000
0020
0000
,
0000
0000
0130
0000
0010
0000
0001
1000
0000
0010
0100
0000
0010
0000
1000
0000
,
0001
0000
0000
0000
1000
0000
0100
0010
0000
0001
0010
0000
0001
0000
1000
0000
,
1010
0000
0000
0000
0011
0000
0000
1100
0000
0000
0101
0000
0000
0000
0000
0000
,
1100
0000
0000
0110
0000
0000
0011
0000
0000
1001
0000
0000
0001
0000
1000
0000
,
0001
0000
0000
0101
0000
0000
0110
0000
0000
1010
0000
0000
1000
0000
0001
0000
,
0010
0000
0100
0000
1000
0000
0001
0000
1000
0001
1000
0001
1000
0001
1000
0001
,
0000
0000
0000
0000
,
0000
0000
0000
0000
,
2000
0000
0000
3002
,
0023
0000
0000
0230
0000
0000
2300
0000
,
3002
0000
0000
0203
0000
0000
0320
0000
,
0000
0000
0230
0000
,
0302
0000
0000
0000
,
0000
0000
2003
3000
,
2002
0000
0000
0000
,
3003
0000
0000
0000
,
0001
0000
0100
0000
0010
0000
1000
1001
,
0000
0110
0000
1000
0001
0000
0010
0011
,
0000
1000
0000
0010
0100
0000
0010
1010
,
0000
0000
1000
0000
1001
0000
0000
0000
0001
0000
0100
0010
0100
0000
0001
0000
,
1000
1000
0100
0100
,
0010
0010
0001
0001
,
1000
1000
0010
0100
,
0001
0010
0001
0100
0010
1000
0100
2000
,
0001
0000
0000
0000
3001
0000
0000
0000
1000
0000
0001
0000
1000
0001
1000
0001
,
1000
0100
1000
0001
0100
0010
1000
0002
,
0000
0013
0100
1000
0001
0100
0010
0000
,
0100
0001
1000
0001
0010
0001
1000
0020
,
0000
0130
0001
0010
0100
1000
0001
0000
,
0100
0010
1000
0010
0100
0001
1000
0200
,
0000
0310
0001
1000
0010
0100
0001
1000
,
0100
0100
0110
0000
0010
0001
1000
2002
,
0000
0000
0000
0000
0000
0000
3003
0000
0001
1000
0001
1000
0001
0000
0100
0000
,
0010
1000
0100
1000
0010
0100
0001
2000
,
0000
3001
0100
1000
0100
0010
0100
0001
,
1000
0100
0010
0001
0100
0010
1000
0002
,
0000
0013
1000
0010
0100
0010
0001
1000
,
1001
0000
0000
0000
0000
0000
0110
0110
,
0000
0000
0000
0000
0000
0000
0000
0000
0000
0000
1000
0010
1000
0000
0001
0000
,
1000
0000
0000
0100
0000
0000
0001
0000
1000
0000
0000
0010
0000
0000
0001
0000
,
0000
0000
1000
0000
0001
0010
0000
0010
0100
0000
0100
1000
0000
1000
0001
0000
,
2002
0000
0000
0000
,
0000
0000
0000
0000
,
0000
0000
0000
0000
,
0000
0000
0000
0000
,
3003
0000
0000
0000
;

//--------------- dance-single - FR3D-104 ----------------
#NOTEDATA:;
#STEPSTYPE:dance-single;
#DESCRIPTION:FR3D-104;
#DIFFICULTY:Hard;
#METER:17;
#CREDIT:FR3D-104;
#NOTES:
0000
0000
0000
0000
,
0000
0000
0000
0000
,
0000
0000
0000
0000
,
1000
0000
0001
0010
0100
1000
0001
0100
,
0000
0010
0000
0100
0001
0010
0100
0010
,
0000
0001
0000
0100
0010
1000
0010
0100
,
0000
0010
0000
1000
0000
0001
0010
0100
,
1000
0010
0100
1000
0100
0010
0100
0001
,
0000
1000
0000
0100
0010
0001
0100
0010
,
0001
0010
1000
0001
0010
0100
1000
2002
,
0000
0000
0000
3003
,
1001
0000
0001
0100
0010
1000
0001
0010
,
0000
0100
0000
1000
0010
0100
0010
1000
,
0000
0100
0000
0010
0001
0010
0100
0010
,
0000
1000
0000
0010
0000
0001
0010
0100
,
0000
0000
1000
0001
0100
0010
0001
0010
,
0000
0100
0000
0001
1000
0100
1000
0001
,
0000
0010
0000
0100
0010
1000
0010
0100
,
0000
1000
0000
0010
0000
0100
0001
1000
,
1100
0000
0101
0000
1100
0000
1000
0100
,
0010
0000
0001
0000
1000
0010
1000
0010
0100
0000
0001
0000
0010
0100
0010
0100
,
1000
0001
0010
0001
1000
0010
0100
0001
,
1000
0100
1000
0001
0100
0001
1000
0010
1000
0001
0010
0001
1000
0010
0100
0001
,
0000
0000
0000
0000
,
0000
0000
0000
0000
0000
0000
1001
1001
,
0001
0000
1000
0001
0010
0000
0001
1000
0010
0000
0100
0001
1000
0000
0100
0000
,
0010
0000
0001
1000
0010
0000
0100
0001
1000
0000
0100
0000
0010
0001
0010
0001
,
0010
0000
0100
0010
0001
0000
1000
0010
0100
0000
0010
1000
0001
0000
0010
0000
,
0100
1000
0001
0000
0100
0001
1000
0000
0001
0010
0001
0010
0100
1000
0100
1000
,
0100
0000
1000
0000
0001
0000
0100
0010
0100
0000
0001
0000
1000
0001
1000
0001
,
0010
0000
0100
1000
0001
0000
1000
0010
0100
0000
0001
0000
1000
0001
1000
0001
,
1000
0000
0100
0000
0010
0000
0001
0000
0100
0000
0010
1000
0001
0010
0100
0000
,
1100
0000
0000
0101
0000
0000
1010
0000
0010
1000
0001
0010
0100
0000
1000
0000
,
1100
0000
0110
0000
0001
0001
1000
1000
,
0010
1000
0100
0010
0001
1000
0010
0100
,
0101
0000
1010
0000
1000
1000
0001
0001
,
0010
0000
0100
1000
0010
0000
0100
0001
0010
0000
0100
0000
1000
0000
0001
0000
,
1000
0100
0010
0000
0001
0100
0010
0000
1000
0010
0100
0000
0001
0010
0100
0000
,
1000
0001
0100
0000
0001
1000
0100
0000
1000
0001
0010
0000
0001
1000
0010
0000
,
1000
0001
0100
0001
0010
0100
1000
0010
1000
0100
0010
0001
0100
0001
1000
0100
,
0010
0000
0001
1000
0100
0000
0100
1000
0001
0000
0010
0000
0001
1000
0001
1000
,
0001
0000
0100
0000
0010
0000
1000
0100
0000
0010
0100
0000
1000
0000
0001
0000
,
0100
0000
0010
0000
1000
0000
0001
0100
0000
0010
0100
0000
0001
1000
0001
1000
,
0001
0000
0200
0300
0002
0003
1000
0100
0000
0010
0001
0000
1000
0000
0001
0000
,
0100
0000
0010
0000
1000
0000
0001
1000
0000
0100
0010
0000
0001
0000
0001
0000
,
1000
0000
0001
0000
0100
0000
0010
1000
0000
0001
0010
0000
0100
1000
0100
1000
,
0001
0000
0100
0000
0010
0000
0100
0001
0000
1000
0001
0000
0010
0000
0100
0000
,
0000
0000
2000
3000
0002
0003
0100
0010
0000
1000
0001
0000
0010
0000
0100
0000
,
0000
0000
1010
0000
0000
0101
0000
0000
0001
0000
0010
0000
0001
1000
0001
1000
,
0001
0000
1000
0000
0001
0000
0010
0100
0010
0100
0010
0000
0001
0000
1000
0000
,
0010
0000
0100
0000
0001
0000
1000
0100
1000
0100
0010
0000
0001
1000
0001
1000
,
0010
0000
0200
0300
0002
0003
0100
0010
0100
0010
0100
0000
0001
0000
1000
0100
,
0010
0000
0001
0000
1000
0000
0010
0100
0010
0100
0010
0000
1000
0000
0001
0000
,
0011
0000
0000
0000
1010
0000
0000
0101
0000
0000
1100
0000
0000
0000
0000
0000
,
1010
0000
0000
0101
0000
0000
1100
0000
0000
0011
0000
0000
1000
0100
0010
0001
,
1000
0000
0000
1100
0000
0000
0101
0000
0000
1010
0000
0000
0011
0000
1000
0000
,
0001
0010
0001
0100
0010
1000
0100
1000
0010
0100
0001
0010
0001
0100
0010
1000
,
0000
0000
0000
0000
,
0000
0000
0000
0000
,
0002
0000
0000
2003
,
3002
0000
0000
2003
0000
0000
3200
0000
,
0320
0000
0000
0230
0000
0000
2300
0000
,
0000
0000
3020
0000
,
0230
0000
0000
0000
,
0000
0000
0302
0003
,
2002
0000
0000
0000
,
3003
0000
0000
0000
,
1000
0100
1000
0001
0100
0010
1000
1010
,
0000
1001
0000
0010
0001
0100
0101
0101
,
0000
0001
0000
0010
0100
1000
0010
1010
,
0000
0000
0000
1001
0000
0000
1001
0000
0000
0000
0000
0000
1000
0000
0000
0001
0010
0001
0010
0000
0000
0100
0000
0000
,
1000
0000
0001
0100
0001
0000
1000
0100
1000
0000
0001
0010
0001
0000
1000
0000
,
0001
0100
0010
0000
1000
0010
0100
0000
0001
0010
0100
0000
1000
0100
0010
0000
,
0001
0001
1000
1000
0001
0001
1000
1000
,
0001
1000
0001
0010
0100
1000
0010
1000
0001
0100
0001
0010
0100
1000
0010
0100
,
0001
0000
1000
0010
0100
0000
0100
0010
1000
0000
0001
0000
1000
0001
1000
0001
,
1000
0100
0010
0001
1000
0001
0100
0110
,
0000
0000
0010
0000
1000
0000
0001
0000
0010
0100
1000
0001
0100
0000
0001
0000
,
0100
0010
1000
0001
0010
0001
0100
0110
,
0000
0000
0010
0000
1000
0000
0001
0000
0100
0010
1000
0001
0010
0000
0100
0000
,
1000
0010
0100
0010
1000
0100
0010
0011
,
0000
0000
0001
0000
0010
0000
0001
0000
1000
0010
0100
0001
1000
0000
0100
0000
,
0110
0010
0011
0000
0001
1000
1001
2002
,
0000
0000
0000
0000
3003
0000
0000
0000
0001
0100
0010
1000
0100
1000
0010
0100
,
0001
0000
1000
0010
0100
0000
0010
1000
0001
0000
0010
0100
1000
0000
0001
0000
,
0100
0000
0010
1000
0001
0000
0010
0000
0100
0010
0001
1000
0010
0100
0001
0000
,
1000
0000
0001
0010
0100
0000
1000
0001
0100
0000
0010
1000
0001
0000
0010
0000
,
0100
0000
0010
0001
1000
0000
0010
0000
0100
0001
1000
0001
0010
0100
1000
0000
,
1001
0000
0000
0000
0001
0000
1000
0000
0100
0010
0001
1000
0010
0100
0020
0000
,
0000
0000
1030
0100
0000
0000
0010
0001
1000
0010
0100
0001
0100
0000
0010
0000
,
1010
0000
0000
0101
0000
0000
1000
0100
0010
0000
0000
0011
0000
0000
1001
0000
,
0000
0000
1000
0000
0001
0010
0000
0010
1000
0000
0001
0100
0000
0100
1000
0000
,
2002
0000
0000
0000
,
0000
0000
0000
0000
,
0000
0000
0000
0000
,
0000
0000
0000
0000
,
3003
0000
0000
0000
;

//--------------- dance-single - Fred-104† ----------------
#NOTEDATA:;
#STEPSTYPE:dance-single;
#DESCRIPTION:Fred-104†;
#DIFFICULTY:Challenge;
#METER:18;
#CREDIT:Fred-104†;
#NOTES:
0000
0000
0000
0000
,
0000
0000
0000
0000
,
0000
0000
0000
0000
,
0000
0000
0000
0000
,
0000
0000
0000
0000
,
0000
0000
0000
0000
,
0000
0000
0000
0000
,
1001
0000
0001
0010
0001
0010
0100
1000
,
0000
0010
0000
1000
0100
0010
0001
1000
,
0000
0010
0000
1000
0100
0010
0001
1000
,
0000
0010
0000
0100
0000
0001
1000
0001
,
1001
0000
1000
0100
1000
0100
0010
0001
,
0000
1000
0000
0010
0100
0001
1000
0100
,
0000
1000
0000
0001
0100
0010
1000
0001
,
0000
0010
0000
0100
0000
1000
0002
0200
,
0003
0000
0310
1000
0010
0100
0001
0010
,
0000
0100
0000
1000
0001
0100
0010
1000
,
0000
0100
0000
0010
0100
1000
0010
0100
,
0000
0001
0000
1000
0000
0100
0010
0001
,
1000
1000
0001
0001
,
1000
1000
0001
0001
,
1000
0100
1000
0001
0100
0001
0010
0001
1000
0010
1000
0001
0010
0001
0100
0010
,
1000
0100
1000
0010
0100
0001
0010
0001
1000
0010
1000
0100
0010
0001
0100
0001
,
0000
0000
0000
0000
,
0000
0000
0000
0000
0000
0000
1000
1000
,
0001
0010
0001
1000
0010
1000
0100
1000
0001
0010
0001
1000
0010
1000
0100
1000
,
0001
0010
0001
1000
0010
1000
0100
1000
0001
0010
0001
1000
0010
0100
0001
1000
,
0001
0100
0001
1000
0100
1000
0010
1000
0001
0100
0001
1000
0100
1000
0010
1000
,
0001
0100
0001
1000
0100
1000
0010
1000
0001
0100
0001
1000
0100
0010
0001
1000
,
0001
0100
0001
0010
0001
1000
0100
1000
0001
0010
0001
0100
0001
1000
0100
1000
,
0001
0100
0001
0010
0001
1000
0100
1000
0001
0010
0001
0100
0001
1000
0100
0010
,
0001
0010
0001
0100
0001
1000
0010
1000
0001
0100
0001
0010
0001
1000
0010
1000
,
0001
0000
0000
0011
0000
0000
1001
0000
0001
0100
0010
1000
0001
0000
0010
0000
,
0001
0100
0010
1000
0001
0010
0001
1000
,
0010
0100
0010
1000
0001
0010
0100
0000
1000
0001
0100
0001
1000
0100
0010
0000
,
0001
0010
0100
1000
0001
0100
0001
1000
,
0100
0010
0100
1000
0001
0100
0010
0000
1000
0001
0010
0001
1000
0010
0100
0000
,
0001
1000
0010
1000
0100
1000
0001
0100
0001
1000
0010
1000
0100
1000
0001
0100
,
0001
1000
0010
1000
0100
1000
0001
0100
0001
1000
0010
1000
0001
0010
0100
1000
,
0001
0100
0001
0010
0100
1000
0010
1000
0100
0010
0001
0100
0001
0010
0100
1000
,
0100
0000
1000
0001
1000
0000
0001
1000
0001
0000
1000
0000
0001
1000
0001
1000
,
0010
0000
1000
0000
0001
0000
0010
0100
0000
1000
0001
0000
0100
0001
1000
0100
,
0010
0000
0001
0000
1000
0000
0010
1000
0000
0001
0100
0000
0010
1000
0010
0100
,
0001
0000
1000
0100
0010
0000
0001
1000
0000
0010
1000
0000
0100
0010
0001
1000
,
0010
0000
0100
0000
0001
0000
0010
0001
0000
1000
0010
0000
0100
0000
0100
0000
,
0001
0000
1000
0000
0001
0000
0100
0010
0000
1000
0001
0000
0010
0001
1000
0010
,
0100
0000
0001
0000
1000
0000
0100
0010
0000
0001
1000
0000
0100
1000
0100
0010
,
0001
0000
1000
0010
0100
0000
0001
1000
0000
0100
1000
0000
0010
0100
0001
1000
,
0100
0000
0010
0000
0001
1000
0000
1000
0001
0100
0010
1000
0100
0010
0001
0100
,
0010
0000
1000
0001
0010
0000
0100
1000
0001
1000
0010
0000
0100
0001
1000
0100
,
0010
0000
0001
0100
0010
0000
1000
0100
0010
0001
1000
0000
0010
0100
0001
0100
,
0010
0000
1000
0001
0010
0000
0100
0010
0001
1000
0010
0000
1000
0100
1000
0001
,
0100
0000
0010
1000
0001
0000
0010
0100
1000
0010
0100
0000
0001
1000
0100
1000
,
0001
0000
0000
0000
1100
0000
0000
0110
0000
0000
0011
0000
1000
0010
0100
0001
,
1000
0000
0000
1010
0000
0000
0101
0000
0000
1100
0000
0000
0001
0010
0100
1000
,
0001
0000
0000
0101
0000
0000
1010
0000
0000
0011
0000
0000
1100
0000
1000
0001
,
0010
0001
0100
0010
1000
0100
1000
0001
0010
0001
0100
0010
1000
0100
1000
0001
,
0000
0000
0000
0000
,
0000
0000
0000
0000
,
1001
0000
1000
0010
1000
0010
0100
0010
,
0000
1000
0000
0001
0010
0100
0010
0001
,
0000
1000
0000
0001
1000
0100
1000
0010
,
0000
0100
0000
0001
0000
1000
0100
0010
,
0000
0000
0001
1000
0010
1000
0001
0010
,
0000
0100
0000
0010
0001
1000
0010
0100
,
0000
0001
0000
1000
0100
0010
0100
1000
,
0000
0000
0010
0000
0000
0000
0100
0000
0001
1000
0001
1000
0100
0010
0100
0000
,
0010
0001
1000
0001
0100
0010
1000
1010
,
0000
0101
0000
1100
0100
0010
0011
0011
,
0000
1001
0000
0001
0100
0010
1000
1001
,
0000
0000
0000
0110
0000
0000
0110
0000
0000
0000
0000
0000
1000
0000
0000
0001
0010
0001
0010
0000
0000
0100
0000
0000
,
1000
0001
0010
0001
0100
0001
1000
0100
1000
0001
0100
0001
0010
0001
1000
0001
,
1000
0001
0010
0001
0100
0001
1000
0100
1000
0001
0100
0001
1000
0100
0010
0001
,
1000
0001
1000
0001
0100
0010
0100
0010
,
1000
0001
1000
0010
0100
0001
0010
0001
1000
0100
1000
0010
0100
0001
1000
0100
,
0010
0000
0001
1000
0001
0000
1000
0001
1000
0000
0001
0000
1000
0001
1000
0001
,
0100
0000
0010
1000
0100
0000
0010
0001
0100
0000
0010
1000
0100
0000
0010
0000
,
0001
0000
1000
0000
0010
0000
1000
0000
0001
0010
0100
0000
1000
0000
0001
0000
,
0100
0000
0010
1000
0100
0000
0010
0001
0100
0000
0010
1000
0100
0000
0010
0000
,
0100
0000
1000
0000
0001
0000
0100
0000
0010
1000
0001
0000
0010
0000
0100
0000
,
1000
0000
0010
0100
0001
0000
0010
0100
1000
0000
0010
0100
0001
0000
1000
0000
,
0100
0010
0001
0000
1000
0000
0010
0000
0100
0001
0010
0000
0100
0000
1000
0000
,
0101
1000
0011
1000
0101
1000
0011
2002
,
0000
0000
0000
0000
3003
0000
0000
0000
0001
0010
0100
1000
0010
0100
0001
0010
,
0100
0000
1000
0010
0100
0000
0010
1000
0100
0000
0010
0001
1000
0000
0010
0000
,
0100
0001
0010
0000
0100
0000
1000
0000
0001
1000
0010
0000
0100
0000
0001
0000
,
1000
0000
0100
1000
0010
0000
0100
0001
0010
0000
0001
0100
0010
0000
1000
0000
,
0100
0010
0001
0000
1000
0000
0010
0000
0100
0001
1000
0000
0100
0000
0010
0000
,
0011
0000
0000
0000
1001
0000
0000
0000
1000
0010
0100
0001
0010
0100
0020
0000
,
0000
0000
0031
1000
0010
1000
0100
0010
0100
1000
0010
0100
0001
1000
0100
0010
,
0001
0100
0010
1000
0100
1000
0010
0100
0001
0010
0100
1000
0010
0100
0001
0000
,
0000
0000
1000
0000
0100
0010
0000
0001
1000
0000
0010
0100
0000
0010
1000
0000
,
2002
0000
0000
0000
,
0000
0000
0000
0000
,
0000
0000
0000
0000
,
0000
0000
0000
0000
,
3003
0000
0000
0000
;

//--------------- dance-double - FR3D-104 ----------------
#NOTEDATA:;
#STEPSTYPE:dance-double;
#DESCRIPTION:FR3D-104;
#DIFFICULTY:Easy;
#METER:9;
#CREDIT:FR3D-104;
#NOTES:
00000000
00000000
00000000
00000000
,
00000000
00000000
00000000
00000000
,
00000000
00000000
00000000
00000000
,
00010000
00000000
00001000
00000000
,
00010000
00001000
00000010
00000100
,
00001000
00000000
00000010
00000000
,
00000100
00000001
00000010
00000100
,
00010000
00000000
00001000
00000000
,
00010000
00100000
10000000
00100000
,
01000000
00000000
00010000
00000000
,
00022000
00000000
00000000
00033000
,
00011000
00000000
00001000
00000000
,
00010000
00001000
00000100
00000001
,
00000010
00000000
00001000
00000000
,
00010000
01000000
10000000
01000000
,
00100000
00000000
00010000
00000000
,
00100000
00001000
00010000
00001000
,
00000100
00000000
00000010
00000000
,
00001000
00000001
00000100
00000010
,
00001000
00000000
00000001
00000000
,
00000100
00000000
00001000
00000000
,
00010000
00010000
00001000
00001000
,
00010000
00001000
00010000
00000000
00001000
00100000
00010000
10000000
,
00000000
00000000
00000000
00000000
,
00000000
00000000
00000000
10010000
,
10000000
00000000
01000000
00000000
00100000
00000000
00001000
00010000
,
00001000
00000000
00100000
00000000
00001000
00000000
00010000
00000010
,
00010000
00000000
00001000
00000000
00000100
00000000
00000010
00000100
,
00000010
00000000
00001000
00000000
00000001
00000100
00000001
00000000
,
00000100
00000010
00001000
00010000
,
01000000
00001000
00010000
00001000
,
00010000
00001000
00010000
00000000
00001000
01000000
00001000
00000000
,
00011000
00000000
01100000
00000000
,
10000000
00000000
10000000
00000000
00100000
01000000
00100000
00000000
,
00010000
00001000
00000200
00000300
,
00000001
00000000
00000001
00000000
00000100
00000010
00000100
00000000
,
00001000
00010000
00200000
00300000
,
01100000
00000000
10000000
00000000
,
01100000
00000000
00010000
00000000
,
10000000
11000000
00010000
01010000
,
20020000
00000000
30030000
00000000
,
10000000
01000000
00010000
00001000
,
00000100
00000001
00001000
00000000
,
00000001
00000100
00001000
00010000
,
01000000
10000000
00010000
00000000
,
10000000
00100000
00010000
00001000
,
00000010
00000001
00001000
00000000
,
00000001
00000010
00001000
00010000
,
00022000
00000000
00033000
00000000
00001000
00010000
00001000
00010000
,
00001000
00000000
00100000
00000000
00010000
00000000
10000000
01000000
,
10000000
00000000
00100000
00000000
00010000
00001000
00010000
00000000
,
00001000
00000000
00000100
00000000
00000010
00000000
00001000
00000001
,
00001000
00000000
00000001
00000000
00000100
00000010
00000100
00000000
,
00001001
00000000
00000000
00000000
00000001
00000000
00000000
00000100
00000000
00000000
00000110
00000000
00000000
00000000
00000000
00000000
,
00010000
00000000
00000000
00011000
00000000
00000000
00001000
00000000
,
00100000
00000000
00000000
10010000
00000000
00000000
00100000
00000000
,
00001000
00010000
00001000
00010000
00001000
00010000
00001000
00010000
,
00000000
00000000
00000000
00000000
,
00000000
00000000
00000000
00000000
,
00000020
00000000
00000000
00000000
,
00002030
00000000
00000000
00000000
,
00003200
00000000
00000000
00000000
,
00000000
00000000
00000300
00000000
,
00000020
00000000
00000000
00000000
,
00000032
00000000
00000003
00000000
,
00002002
00000000
00000000
00000000
,
00003003
00000000
00000000
00000000
,
00000001
00000000
00001000
00000000
00000100
00000000
00010000
00010000
,
00000000
00001000
00000000
00000000
00100000
00000000
00001000
00001000
,
00000000
00000000
00010000
00000000
00001000
00000000
00010000
00010000
,
00000000
00000010
00001000
00000000
00000001
00000100
00000001
00000000
,
00000010
00000100
00010000
00001000
,
00000100
00000001
00000010
00001000
,
00010000
00010000
00001000
00001000
,
00010000
00000000
00001000
00000000
00010000
00001000
00010000
00002000
,
00000000
00000000
00000000
00003000
,
00001000
00000000
00010000
00000000
00100000
00000000
10000000
10000000
,
00000000
01000000
00100000
00001000
,
00010000
00000000
00001000
00000000
00000100
00000000
00000001
00000001
,
00000000
00000010
00000100
00000010
,
00000001
00000000
00001000
00000000
00000100
00000000
00010000
00010000
,
00000000
00001000
00010000
00100000
,
10000000
10000000
10000000
00000000
01000000
00000000
00100000
00002000
,
00000000
00000000
00000000
00000000
00013000
00001000
00010000
00001000
,
00010000
00000000
00001000
00000000
00000100
00000000
00000010
00001000
,
00000000
00000001
00000010
00000100
,
00010000
00000000
00001000
00000000
00010000
00000000
00000010
00010000
,
00000000
00001000
00100000
00001000
,
00011000
00000000
00000000
00000000
00000000
00000000
00000010
00000010
,
00000000
00000000
00000000
00000000
00001000
00000100
00000010
00000000
,
00000001
00000000
00000000
00000100
00000000
00000000
00000001
00000000
00001000
00000000
00000000
00000010
00000000
00000000
00010000
00000000
,
00000000
00000000
00001000
00000000
00000000
00010000
00000000
00000000
00000100
00000000
00000000
00001000
00000000
00000000
00000010
00000000
,
00002002
00000000
00000000
00000000
,
00000000
00000000
00000000
00000000
,
00000000
00000000
00000000
00000000
,
00000000
00000000
00000000
00000000
,
00003003
00000000
00000000
00000000
;

//--------------- dance-double - FR3D-104 ----------------
#NOTEDATA:;
#STEPSTYPE:dance-double;
#DESCRIPTION:FR3D-104;
#DIFFICULTY:Medium;
#METER:14;
#CREDIT:FR3D-104;
#NOTES:
00000000
00000000
00000000
00000000
,
00000000
00000000
00000000
00000000
,
00000000
00000000
00000000
00000000
,
00001000
00000000
00100000
00010000
10000000
00010000
00100000
00010000
,
00000000
10000000
00000000
01000000
00100000
00001000
00010000
00001000
,
00000000
00000010
00000000
00000001
00000010
00000100
00001000
00000001
,
00000000
00000100
00000000
00001000
00000000
00010000
00100000
01000000
,
00000000
00000000
00010000
10000000
00010000
00100000
01000000
10000000
,
00000000
01000000
00000000
00100000
00010000
00100000
00001000
00010000
,
00000000
00001000
00000000
00000100
00000010
00001000
00010000
00100000
,
02000000
00000000
00000000
03000000
,
10010000
00000000
10000000
01000000
10000000
01000000
00010000
00001000
,
00000000
00010000
00000000
00001000
00000100
00000001
00001000
00000001
,
00000000
00001000
00000000
00000001
00000010
00001000
00010000
00001000
,
00000000
00010000
00000000
00100000
00000000
01000000
00010000
10000000
,
00000000
00000000
01000000
00100000
00001000
00010000
00000100
00000010
,
00000000
00000001
00000000
00000100
00000010
00000100
00001000
00010000
,
00000000
00100000
00000000
01000000
00001000
00010000
00001000
00000010
,
00000000
00000100
00000000
00010000
00000000
00001000
00000100
00000001
,
00000010
00000100
00010000
00001000
,
00000100
00000001
00000010
00001000
,
00010000
00001000
00010000
00100000
01000000
00100000
10000000
00010000
,
10000000
01000000
00100000
00001000
00010000
00100000
01000000
00010000
,
00000000
00000000
00000000
00000000
,
00000000
00000000
00000000
00000000
00000000
00000000
10000000
10000000
,
00010000
10000000
01000000
00010000
00001000
00010000
00001000
00010000
,
01000000
00100000
00010000
00001000
00000100
00000010
00000001
00000001
,
00000100
00000010
00000100
00001000
00010000
00100000
10000000
00100000
,
01000000
00000000
00010000
00000000
10000000
00000000
01000000
00000000
00100000
00001000
00100000
00000000
00001000
00010000
00001000
00000000
,
00010000
00001000
00000100
00000001
00000100
00000010
00001000
00000000
,
00000001
00000100
00001000
00010000
00100000
01000000
00010000
00000000
,
00100000
01000000
10000000
00100000
00010000
00001000
00010000
00000010
,
00010000
00000000
00000000
00011000
00000000
00000000
00010010
00000000
00010000
00000000
00001000
00000000
00000100
00000000
00000001
00000000
,
00000011
00000000
00001010
00000000
00000010
00000001
00001000
00000000
,
00000001
00000100
00000010
00000100
00001000
00010000
00001000
00000000
,
00011000
00000000
01100000
00000000
00010000
10000000
00100000
00000000
,
10000000
00010000
00100000
01000000
00100000
00001000
00010000
00000000
,
00001000
00010000
00100000
10000000
00010000
00100000
01000000
00000000
,
10000000
01000000
00010000
00001000
00000100
00000010
00001000
00000000
,
00000001
00000100
00001000
00010000
00100000
01000000
00010000
10000000
,
02000000
00000000
00000000
00000000
00000000
00000000
00000000
00000000
00000000
00000000
00000000
00000000
03100000
00010000
00100000
00010000
,
00100000
00000000
00000000
00000000
00001000
00000000
00010000
00000100
00000000
00010000
00000100
00000000
00001000
00000000
00000001
00000000
,
00000010
00000000
00000000
00000000
00000100
00000000
00010000
00001000
00000000
00010000
00001000
00000000
00010000
00000000
00000020
00000000
,
00000000
00000000
00010030
00000000
00001000
00000000
00100000
00010000
00000000
10000000
00010000
00000000
00100000
00000000
01000000
00000000
,
10000000
00000000
00000000
00000000
00010000
00000000
01000000
00100000
00000000
01000000
00100000
00000000
10000000
00000000
01000000
00000000
,
00100000
00000000
00000000
00000000
00001000
00000000
00010000
00000010
00000000
00001000
00000010
00000000
00010000
00000000
00001000
00000000
,
00000100
00000000
00000000
00000000
00000001
00000000
00000010
00000100
00000000
00000010
00001000
00000000
00010000
00000000
00200000
00000000
,
00000000
00000000
01300000
00000000
00010000
00000000
01000000
00001000
00000000
00010000
00000010
00000000
00001000
00000000
00000100
00000000
,
00000000
00000000
00010100
00000000
00000000
01001000
00000000
00000000
00001000
00000000
00010000
00000000
00001000
00010000
00001000
00010000
,
00001000
00000000
00000000
00000000
00100000
00000000
00010000
00100000
00000000
01000000
10000000
00000000
01000000
00000000
00010000
00000000
,
00001000
00000000
00000000
00000000
00010000
00000000
00000010
00001000
00000000
00000010
00000100
00000000
00000001
00000000
00002000
00000000
,
00000000
00000000
00003100
00000000
00000010
00000000
00001000
00010000
00000000
00001000
00010000
00000000
01000000
00000000
00100000
00000000
,
00010000
00000000
00000000
00000000
00100000
00000000
01000000
10000000
00000000
00010000
10000000
00000000
00100000
00000000
01000000
00000000
,
00001000
00000000
00000000
00000000
00011000
00000000
00000000
00010010
00000000
00000000
00011000
00000000
00000000
00000000
00000000
00000000
,
00011000
00000000
00000000
00001010
00000000
00000000
00000011
00000000
00000000
00001001
00000000
00000000
00000001
00000000
00000100
00000000
,
00000010
00000000
00000000
00010010
00000000
00000000
00011000
00000000
00000000
00101000
00000000
00000000
00100000
00000000
00010000
00000000
,
10000000
00000000
00010000
00000000
01000000
00000000
00001000
00000000
00010000
00001000
00010000
00001000
00010000
00001000
00010000
00001000
,
00000000
00000000
00000000
00000000
,
00000000
00000000
00000000
00000000
,
00002000
00000000
00000000
00023000
,
00032000
00000000
00000000
00003200
00000000
00000000
00000302
00000000
,
00000023
00000000
00000000
00002030
00000000
00000000
00023000
00000000
,
00000000
00000000
00032000
00000000
,
00203000
00000000
00000000
00000000
,
00000000
00000000
00320000
00030000
,
20020000
00000000
00000000
00000000
,
30030000
00000000
00000000
00000000
,
10000000
00000000
01000000
00000000
00100000
00000000
00001000
00011000
,
00000000
00010010
00000000
00010000
00001000
00000000
00000100
00000110
,
00000000
00001000
00000000
00000100
00000010
00000000
00000001
00000101
,
00000000
00010000
00011000
00000000
00001000
00010000
00100000
10000000
,
00100000
01000000
00010000
00100000
,
00001000
00010000
00000001
00001000
,
00000001
00000000
00000000
00000000
00000000
00000000
00000000
00000000
00000000
00000000
00000000
00000000
00000000
00000000
00000000
00000000
00001000
00000000
00000000
00000000
00000000
00000000
00000000
00000000
00000200
00000300
00000000
00000000
00000000
00000000
00000000
00000000
00000200
00000300
00000000
00000000
00000000
00000000
00000000
00000000
00000000
00000000
00000000
00000000
00000000
00000000
00000000
00000000
00000001
00000000
00000000
00000000
00000000
00000000
00000000
00000000
00000010
00000000
00000000
00000000
00000000
00000000
00000000
00000000
,
00000001
00000100
00000010
00001000
00000100
00010000
00001000
00020000
,
00001000
00000000
00000000
00000000
00001000
00000000
00000000
00000000
00031000
00000000
00000000
00000000
00010000
00001000
00010000
00001000
,
00010000
00001000
00100000
00010000
00100000
00001000
00010000
00000020
,
00000000
00001030
00000100
00000010
00000001
00000100
00001000
00010000
,
00100000
01000000
00001000
00000100
00000010
00001000
00000001
00000020
,
00000000
00000130
00000010
00001000
00010000
01000000
00100000
01000000
,
10000000
00010000
10000000
00100000
00010000
00001000
00000100
00000020
,
00000000
00010030
00001000
00000100
00000010
00001000
00000001
00000010
,
00000001
00000001
00001001
00000000
00001000
00000010
00010000
00022000
,
00000000
00000000
00000000
00000000
00000000
00000000
00033000
00000000
00010000
00000000
00001000
00000000
00100000
00010000
10000000
00000000
,
00010000
00100000
01000000
00100000
00001000
00010000
00000100
00000020
,
00000000
00000130
00001000
00000001
00000100
00001000
00010000
00100000
,
01000000
00010000
10000000
01000000
00010000
00001000
00000100
00000020
,
00000000
00001030
00000100
00000010
00000001
00000100
00001000
00010000
,
00011000
00000000
00000000
00000000
00000000
00000000
01100000
01100000
,
00000000
00000000
00000000
00000000
00000000
00000000
00000000
00000000
00000000
00000000
10000000
01000000
00100000
00000000
00001000
00000000
,
00010000
00000000
00000000
00001000
00000000
00000000
00000010
00000000
00000001
00000000
00000000
00000100
00000000
00000000
00001000
00000000
,
00000000
00000000
00010000
00000000
00001000
00100000
00000000
00010000
10000000
00000000
01000000
00100000
00000000
00001000
00010000
00000000
,
00022000
00000000
00000000
00000000
,
00000000
00000000
00000000
00000000
,
00000000
00000000
00000000
00000000
,
00000000
00000000
00000000
00000000
,
00033000
00000000
00000000
00000000
;

//--------------- dance-double - FR3D-104 ----------------
#NOTEDATA:;
#STEPSTYPE:dance-double;
#DESCRIPTION:FR3D-104;
#DIFFICULTY:Hard;
#METER:17;
#CREDIT:FR3D-104;
#NOTES:
00000000
00000000
00000000
00000000
,
00000000
00000000
00000000
00000000
,
00000000
00000000
00000000
00000000
,
00010000
00000000
00001000
00010000
00000100
00000010
00000001
00001000
,
00000000
00000001
00000000
00000100
00000010
00000100
00001000
00010000
,
00000000
00100000
00000000
01000000
00010000
10000000
00100000
00010000
,
00000000
00001000
00000000
00000010
00000000
00000100
00000010
00000001
,
00001000
00000001
00000010
00000100
00000010
00001000
00010000
01000000
,
00000000
00100000
00000000
01000000
10000000
01000000
00100000
00001000
,
00010000
00001000
00000100
00000001
00000100
00000010
00001000
00002002
,
00000000
00000000
00000000
00003003
,
00011000
00000000
00010000
00001000
00000100
00000010
00001000
00000001
,
00000000
00000010
00000000
00000100
00010000
00001000
00000100
00000010
,
00000000
00001000
00000000
00000001
00000100
00001000
00010000
00100000
,
00000000
01000000
00000000
00010000
00000000
01000000
00001000
00010000
,
00000000
00000000
00001000
00010000
01000000
00100000
00010000
10000000
,
00000000
00010000
00000000
00100000
00001000
00000010
00000100
00001000
,
00000000
00000001
00000000
00000100
00001000
00010000
01000000
10000000
,
00000000
00010000
00000000
10000000
00000000
01000000
00100000
00001000
,
00011000
00000000
00010010
00000000
00011000
00000000
00010000
00001000
,
00000100
00000000
00000001
00000000
00001000
00000100
00001000
00000000
00000001
00000000
00000010
00000000
00000100
00001000
00000100
00000000
,
00001000
00000100
00010000
00001000
00100000
00010000
10000000
00100000
,
01000000
00010000
10000000
01000000
10000000
00010000
01000000
00001000
00010000
00000100
00001000
00000001
00000100
00000010
00001000
00000001
,
00000000
00000000
00000000
00000000
,
00000000
00000000
00000000
00000000
00000000
00000000
00010000
00010000
,
00001000
00010000
00100000
01000000
00100000
10000000
00010000
10000000
,
01000000
00000000
00010000
00000000
00001000
00000000
00010000
00000000
01000000
00000000
00100000
00000000
00010000
10000000
00010000
10000000
,
00100000
00010000
00001000
00000100
00000010
00001000
00000001
00000010
,
00001000
00000000
00010000
00000000
01000000
00000000
10000000
00000000
01000000
00100000
01000000
00100000
00010000
00100000
00010000
00100000
,
00001000
00000000
00010000
00000000
00001000
00000000
00000010
00000000
00000100
00000000
00001000
00000000
00000001
00000100
00000001
00001000
,
00000100
00000000
00010000
00000000
00001000
00000000
00000100
00000000
00000010
00000000
00010000
00000000
00001000
00100000
00010000
10000000
,
00010000
00000000
00100000
00000000
01000000
00000000
10000000
00000000
00100000
00000000
01000000
00010000
10000000
01000000
00100000
00000000
,
00110000
00000000
00000000
00011000
00000000
00000000
00010010
00000000
00010000
00000010
00001000
00000010
00000100
00000000
00000001
00000000
,
00001001
00000000
00000110
00000000
00000001
00000001
00001000
00001000
,
00000001
00000100
00010000
01000000
10000000
01000000
00010000
10000000
,
11000000
00000000
00110000
00000000
10000000
10000000
00010000
00010000
,
10000000
00100000
00001000
00000010
00000001
00000010
00001000
00000001
,
00001000
00000001
00000100
00001000
00010000
00100000
10000000
00000000
,
00010000
10000000
01000000
00010000
00001000
00000010
00000001
00000000
,
00001000
00000010
00000100
00000001
00001000
00000100
00010000
00001000
01000000
00010000
10000000
01000000
10000000
00010000
01000000
00001000
,
00010000
00000000
00000000
00000000
00001000
00000000
00000000
00000000
00001000
00000000
00000000
00000000
00001000
00010000
00001000
00010000
,
00001000
00000000
00000000
00000000
00010000
00000000
00001000
00000100
00000000
00000010
00001000
00000000
00000100
00000000
00000010
00000000
,
00000001
00000000
00000000
00000000
00000100
00000000
00001000
00010000
00000000
00001000
00010000
00000000
00100000
01000000
00010000
10000000
,
00000000
00000000
00200000
00300000
20000000
30000000
01000000
00100000
00000000
00010000
00100000
00000000
00001000
00000000
00000010
00000000
,
00000100
00000000
00000000
00000000
00001000
00000000
00000001
00000100
00000000
00001000
00010000
00000000
00001000
00000000
00001000
00000000
,
00010000
00000000
00000000
00000000
00001000
00000000
00010000
01000000
00000000
00100000
00010000
00000000
01000000
00000000
00001000
00010000
,
00001000
00000000
00000000
00000000
00010000
00000000
00001000
00000100
00000000
00000010
00010000
00000000
00001000
00010000
00000010
00001000
,
00000000
00000000
00000200
00000300
00000020
00000030
00001000
00010000
00000000
01000000
00100000
00000000
00010000
00000000
01000000
00000000
,
00000000
00000000
01001000
00000000
00000000
00010010
00000000
00000000
00010000
00000000
00001000
00000000
00010000
00001000
00010000
00001000
,
00010000
00000000
00000010
00000000
00001000
00000000
00000001
00000010
00000000
00000010
00000100
00000000
00010000
00000000
00001000
00010000
,
00001000
00000000
00100000
00000000
00010000
00000000
10000000
00100000
00000000
00100000
01000000
00000000
00010000
10000000
00010000
10000000
,
01000000
00000000
00200000
00300000
00002000
00003000
00010000
00000100
00000000
00000100
00001000
00000000
00000001
00000000
00000100
00000010
,
00000100
00000000
00000001
00000000
00001000
00000000
00000001
00000010
00000000
00000010
00000100
00000000
00010000
00001000
00010000
00000000
,
00011000
00000000
00000000
00000000
00010100
00000000
00000000
01001000
00000000
00000000
00010100
00000000
00000000
00000000
00000000
00000000
,
00011000
00000000
00000000
00001010
00000000
00000000
00000011
00000000
00000000
00001001
00000000
00000000
00000001
00000010
00000100
00010000
,
00001000
00000000
00000000
00011000
00000000
00000000
00110000
00000000
00000000
10100000
00000000
00000000
10010000
00000000
00010000
00000000
,
10000000
01000000
00100000
00010000
00100000
00001000
00010000
00000100
00001000
00000100
00000010
00000001
00001000
00000010
00000100
00000001
,
00000000
00000000
00000000
00000000
,
00000000
00000000
00000000
00000000
,
20000000
00000000
00000000
32000000
,
03020000
00000000
00000000
00032000
00000000
00000000
00003200
00000000
,
00000302
00000000
00000000
00002003
00000000
00000000
00003002
00000000
,
00000000
00000000
00000023
00000000
,
00000230
00000000
00000000
00000000
,
00000000
00000000
00020300
00030000
,
00022000
00000000
00000000
00000000
,
00033000
00000000
00000000
00000000
,
00001000
00010000
01000000
10000000
01000000
00100000
00001000
00011000
,
00000000
00010010
00000000
00010000
00000100
00001000
00001100
00001100
,
00000000
00010000
00000000
00001000
00000010
00000001
00001000
00001010
,
00000000
00000000
00000101
00000000
00000011
00000000
00000000
00000000
00000001
00000000
00001000
00000010
00010000
00000000
00001000
00000000
,
00010000
00000000
00001000
00100000
00010000
00000000
00100000
00001000
00010000
00000000
00001000
00100000
00010000
00000000
01000000
00000000
,
00001000
00000000
00010000
00000010
00001000
00000000
00000010
00010000
00001000
00000000
00010000
00000010
00001000
00000000
00000100
00000000
,
00010000
00001000
00100000
00010000
01000000
00100000
10000000
01000000
,
10000000
00010000
01000000
00100000
01000000
00010000
00100000
00010000
10000000
01000000
10000000
00100000
01000000
00010000
00100000
00010000
,
01000000
00000000
00000000
00000000
00001000
00000000
00000000
00000000
00010000
00000000
00010000
00000000
00001000
00010000
00001000
00010000
,
00001000
00010000
00001000
00000100
00000001
00000010
00000001
00001001
,
00000000
00000001
00000010
00010000
00100000
10000000
00100000
00001000
,
00010000
00001000
00000010
00000001
00000010
00000100
00010000
00011000
,
00000000
00001000
00010000
00100000
10000000
00100000
00001000
00000010
,
00000100
00000001
00001000
00000100
00000010
00001000
00010000
00011000
,
00000000
00001000
00010000
00100000
10000000
00100000
00001000
00000010
,
00000100
00000001
00001001
00000000
00000110
00000000
00010000
00022000
,
00000000
00000000
00000000
00000000
00033000
00000000
00000000
00000000
00001000
00100000
00010000
00100000
00001000
00010000
00000010
00001000
,
00000010
00000000
00001000
00000001
00000010
00000000
00000100
00010000
00001000
00000000
00100000
00010000
10000000
00000000
00100000
00000000
,
01000000
00000000
00010000
10000000
01000000
00000000
00100000
00000000
00001000
00010000
00000010
00000000
00001000
00000001
00000010
00000000
,
00000100
00000000
00000010
00000001
00001000
00000000
00000001
00000100
00001000
00000000
00010000
00100000
01000000
00000000
00100000
00000000
,
10000000
00000000
00100000
01000000
00010000
00000000
10000000
00000000
01000000
00100000
00010000
00100000
00001000
00010000
00000010
00000000
,
00001010
00000000
00000000
00000000
00000001
00000000
00001000
00000000
00000001
00000010
00000100
00001000
00000100
00010000
00002000
00000000
,
00000000
00000000
00103000
00010000
00000000
00000000
00010000
10000000
00010000
01000000
00100000
01000000
00010000
00000000
00100000
00000000
,
00101000
00000000
00000000
00010010
00000000
00000000
00010000
00001000
00000100
00000000
00000000
00000101
00000000
00000000
00000011
00000000
,
00000000
00000000
00001000
00000000
00000001
00000010
00000000
00000100
00010000
00000000
00001000
00100000
00000000
01000000
10000000
00000000
,
20020000
00000000
00000000
00000000
,
00000000
00000000
00000000
00000000
,
00000000
00000000
00000000
00000000
,
00000000
00000000
00000000
00000000
,
30030000
00000000
00000000
00000000
;

//--------------- dance-double - Fred-104† ----------------
#NOTEDATA:;
#STEPSTYPE:dance-double;
#DESCRIPTION:Fred-104†;
#DIFFICULTY:Challenge;
#METER:18;
#CREDIT:Fred-104†;
#NOTES:
00000000
00000000
00000000
00000000
,
00000000
00000000
00000000
00000000
,
00000000
00000000
00000000
00000000
,
00000000
00000000
00000000
00000000
,
00000000
00000000
00000000
00000000
,
00000000
00000000
00000000
00000000
,
00000000
00000000
00000000
00000000
,
00011000
00000000
00010000
00001000
00000100
00000010
00001000
00000100
,
00000000
00000010
00000000
00000001
00001000
00000010
00000100
00001000
,
00000000
00010000
00000000
00001000
01000000
00010000
00100000
00010000
,
00000000
10000000
00000000
01000000
00000000
00010000
00001000
00010000
,
00011000
00000000
00001000
00010000
01000000
00100000
00010000
01000000
,
00000000
00100000
00000000
10000000
00010000
00100000
01000000
00010000
,
00000000
00001000
00000000
00010000
00000100
00001000
00000010
00001000
,
00000000
00000001
00000000
00000100
00000000
00001000
00020000
00002000
,
00030000
00000000
00013000
00001000
00000010
00000100
00000010
00000001
,
00000000
00001000
00000000
00000001
00000100
00000010
00000100
00001000
,
00000000
00010000
00000000
00100000
01000000
00100000
10000000
00010000
,
00000000
10000000
00000000
01000000
00000000
00010000
00001000
00010000
,
00001000
00001000
00010000
00010000
,
00001000
00001000
00010000
00010000
,
00001000
00100000
00010000
00000000
01000000
00010000
00100000
00000000
01000000
10000000
00010000
00000000
01000000
00100000
10000000
00000000
,
01000000
10000000
00100000
01000000
00010000
00100000
00001000
00010000
00000100
00001000
00000010
00000100
00000001
00000010
00000001
00001000
,
00000000
00000000
00000000
00000000
,
00000000
00000000
00000000
00000000
00000000
00000000
00000010
00000010
,
00010000
00001000
00010000
00000100
00001000
00000100
00010000
00001000
00100000
00010000
10000000
00010000
00100000
00001000
00100000
00001000
,
00010000
00001000
00010000
00000100
00001000
00000100
00010000
00001000
00100000
00010000
10000000
01000000
00100000
00010000
00100000
00001000
,
00010000
00001000
00010000
00000010
00001000
00000010
00010000
00001000
01000000
00010000
10000000
00010000
01000000
00001000
01000000
00001000
,
00010000
00001000
00010000
00000010
00001000
00000010
00010000
00001000
01000000
00010000
10000000
00100000
01000000
00010000
01000000
00001000
,
00010000
00001000
00010000
00000100
00001000
00000100
00001000
00000001
00000100
00000010
00001000
00000001
00000010
00000100
00001000
00000100
,
00010000
00001000
00010000
00001000
01000000
00010000
01000000
00010000
10000000
01000000
00100000
01000000
10000000
00010000
01000000
00001000
,
00010000
00001000
00010000
00000010
00001000
00000010
00001000
00000001
00000010
00000100
00001000
00000001
00000100
00000010
00001000
00000010
,
00010000
00000000
00000000
00011000
00000000
00000000
00101000
00000000
00100000
00010000
10000000
00100000
01000000
00000000
00010000
00000000
,
00110000
00000000
10010000
00000000
10000000
01000000
00100000
00010000
,
00100000
00001000
00010000
00000000
00000010
00001000
00000001
00000000
00000010
00000100
00001000
00000000
00000100
00010000
00001000
00000000
,
00011000
00000000
00010010
00000000
00010000
00001000
01000000
00010000
,
00100000
00001000
00010000
00000000
00000100
00001000
00000001
00000000
00000100
00000010
00001000
00000000
00000100
00010000
00001000
00000000
,
00010000
00001000
00010000
00000010
00001000
00000010
00010000
00001000
00010000
00000100
00001000
00000100
00010000
00001000
00010000
00001000
,
00010000
00001000
00010000
00000100
00001000
00000100
00010000
00001000
00010000
00000010
00001000
00000010
00010000
00001000
00010000
00001000
,
00100000
00010000
01000000
00100000
01000000
00010000
10000000
01000000
10000000
00100000
01000000
00010000
00100000
00001000
00010000
00001000
,
00100000
00000000
00000000
00000000
00001000
00000000
00000000
00000000
00010000
00000000
00000000
00000000
00001000
00010000
00001000
00010000
,
00001000
00000000
00010000
00000000
00000100
00000000
00001000
00000001
00000000
00001000
00000100
00000000
00000010
00000001
00001000
00000010
,
00000100
00000000
00000010
00000000
00001000
00000000
00000001
00000010
00000000
00000100
00001000
00000000
00000100
00010000
00001000
00010000
,
00001000
00000000
01000000
00000000
00010000
00000000
00100000
01000000
00000000
10000000
00100000
00000000
01000000
00010000
10000000
00010000
,
00100000
00000000
01000000
00000000
00100000
00000000
00001000
00010000
00000000
00000100
00001000
00000000
00000010
00000000
00000010
00000000
,
00010000
00000000
00001000
00000000
01000000
00000000
00010000
10000000
00000000
00010000
01000000
00000000
00100000
10000000
00010000
00100000
,
01000000
00000000
00100000
00000000
00010000
00000000
10000000
00100000
00000000
01000000
00010000
00000000
01000000
00001000
00010000
00001000
,
00010000
00000000
00000100
00000000
00001000
00000000
00000010
00000100
00000000
00000001
00000010
00000000
00000100
00001000
00000001
00001000
,
00000010
00000000
00010000
00000000
00001000
00100000
00000000
00001000
00100000
00010000
10000000
00100000
01000000
00010000
00100000
00010000
,
10000000
00000000
00100000
10000000
01000000
00000000
00100000
00001000
00000000
00010000
00001000
00000000
00010000
00000100
00001000
00000100
,
00000010
00000000
00000001
00001000
00000010
00000000
00001000
00000001
00000000
00000010
00000100
00000000
00001000
00000100
00010000
00001000
,
01000000
00000000
00010000
00100000
01000000
00000000
00100000
00010000
00000000
01000000
00001000
00000000
00010000
00000100
00001000
00000010
,
00010000
00000000
00000010
00001000
00000100
00000000
00010000
00001000
00000000
01000000
00010000
00000000
00100000
01000000
10000000
00010000
,
01000000
00000000
00000000
00000000
01100000
00000000
00000000
10100000
00000000
00000000
01010000
00000000
10000000
01000000
00100000
00001000
,
00010000
00000000
00000000
00011000
00000000
00000000
00010010
00000000
00000000
00001010
00000000
00000000
00001000
00000001
00000010
00000100
,
00001000
00000000
00000000
00001100
00000000
00000000
00010100
00000000
00000000
01001000
00000000
00000000
01000000
00010000
00100000
01000000
,
10000000
00100000
01000000
00010000
00100000
00001000
00010000
00001000
00010000
00000100
00001000
00000010
00000100
00000001
00000010
00000001
,
00000000
00000000
00000000
00000000
,
00000000
00000000
00000000
00000000
,
00011000
00000000
00010000
00001000
00000010
00000100
00001000
00000010
,
00000000
00000100
00000000
00000001
00001000
00000100
00000010
00001000
,
00000000
00010000
00000000
00001000
00100000
00010000
01000000
00010000
,
00000000
10000000
00000000
00100000
00000000
00010000
00001000
00010000
,
00000000
00000000
00001000
00010000
01000000
00100000
01000000
10000000
,
00000000
00010000
00000000
10000000
00100000
01000000
00100000
00010000
,
00000000
00001000
00000000
00000100
00000010
00000100
00000001
00001000
,
00000000
00000000
00000001
00000000
00000000
00000000
00000010
00000000
00001000
00010000
00001000
00000000
00010000
00001000
00100000
00000000
,
00010000
10000000
00100000
01000000
00100000
00010000
00001000
00011000
,
00000000
00010010
00000000
00010000
00001000
00000100
00000110
00000110
,
00000000
00001010
00000000
00000001
00000100
00001000
00010000
00011000
,
00000000
00000000
00000000
01100000
00000000
00000000
01100000
00000000
00000000
00000000
00000000
00000000
10000000
00000000
00000000
01000000
00100000
01000000
00100000
00000000
00000000
00010000
00000000
00000000
,
10000000
00100000
01000000
00000000
00010000
01000000
00001000
00000000
00010000
00000010
00001000
00000000
00000010
00000100
00000001
00000000
,
00001000
00000100
00000010
00000000
00000001
00000010
00000100
00000000
00001000
00000010
00010000
00000000
00001000
00100000
00010000
00000000
,
01000000
00100000
10000000
01000000
00100000
01000000
00010000
00001000
,
00010000
00000100
00001000
00000001
00000100
00000010
00001000
00000100
00010000
00001000
00100000
00010000
10000000
00100000
01000000
00010000
,
01000000
00000000
00000000
00000000
00001000
00000000
00000000
00000000
00010000
00000000
00000000
00000000
00001000
00010000
00001000
00010000
,
00001000
00000000
00100000
00010000
01000000
00000000
00010000
00100000
01000000
00000000
00100000
00001000
00010000
00000000
00001000
00000000
,
00010000
00000000
00000100
00000000
00001000
00000000
00000001
00000000
00000100
00000010
00001000
00000000
00000001
00000000
00000010
00000000
,
00000100
00000000
00001000
00000100
00010000
00000000
00001000
01000000
00010000
00000000
00100000
01000000
10000000
00000000
00100000
00000000
,
01000000
00000000
00010000
00000000
10000000
00000000
01000000
00000000
00100000
00001000
00010000
00000000
00000100
00000000
00001000
00000000
,
00000001
00000000
00000100
00000001
00000010
00000000
00000100
00001000
00000010
00000000
00010000
00001000
01000000
00000000
00010000
00000000
,
00100000
01000000
10000000
00000000
00010000
00000000
01000000
00000000
00100000
10000000
01000000
00000000
00100000
00000000
00001000
00000000
,
00010000
00001000
00010000
00000000
00010010
00000000
00000000
00000000
00001100
00000000
00000100
00000000
00000010
00000000
00000022
00000000
,
00000000
00000000
00000000
00000000
00000033
00000000
00000000
00000000
00000001
00000010
00000100
00001000
00000100
00010000
00001000
01000000
,
00010000
00000000
00100000
01000000
10000000
00000000
00010000
01000000
00100000
00000000
10000000
01000000
00100000
00000000
00001000
00000000
,
00010000
00000100
00000010
00000000
00000001
00000000
00001000
00000000
00000010
00010000
00001000
00000000
01000000
00000000
00010000
00000000
,
00100000
00000000
01000000
10000000
00100000
00000000
01000000
00001000
00010000
00000000
00000100
00010000
00001000
00000000
00010000
00000000
,
00000010
00001000
00000001
00000000
00001000
00000000
00000100
00000000
00010000
00001000
00100000
00000000
01000000
00000000
10000000
00000000
,
10100000
00000000
00000000
00000000
01010000
00000000
00000000
00000000
10000000
01000000
00100000
00010000
00100000
00001000
00020000
00000000
,
00000000
00000000
00030010
00001000
00000010
00000100
00000001
00001000
00000100
00000010
00000001
00001000
00000010
00000100
00000001
00000010
,
00000001
00000100
00000010
00001000
00000100
00010000
00001000
00010000
00001000
00100000
00010000
00100000
01000000
10000000
00010000
00000000
,
00000000
00000000
00010000
00000000
10000000
01000000
00000000
00100000
00010000
00000000
00001000
00000100
00000000
00000010
00000001
00000000
,
00002002
00000000
00000000
00000000
,
00000000
00000000
00000000
00000000
,
00000000
00000000
00000000
00000000
,
00000000
00000000
00000000
00000000
,
00003003
00000000
00000000
00000000
;
