#VERSION:0.83;
#TITLE:3!dolon Forc3;
#ARTIST:青龍×Eagle;
#ARTISTTRANSLIT:Seiryu × Eagle;
#GENRE:THE 4TH;
#CREDIT:AO-∞ (2017);
#BANNER:3!dolon Forc3.png;
#BACKGROUND:3!dolon Forc3-bg.png;
#CDTITLE:./CDTitles/AO-INFINITY.png;
#MUSIC:3!dolon Forc3.ogg;
#SAMPLESTART:94.97;
#SAMPLELENGTH:15;
#BPMS:0=191,167=180,171=170,175=160,179=150,183=130,187=120,191=115.2,193.5=110.4,196=95.5,228=191;
#BGSTAGE:27;

//--------------- dance-single - Fred-104 ----------------
#NOTEDATA:;
#STEPSTYPE:dance-single;
#DESCRIPTION:Fred-104;
#DIFFICULTY:Beginner;
#METER:4;
#CREDIT:Fred-104;
#NOTES:
0000
0000
0000
0000
,
0000
0000
0000
0000
,
0000
0000
0000
0000
,
0000
0000
0000
0000
,
0000
0000
0000
0000
,
0000
0000
0000
0000
,
0000
0000
0000
0000
,
0000
0000
0000
0000
,
0000
0000
0000
0000
,
1000
0000
0000
0000
,
0001
0000
0001
0000
,
0100
0000
0000
0000
,
0010
0000
0010
0000
,
0100
0000
0100
0000
,
0010
0000
0010
0000
,
1000
0000
1000
0000
,
1001
0000
0000
0000
,
0001
0000
0000
0001
,
0000
0000
0001
0000
,
1000
0000
0000
1000
,
0000
0000
1000
0000
,
0100
0000
0000
0100
,
0000
0000
0100
0000
,
0010
0000
0000
0010
,
0000
0000
0010
0000
,
0001
0000
0001
0000
,
0001
0000
0000
0000
,
1000
0000
1000
0000
,
1000
0000
0000
0000
,
0010
0000
0100
0000
,
0010
0000
0000
0000
,
1000
0000
0001
0000
,
1000
0000
0000
0000
,
0001
0000
0000
0000
,
1000
0000
0001
0000
,
0100
0000
0000
0000
,
0001
0000
1000
0000
,
0010
0000
0000
0000
,
1000
0000
0001
0000
,
1000
0000
0100
0000
,
0010
0000
0001
0000
,
2002
0000
0000
0000
,
0000
0000
0000
0000
,
0000
0000
0000
0000
,
0000
0000
0000
0000
,
3003
0000
0000
0000
,
0000
0000
0000
0000
,
0000
0000
0000
0000
,
0000
0000
0000
0000
,
1000
0000
0001
0000
,
0010
0010
0010
0000
,
0100
0000
1000
0000
,
0001
0001
0001
0001
,
0001
0000
1000
0010
,
0010
0100
0010
1000
,
0001
1000
0100
0010
,
0001
0000
0010
0000
,
0002
0000
0000
0000
,
0000
0000
0000
0000
,
0000
0000
0000
0000
,
0000
0000
0000
0003
,
1000
0000
0000
0000
,
0001
0000
0000
0000
,
1000
0000
1000
0000
,
1001
0000
0000
0000
,
0001
0000
0001
0000
,
0010
0000
0000
0000
,
0100
0000
0100
0000
,
1000
0000
0000
0000
,
0001
0000
1000
0000
,
0001
0000
0000
0000
,
0100
0000
0010
0000
,
0100
0000
0000
0000
,
0001
0000
1000
0000
,
1000
0000
0001
0000
,
0001
0000
1000
0000
,
0001
0000
0001
0000
,
1000
0000
0100
0000
,
1000
0000
0001
0000
,
0100
0100
0100
0000
,
0001
0001
0001
0001
,
2002
0000
0000
0000
,
0000
0000
0000
0000
,
3003
0000
0000
0000
;

//--------------- dance-single - Fred-104 ----------------
#NOTEDATA:;
#STEPSTYPE:dance-single;
#DESCRIPTION:Fred-104;
#DIFFICULTY:Easy;
#METER:9;
#CREDIT:Fred-104;
#NOTES:
0000
0000
0000
0000
,
0000
0000
0000
0000
,
0000
0000
0000
0000
,
0000
0000
0000
0000
,
0000
0000
0000
0000
,
0000
0000
0000
0000
,
0000
0000
0000
0000
,
0000
0000
0000
0000
,
0000
0000
0000
0000
,
1000
0000
0100
0000
1000
0000
0000
1000
,
0001
0000
0100
0000
0001
0000
0000
0001
,
0010
0000
0100
0000
0010
0000
0000
0010
,
0100
1000
0001
0000
,
1000
1000
0100
0100
,
0010
0010
0001
0001
,
1000
0010
1000
0000
0001
0100
0001
0000
,
1000
0000
0000
1000
0000
0000
1000
0000
,
0001
0000
0100
0000
0001
0000
0000
0010
,
0000
0010
0000
0100
0000
0000
0100
0000
,
1000
0000
0001
0000
1000
0000
0000
0010
,
0000
0010
0000
0100
0000
0000
0010
0000
,
1000
0000
0001
0000
0010
0000
0000
0100
,
0000
0100
0000
1000
0000
0000
0001
0000
,
1000
0000
0010
0000
0100
0000
0000
0001
,
0000
1000
0000
1000
0000
0000
0100
0000
,
0010
0000
0001
0000
0010
0000
0000
0001
,
0000
1000
0000
0001
0000
0100
0001
0000
,
1000
0000
0100
0000
1000
0000
0000
0001
,
0000
0001
0000
1000
0000
0010
0100
0000
,
0010
0000
1000
0000
0100
0000
0000
0010
,
0000
0010
0000
0001
0000
0010
0001
0000
,
1000
0001
0100
0010
,
2002
0000
0000
3003
1000
0001
1000
0000
,
0001
0010
0000
0010
0100
0000
1000
0000
,
0002
0003
2000
3000
,
0010
0100
0000
0100
0001
0000
1000
0000
,
0200
0300
0020
0030
,
0001
1000
0000
1000
0010
0000
0100
0000
,
0002
0003
2000
3000
,
0100
0010
0100
0000
0010
0001
0010
0000
,
0001
0000
1000
0001
1000
0001
1000
0000
,
2002
0000
0000
0000
,
0000
0000
0000
0000
,
0000
0000
0000
0000
,
0000
0000
0000
3003
,
0220
0000
0000
0000
,
0000
0000
0000
0000
,
0000
0000
0000
0000
,
0000
0000
0000
0000
0000
0000
0000
0000
0000
0000
0000
0000
0000
0000
0000
0000
0000
0000
0000
0000
0000
0000
0000
0000
0000
0000
0000
0330
0000
0000
0000
0000
0000
0000
0000
0000
0000
0000
0000
0000
0000
0000
0000
0000
0000
0000
0000
0000
0000
0000
0000
0000
0000
0000
0000
0000
0000
0000
0000
0000
0000
0000
0000
0000
,
0001
0010
0110
1000
0001
0100
0010
0010
,
0010
1000
0010
0000
0110
0000
0001
0000
1000
0000
0100
0000
1000
0001
1000
0000
,
0001
0000
0001
0000
0110
0000
1001
0000
1000
0000
0001
0000
0100
0010
0100
0000
,
0001
1000
0001
0000
0010
0000
0100
0000
1000
0000
1000
0000
0001
1000
0001
0000
,
0110
1000
0110
0001
1000
0100
0110
0011
,
0001
1000
0001
0000
0100
0000
0100
0000
0010
0000
0010
0000
1000
0001
1000
0000
,
0100
0010
0011
0001
1000
0001
2002
3003
,
0001
0000
1000
0000
0010
0000
0100
0000
0010
1000
0000
1000
0000
1000
0001
0000
,
2000
0000
0000
0000
,
3200
0000
0000
0000
,
0320
0000
0000
0000
,
0032
0000
0000
0000
,
1003
1000
0001
0001
,
0100
0100
0010
0010
,
0100
0001
0100
0000
0010
1000
0010
0000
,
1000
0000
0000
1000
0000
0000
1000
0000
,
0001
0000
0010
0000
0100
0000
0000
1000
,
0000
0001
0000
0100
0000
0000
0001
0000
,
1000
0000
0100
0000
1000
0000
0000
0001
,
0000
0001
0000
1000
0000
0000
0010
0000
,
0100
0000
0010
0000
0010
0000
0000
1000
,
0000
0001
0000
0010
0000
0000
0100
0000
,
1000
0000
0001
0000
1000
0000
0000
0010
,
0000
0100
0000
0100
0000
0000
0010
0000
,
0100
0000
0001
0000
1000
0000
0000
0100
,
0000
0010
0000
0010
0000
0001
0010
0000
,
0001
0000
1000
0000
0001
0000
0000
0100
,
0000
0100
0000
0001
0000
1000
0100
0000
,
0010
0010
0001
0001
,
1000
1000
0010
0010
,
0100
0001
1000
0001
,
1000
0100
1000
0100
1000
0100
1000
0000
,
2002
0000
0000
0000
,
0000
0000
0000
0000
,
3003
0000
0000
0000
;

//--------------- dance-single - Fred-104 ----------------
#NOTEDATA:;
#STEPSTYPE:dance-single;
#DESCRIPTION:Fred-104;
#DIFFICULTY:Medium;
#METER:14;
#CREDIT:Fred-104;
#NOTES:
0000
0000
0000
0000
,
0000
0000
0000
0000
,
0000
0000
0000
0000
,
0000
0000
0000
0000
,
0000
0000
0000
0000
,
0000
0000
0000
0000
,
0000
0000
0000
0000
,
0000
0000
0000
0000
,
0000
0000
0000
0000
,
1000
0000
0100
0000
0010
0001
0000
0001
,
1000
0010
0100
0000
0010
1000
0000
1000
,
0001
0010
0100
0000
1000
0001
0000
0001
,
0100
0001
1000
0000
0100
0010
0000
0010
,
0001
0010
0001
0000
1000
0010
1000
0000
,
0001
0100
0001
0000
1000
0100
1000
0000
,
0001
0010
0100
1000
0001
0100
0010
1000
,
0001
0100
1000
0001
0010
1000
0001
0000
,
1000
0100
1100
0000
1000
0001
0000
0011
,
0000
1010
0000
0011
0000
0001
0100
0010
,
1000
0001
1001
0000
0001
0100
0000
0110
,
0000
1010
0000
0101
0000
1000
0100
0010
,
0100
1000
1100
0000
0001
1000
0000
1010
,
0000
0101
0000
1100
0000
0100
0010
0001
,
0010
0001
0011
0000
0001
0100
0000
0110
,
0000
1001
0000
0110
0000
1000
0100
0010
,
0001
1000
0010
0000
1000
0001
0010
0100
,
0000
0001
0100
1000
0000
0001
0100
0010
,
1000
0001
0010
0000
1000
0010
0100
1000
,
0000
0001
1000
0100
0000
1000
0010
1000
,
0001
0010
0100
1000
0001
0010
0100
0010
,
1000
0010
0100
0010
0001
1000
0010
0100
,
0001
1000
0100
1000
0001
0100
0010
0100
,
0001
0000
1000
0000
0100
0000
0010
0000
0001
1000
0001
1000
0001
0000
0000
0000
,
1000
0100
0001
0100
1000
0001
1000
0000
,
0001
0100
1000
0000
0001
0010
1000
0000
,
0001
0010
1000
0010
0001
1000
0001
0000
,
1000
0010
0001
0000
1000
0100
0001
0000
,
1000
0100
0010
1000
0010
0001
1000
0000
,
0001
0100
1000
0000
0100
0010
0100
0000
,
0001
0010
0100
1000
0001
0100
0010
1000
,
0001
0000
0100
0000
0010
1000
0010
1000
0010
0000
1000
0000
0001
0000
0010
0000
,
0220
0000
0000
0000
,
0000
0000
0000
0000
,
0000
0000
0000
0000
,
0000
0000
0000
0330
,
2002
0000
0000
0000
,
0000
0000
0000
0000
,
0000
0000
0000
0000
,
0000
0000
0000
0000
0000
0000
0000
0000
0000
0000
0000
0000
0000
0000
0000
0000
0000
0000
0000
0000
0000
0000
0000
0000
0000
0000
0000
3003
0000
0000
0000
0000
0000
0000
0000
0000
0000
0000
0000
0000
0000
0000
0000
0000
0000
0000
0000
0000
0000
0000
0000
0000
0000
0000
0000
0000
0000
0000
0000
0000
0000
0000
0000
0000
,
0001
1000
0001
0000
1100
0000
2001
0000
3002
0000
0103
0010
1000
1000
1000
0000
,
0001
0001
0001
0000
0110
0000
1000
1000
0100
0001
0100
1000
0001
1000
0002
0003
,
0110
0000
0110
0000
1010
0000
0101
0000
1100
0000
0001
1000
0100
0010
0002
0000
,
1003
1000
1000
0000
0010
0100
0001
0100
0010
0010
0010
0010
0100
0100
0110
0000
,
1001
0000
0001
0010
0110
0000
1100
0000
0101
0000
1010
0000
0001
0010
0011
0000
,
1000
0100
0110
0000
1001
0000
0001
0100
1000
0100
0001
1000
0100
0100
0200
0300
,
0110
0000
0001
1000
1001
0000
1010
0000
0101
0000
1100
0000
0001
1000
1001
0000
,
0001
0000
0010
0000
0100
0000
1000
0000
0001
0000
0010
0000
0100
0000
1000
0000
0001
0000
0100
0000
0100
0000
0100
0000
0010
0000
0010
0000
1000
0001
1000
0001
,
2000
0000
3002
0000
,
0203
0000
0320
0000
,
1030
0000
0001
0000
1000
0001
0010
0000
,
0100
1000
0100
0000
1000
0001
1000
0000
,
0001
1000
0010
0100
0001
1000
0001
0000
,
0010
0001
1000
0001
0100
0010
1000
0000
,
0001
1000
0010
1000
0001
0010
0100
1000
,
0001
0100
1000
0001
0010
1000
1001
0000
,
1000
0001
0100
1000
0100
0001
1000
0100
,
0000
0110
0000
0011
0000
0001
1000
0001
,
0100
0010
1000
0010
0100
1000
0100
0001
,
0000
0011
0000
1001
0000
1000
0010
1000
,
0001
0010
0100
0001
1000
0010
0100
1000
,
0000
1100
0000
0011
0000
1000
0001
0100
,
0001
1000
0100
0001
1000
0010
0100
1000
,
0000
1100
0000
1001
0000
0001
0100
0010
,
1000
0001
0010
0100
1000
0001
0100
1000
,
0100
0001
0100
1000
0100
0001
1000
0100
,
0010
0001
1000
0010
0100
0001
0100
1000
,
0100
0001
0100
0010
1000
0001
0010
0000
,
0001
1000
0010
1000
0001
0100
0010
1000
,
0100
0010
0001
1000
0010
0100
0010
1000
,
0001
0010
0100
1000
0001
0100
0010
1000
,
0001
0000
0010
0000
0100
0000
1000
0000
0010
0000
0100
0000
0001
1000
0001
1000
,
0002
0000
0000
0000
,
0000
0000
0000
0000
,
0003
0000
0000
0000
;

//--------------- dance-single - Fred-104 ----------------
#NOTEDATA:;
#STEPSTYPE:dance-single;
#DESCRIPTION:Fred-104;
#DIFFICULTY:Hard;
#METER:17;
#CREDIT:Fred-104;
#NOTES:
0000
0000
0000
0000
,
0000
0000
0000
0000
,
0000
0000
0000
0000
,
0000
0000
0000
0000
,
0000
0000
0000
0000
,
0000
0000
0000
0000
,
0000
0000
0000
0000
,
0000
0000
0000
0000
,
0000
0000
0000
0000
,
0001
0000
0010
0100
1000
0001
0100
0010
,
1000
0000
0001
0010
0001
0100
0010
1000
,
0001
0000
1000
0100
0010
0001
1000
0010
,
0100
0010
1000
0100
0010
0001
1000
0000
,
0010
1000
0010
1000
0001
0010
0001
0010
,
0100
1000
0100
1000
0001
0100
0001
0100
,
0001
1000
0001
1000
0100
0010
0100
0010
0001
1000
0010
0100
0001
1000
0100
0010
,
0001
0000
0010
0000
1000
0000
0001
0000
0100
0000
1000
0000
0001
1000
0001
1000
,
0001
0100
0110
0000
0001
1000
0100
1100
,
0000
0001
0100
0110
0000
1000
0100
0010
,
0001
1000
1010
0000
0001
1000
0100
1100
,
0000
0000
0101
0000
0000
0000
1100
0000
0000
0000
1000
0001
0100
0000
0010
0000
,
0100
0001
1001
0000
0001
1000
0001
0011
,
0000
1000
0001
0101
0000
0001
0010
1000
,
0010
0100
0110
0000
1000
0010
0100
0101
,
0000
0000
1100
0000
0000
0000
0011
0000
0000
0000
0001
1000
0010
0000
1000
0000
,
0001
0100
0110
0010
1000
0001
0011
0010
,
0100
0000
1000
0000
1010
0000
0010
0000
0100
0000
0001
1000
0001
0000
1000
0000
,
0100
0010
0011
0001
1000
0001
0101
0100
,
0010
0000
1000
0000
1001
0000
0001
0000
0010
0000
0100
1000
0001
0000
0100
0000
,
0010
1000
1010
0010
0100
0001
0011
0010
,
0100
0000
1000
0000
1001
0000
0001
0000
0100
0000
0010
1000
0001
1000
0100
0000
,
0010
1000
0010
0100
0001
0100
1000
0001
,
1000
0100
1000
0100
0010
0001
0010
0001
1000
0010
0100
0001
1000
0000
0000
0000
,
1000
0000
0100
0010
0100
0000
1000
0000
0001
0100
0001
0000
1000
0000
0000
0000
,
0001
0010
0001
1000
0010
0000
0000
0000
1000
0001
0010
0001
1000
0000
0000
0000
,
0001
0000
0100
0010
0100
0000
0001
0000
1000
0100
1000
0000
0001
0000
0000
0000
,
1000
0010
1000
0001
0010
0000
0000
0000
0001
1000
0010
1000
0001
0000
0010
0000
,
0100
0000
1000
0001
0100
0000
0010
0000
1000
0001
0010
0000
0100
0000
0000
0000
,
1000
0001
0100
0010
1000
0000
0000
0000
0001
0010
0100
1000
0001
0000
0000
0000
,
1000
0010
0001
0010
0100
1000
0100
0001
,
1000
0000
1000
0000
0001
0010
0100
1000
0001
0000
0100
0010
0100
0000
0001
0000
,
2002
0000
0000
0000
,
0000
0000
0000
0000
,
0000
0000
0000
0000
,
0000
0000
0000
3003
,
0220
0000
0000
0000
,
0000
0000
0000
0000
,
0000
0000
0000
0000
,
0000
0000
0000
0000
0000
0000
0000
0000
0000
0000
0000
0000
0000
0000
0000
0000
0000
0000
0000
0000
0000
0000
0000
0000
0000
0000
0000
0330
0000
0000
0000
0000
0000
0000
0000
0000
0000
0000
0000
0000
0000
0000
0000
0000
0000
0000
0000
0000
0000
0000
0000
0000
0000
0000
0000
0000
0000
0000
0000
0000
0000
0000
0000
0000
,
1000
0000
0100
0000
0020
0000
0000
0000
0031
0000
0000
0000
0101
0000
0000
0000
1001
0000
0000
0000
1100
0000
0100
0000
0010
0001
0010
0001
0010
0000
0000
0000
,
0001
1000
0001
1000
0010
0000
0000
0000
0110
0000
0000
0000
0101
0000
0001
1000
0001
0000
0010
0000
1000
0000
0020
0000
0100
0000
0100
0000
0200
0000
0330
0000
,
0220
0330
2002
3003
1010
0000
0011
0000
0101
0000
1100
1000
1001
0001
2000
0000
,
3001
0100
0001
0100
0001
0000
0000
0000
2000
0000
3200
0000
0302
0000
0203
0000
0310
0000
0010
0000
0010
0000
0010
0000
0100
0000
0100
0000
0110
0000
0000
0000
,
1001
0000
0001
0100
0110
0000
1100
0000
0101
0000
1001
0000
1010
0010
0110
0000
,
0001
0000
0001
0000
0011
0000
0000
0000
1001
0000
0000
0000
1000
0000
0100
0000
0001
0000
0100
1000
0100
0000
0010
0000
0100
0000
0100
0000
0200
0000
0300
0000
,
0220
0330
1001
1000
1010
0000
0011
0000
0101
0000
1100
0000
0001
1000
1001
0000
,
0002
0000
0203
0000
0320
0000
0032
0000
2003
0000
3200
0000
0320
0000
2030
0000
3001
0000
1000
0010
0100
0000
0100
0010
1000
0000
0001
0000
1000
0001
1000
0001
,
1000
0000
0001
0000
1000
0001
0100
1000
,
0000
0100
0000
0010
0000
1000
0001
0010
,
0100
0000
1000
0000
0001
0010
0100
0010
,
0000
1000
0000
0010
0000
0001
1000
0000
,
0001
1000
0100
0010
0001
1000
0010
1000
,
0001
0100
0010
1000
0001
0010
0100
1000
,
0001
0010
0001
1000
0010
1000
0001
0100
0001
1000
0100
1000
0001
0100
0010
1000
,
0001
0000
0010
0000
1000
0000
0001
0000
0100
0000
1000
0000
0001
1000
0010
1000
,
0001
0010
0100
1000
0001
0100
0010
0001
,
0010
0000
0100
0000
1000
0000
0100
0000
0001
0000
1000
0100
0010
0000
0001
0000
,
1000
0010
0100
0001
1000
0100
0010
1000
,
0010
0000
0100
0000
0001
0000
0100
0000
0010
0000
0001
1000
0010
0000
1000
0000
,
0001
0010
0100
1000
0001
0100
0010
0001
,
0010
0000
1000
0000
0010
0000
0001
0000
0010
0000
0100
0001
1000
0000
0100
0000
,
0010
0001
1000
0001
0100
1000
0100
0010
,
0001
0000
0010
0000
0100
0000
0001
0000
1000
0000
0001
0010
0100
0000
1000
0000
,
0001
0000
0100
0000
0001
0000
1000
0000
0100
0000
0010
0001
1000
0000
0010
0000
,
0100
0000
0001
1000
0100
0000
0010
0000
0100
0000
1000
0001
0100
0000
0010
0000
,
0100
0000
0001
0000
1000
0000
0100
0000
1000
0000
0001
1000
0010
0000
0100
0000
,
0010
0000
1000
0001
0010
0000
0100
0000
1000
0000
0001
0100
0010
1000
0001
0000
,
1000
0000
0100
0010
0001
0000
1000
0010
0100
0000
0010
1000
0001
0010
0100
0000
,
1000
0001
0100
0000
0001
1000
0100
0000
1000
0001
0100
0001
1000
0100
0010
0000
,
0001
1000
0010
0100
0001
1000
0100
0010
,
0001
0010
0001
1000
0010
1000
0001
0100
0001
1000
0100
1000
0010
0100
0001
1000
,
0200
0000
0000
0000
,
0000
0000
0000
0000
,
0300
0000
0000
0000
;

//--------------- dance-single - Fred-104† ----------------
#NOTEDATA:;
#STEPSTYPE:dance-single;
#DESCRIPTION:Fred-104†;
#DIFFICULTY:Challenge;
#METER:18;
#CREDIT:Fred-104†;
#NOTES:
0000
0000
0000
0000
,
0000
0000
0000
0000
,
0000
0000
0000
0000
,
0000
0000
0000
0000
,
0000
0000
0000
0000
,
0000
0000
0000
0000
,
0000
0000
0000
0000
,
0000
0000
0000
0000
,
0000
0000
0000
0000
,
1000
0000
0100
0000
0010
0010
0000
0001
,
0100
0010
1000
0000
0001
0001
0000
0010
,
0100
1000
0001
0000
0100
0100
0000
0010
,
1000
0001
0010
0000
0100
0100
0000
1000
,
0001
0010
0001
1000
0010
0100
0010
1000
0001
0010
0001
1000
0010
0100
0010
1000
,
0001
0100
0001
1000
0100
0010
0100
1000
0001
0100
0001
1000
0100
0010
0100
1000
,
0001
0010
0001
0100
0010
1000
0100
1000
0001
0100
0001
0010
0100
1000
0010
1000
,
0002
0023
0230
2300
3002
0103
0110
0000
,
1010
1000
1001
0000
0011
0010
0100
1100
,
0000
0101
0100
1100
0000
1010
0010
0100
,
0101
0001
1001
0000
0011
0010
0100
1100
,
0000
0000
2010
0000
3001
0000
1001
0000
0000
0000
1000
0100
1000
0000
0001
0000
,
0101
0100
0110
0000
0011
0001
0010
1010
,
0000
0000
1002
0000
0013
0000
0110
0000
0000
0000
1000
0001
1000
0000
0100
0000
,
0110
0010
0011
0000
2001
3010
0100
0101
,
0000
0000
1100
0000
0100
0000
0101
0000
0000
0000
0001
0010
0100
0000
1000
0000
,
2100
3001
2010
3001
2001
3100
1000
0021
,
1030
0000
0201
0000
1300
0000
0021
0000
1030
0000
0001
0010
0100
0000
1000
0000
,
0102
1003
0120
1030
0012
1003
0100
0120
,
0031
0000
0210
0000
1300
0000
0210
0000
0301
0000
1000
0100
0010
0000
0001
0000
,
0012
1003
0201
1300
1002
1003
0010
2001
,
3001
0000
1200
0000
0310
0000
2010
0000
3001
0000
0010
0100
1000
0000
0001
0000
,
0101
0100
0110
0010
1010
1000
1001
0001
,
0010
0100
1000
0010
0100
0010
1000
0100
0010
0001
0100
0010
1000
0001
1000
0000
,
0001
0000
1000
0010
1000
0000
0001
0000
1000
0100
0010
0000
0001
0000
0000
0000
,
1001
0000
0001
0010
0100
0000
0000
0000
1001
0000
1000
0010
0100
0000
0000
0000
,
0001
0000
1000
0001
0100
0000
0010
0000
0100
0001
0010
0000
0100
0000
0000
0000
,
1100
1000
1001
0000
0101
0001
1001
0000
,
0001
0000
1000
0010
0100
0000
0001
0000
0010
0100
1000
0000
0010
0000
0000
0000
,
1010
1000
1100
0000
0011
0001
0101
0000
,
1000
0000
0001
0100
0010
0000
1000
0000
0100
0000
1000
0001
0010
0000
0100
0000
,
1000
0000
1000
0000
0001
0100
1000
0100
0001
0000
1000
0100
0010
0000
0001
0000
,
1000
0000
0000
0000
0000
0000
0000
0000
0010
0000
0000
0000
0000
0000
0000
0000
1000
0000
0000
0000
0000
0000
0000
0000
0010
0000
0000
0000
0000
0000
0000
0000
0100
0000
0000
0000
0000
0000
0000
0000
0001
0000
0000
0000
0000
0000
0000
0000
0200
0300
0000
0000
0000
0000
0000
0000
0001
0000
0000
0000
0000
0000
0000
0000
,
1000
0000
0000
0000
0000
0000
0000
0000
0100
0000
0000
0000
0000
0000
0000
0000
1000
0000
0000
0000
0000
0000
0000
0000
0100
0000
0000
0000
0000
0000
0000
0000
0010
0000
0000
0000
0000
0000
0000
0000
0001
0000
0000
0000
0000
0000
0000
0000
0020
0030
0000
0000
0000
0000
0000
0000
0001
0000
0000
0000
0000
0000
0000
0000
,
1000
0000
0000
0000
0000
0000
0000
0000
0010
0000
0000
0000
0000
0000
0000
0000
0001
0000
0000
0000
0000
0000
0000
0000
0010
0000
0000
0000
0000
0000
0000
0000
0100
0000
0000
0000
0000
0000
0000
0000
1000
0000
0000
0000
0000
0000
0000
0000
0200
0300
0000
0000
0000
0000
0000
0000
0001
0000
0000
0000
0000
0000
0000
0000
,
1000
0000
0000
0000
0100
0000
0000
0000
0001
0000
0000
0000
0000
0000
0000
0000
0100
0000
0000
0000
0000
0000
0000
0000
0010
0000
0000
0000
0000
0000
0000
0000
1000
0000
0000
0000
0000
0000
0000
0000
0010
0000
0000
0000
0000
0000
0000
0000
0002
0003
0000
0000
0000
0000
0000
0000
1000
0000
0000
0000
0000
0000
0000
0000
,
2002
0000
0000
0000
,
0000
0000
0000
0000
,
0000
0000
0000
0000
,
0000
0000
0000
0000
0000
0000
0000
0000
0000
0000
0000
0000
0000
0000
0000
0000
0000
0000
0000
0000
0000
0000
0000
0000
0000
0000
0000
3003
0000
0000
0000
0000
0000
0000
0000
0000
0000
0000
0000
0000
0000
0000
0000
0000
0000
0000
0000
0000
0000
0000
0000
0000
0000
0000
0000
0000
0000
0000
0000
0000
0000
0000
0000
0000
,
0002
0003
0000
0000
0100
0000
0000
0000
0010
0000
0000
0000
0000
0000
0000
0000
0011
0000
0000
0000
0000
0000
0000
0000
2010
0000
0000
0000
3000
0000
0000
0000
1200
0000
0000
0000
0300
0000
0000
0000
0110
0000
0000
0000
0010
0000
0000
0000
0001
0000
1000
0000
0001
0000
1000
0000
0001
0000
0000
0000
0000
0000
0000
0000
,
0100
0010
0100
0010
0100
0000
0000
0000
1100
0000
0000
0000
0101
0000
0001
2000
0100
0000
0100
0000
0100
0000
3200
0000
0010
0000
0010
0000
0020
0000
0330
0000
,
0220
0000
0330
0000
2002
0000
3003
0000
2100
0000
3000
0000
0201
0000
0300
0000
0012
0000
0003
0000
1020
0000
1030
0000
0001
1000
0001
1000
0002
0000
0000
0000
,
0013
0100
0010
0100
0010
0000
0000
0000
1000
0000
0010
0000
0001
0000
2000
0000
0010
0000
0010
0000
0010
0000
3020
0000
0100
0000
0100
0000
0200
0000
0330
0000
,
0101
0000
1000
0100
0110
0000
0101
0000
1100
0000
1001
0000
0110
0110
1001
0000
,
0001
0010
0001
0010
0100
0000
0000
0000
0101
0000
0000
0000
1100
0000
1000
0020
0100
0000
0100
0000
0100
0000
0230
0000
0001
0000
0001
0000
0002
0000
0303
0000
,
2002
3003
1100
0100
0110
0000
1010
0000
0011
0000
1001
0000
1100
0100
0110
0000
,
0001
0000
0100
0000
0110
0000
0010
0000
1000
0000
0100
0000
0110
0000
0010
0000
0100
0000
1000
0001
1000
0000
0001
1000
0001
0000
1000
0000
0001
1000
0001
1000
,
0002
0000
0000
0000
,
0000
0000
0000
0000
,
0003
0000
0000
0000
,
0000
0000
0000
0000
,
1000
0010
1000
0001
0010
0100
0010
0001
1000
0010
1000
0001
0010
0100
0010
0001
,
1000
0100
1000
0001
0100
0010
0100
0001
1000
0100
1000
0001
0100
0010
0100
0001
,
1000
0100
1000
0001
0100
0001
0010
0001
1000
0010
1000
0001
0010
0001
0100
0001
,
2000
3020
0230
0302
2003
3100
0110
0000
,
0001
0000
1000
0010
0100
0000
0001
0000
1000
0100
0010
0000
0001
0000
1200
0000
,
0301
0000
2010
0000
3001
0000
1200
0000
0301
0000
1000
0001
0100
0000
0010
0000
,
1000
0000
0001
0010
0100
0000
1000
0000
0001
0100
0010
0000
1000
0000
0021
0000
,
1030
0000
0102
0000
1003
0000
0021
0000
1030
0000
0100
0010
0001
0000
1000
0000
,
1001
0000
0001
0100
0010
0000
1000
0000
0001
0010
0100
0000
1000
0000
0021
0000
,
1030
0000
0102
0000
1003
0000
0120
0000
1030
0000
0100
0010
0001
0000
1000
0000
,
0001
0000
0100
0001
1000
0000
0100
0000
0010
0100
1000
0000
0001
0000
2100
0000
,
3001
0000
0210
0000
0301
0000
1020
0000
0031
0000
0100
0010
1000
0000
0001
0000
,
0011
0000
0000
0000
0000
0000
0000
0000
0010
0000
0000
0000
0100
0000
0000
0000
1000
0000
0000
0000
0000
0000
0000
0000
0001
0000
0000
0000
0000
0000
0000
0000
0100
0000
0000
0000
0010
0000
0000
0000
0001
0000
0000
0000
0010
0000
0000
0000
0200
0000
0000
0000
0000
0000
0000
0000
0001
0000
0000
0000
1000
0000
0000
0300
,
0200
0000
0000
0000
0000
0000
0000
0000
1000
0000
0000
0000
0001
0000
0000
0300
0200
0000
0000
0000
0000
0000
0000
0000
0001
0000
0000
0000
1000
0000
0000
0300
0200
0000
0000
0000
0000
0000
0000
0000
1000
0000
0000
0000
0001
0000
0000
0300
0100
0000
0000
0000
0010
0000
0000
0000
1000
0000
0000
0000
0000
0000
0000
0000
,
1001
0000
0000
0000
0000
0000
0000
0000
0001
0000
0000
0000
0010
0000
0000
0000
0100
0000
0000
0000
0000
0000
0000
0000
1000
0000
0000
0000
0000
0000
0000
0000
0100
0000
0000
0000
0010
0000
0000
0000
1000
0000
0000
0000
0010
0000
0000
0000
0200
0000
0000
0000
0000
0000
0000
0000
1000
0000
0000
0000
0001
0000
0000
0300
,
0200
0000
0000
0000
0000
0000
0000
0000
0001
0000
0000
0000
1000
0000
0000
0300
0200
0000
0000
0000
0000
0000
0000
0000
1000
0000
0000
0000
0001
0000
0000
0300
0200
0000
0000
0000
0000
0000
0000
0000
0001
0000
0000
0000
1000
0000
0000
0300
0100
0000
0000
0000
0010
0000
0000
0000
0001
0000
0000
0000
1000
0000
0000
0000
,
0010
0000
0000
0000
0000
0000
0000
0000
0100
0000
0000
0000
0001
0000
0000
0000
1000
0000
0000
0000
0000
0000
0000
0000
0100
0000
0000
0000
0000
0000
0000
0000
0010
0000
0000
0000
0100
0000
0000
0000
1000
0000
0000
0000
0010
0000
0000
0000
0200
0000
0000
0000
0000
0000
0000
0000
0010
0000
0000
0000
1000
0000
0000
0300
,
0200
0000
0000
0000
0000
0000
0000
0000
0010
0000
0000
0000
0001
0000
0000
0300
0200
0000
0000
0000
0000
0000
0000
0000
0010
0000
0000
0000
1000
0000
0000
0300
0200
0000
0000
0000
0000
0000
0000
0000
0010
0000
0000
0000
0001
0000
0000
0300
0100
0000
0000
0000
0010
0000
0000
0000
1000
0000
0000
0000
0001
0000
0000
0000
,
0010
0010
0100
0100
0001
0001
0100
0100
,
1000
0100
1000
0010
0100
0001
0010
0001
0100
0010
1000
0100
0010
0001
0100
0010
,
2000
0000
0000
0000
,
0000
0000
0000
0000
,
3000
0000
0000
0000
;

//--------------- dance-double - Fred-104 ----------------
#NOTEDATA:;
#STEPSTYPE:dance-double;
#DESCRIPTION:Fred-104;
#DIFFICULTY:Easy;
#METER:9;
#CREDIT:Fred-104;
#NOTES:
00000000
00000000
00000000
00000000
,
00000000
00000000
00000000
00000000
,
00000000
00000000
00000000
00000000
,
00000000
00000000
00000000
00000000
,
00000000
00000000
00000000
00000000
,
00000000
00000000
00000000
00000000
,
00000000
00000000
00000000
00000000
,
00000000
00000000
00000000
00000000
,
00000000
00000000
00000000
00000000
,
00001000
00000000
00010000
00000000
00001000
00000000
00000000
01000000
,
00010000
00000000
10000000
00000000
01000000
00000000
00000000
00100000
,
00001000
00000000
00010000
00000000
00001000
00000000
00000000
00000100
,
00000010
00001000
00000001
00000000
,
00000010
00000010
00000100
00000100
,
00010000
00010000
00001000
00001000
,
01000000
00010000
01000000
00000000
00100000
10000000
00100000
00000000
,
10000000
00000000
00000000
10000000
00000000
00000000
10000000
00000000
,
00010000
00000000
00100000
00000000
01000000
00000000
00000000
00010000
,
00000000
00001000
00000000
00010000
00000000
00000000
00000010
00000000
,
00001000
00000000
00000100
00000000
00000010
00000000
00000000
00000001
,
00000000
00000100
00000000
00000001
00000000
00000000
00000010
00000000
,
00000100
00000000
00010000
00000000
00001000
00000000
00000000
01000000
,
00000000
00010000
00000000
01000000
00000000
00000000
00001000
00000000
,
00010000
00000000
00001000
00000000
00000010
00000000
00000000
00000100
,
00000000
00001000
00000000
00000001
00000000
00000000
00001000
00000000
,
00000001
00000000
00001000
00000000
00000100
00000000
00000000
00010000
,
00000000
00001000
00000000
01000000
00000000
01000000
00010000
00000000
,
10000000
00000000
01000000
00000000
00100000
00000000
00000000
00001000
,
00000000
00010000
00000000
00001000
00000000
00001000
01000000
00000000
,
00001000
00000000
00010000
00000000
00000100
00000000
00000000
00001000
,
00000000
00000001
00000000
00001000
00000000
00001000
00000100
00000000
,
00001000
00000001
00000100
00000010
,
00002002
00000000
00000000
00003003
00000001
00001000
00000001
00000000
,
00000010
00000100
00000000
00000100
00010000
00000000
00001000
00000000
,
00020000
00030000
02000000
03000000
,
10000000
01000000
00000000
01000000
00100000
00000000
00001000
00000000
,
00020000
00030000
00000020
00000030
,
00010000
00001000
00000000
00000100
00000010
00000000
00001000
00000000
,
00000200
00000300
00000020
00000030
,
00000001
00000010
00000100
00000000
00010000
00001000
00010000
00000000
,
00001000
00010000
00100000
00000000
01000000
00001000
00010000
00000000
,
00022000
00000000
00000000
00000000
,
00000000
00000000
00000000
00000000
,
00000000
00000000
00000000
00000000
,
00000000
00000000
00000000
00033000
,
00022000
00000000
00000000
00000000
,
00000000
00000000
00000000
00000000
,
00000000
00000000
00000000
00000000
,
00000000
00000000
00000000
00000000
00000000
00000000
00000000
00000000
00000000
00000000
00000000
00000000
00000000
00000000
00000000
00000000
00000000
00000000
00000000
00000000
00000000
00000000
00000000
00000000
00000000
00000000
00000000
00033000
00000000
00000000
00000000
00000000
00000000
00000000
00000000
00000000
00000000
00000000
00000000
00000000
00000000
00000000
00000000
00000000
00000000
00000000
00000000
00000000
00000000
00000000
00000000
00000000
00000000
00000000
00000000
00000000
00000000
00000000
00000000
00000000
00000000
00000000
00000000
00000000
,
00000001
00001000
00001001
00000001
00000100
00001000
00010000
00010000
,
00010000
00001000
00010000
00000000
00011000
00000000
00001000
00000000
00010000
00000000
00100000
00000000
10000000
00010000
10000000
00000000
,
01000000
00000000
00100000
00000000
00011000
00000000
00010100
00000000
00010000
00000000
00000100
00000000
00001000
00000001
00000100
00000000
,
00000010
00001000
00000010
00000000
00010000
00000000
00001000
00000000
00010000
00000000
00010000
00000000
00001000
01000000
00001000
00000000
,
00011000
00100000
00011000
00000010
00010000
00001000
00011000
01001000
,
01000000
00010000
01000000
00000000
00100000
00000000
10000000
00000000
01000000
00000000
00100000
00000000
00001000
00010000
00001000
00000000
,
00010000
00000100
00000110
00000001
00000100
00001000
00022000
00033000
,
00010000
00000000
00001000
00000000
00010000
00000000
01000000
00000000
10000000
00100000
00000000
00100000
00000000
00100000
01000000
00000000
,
00020000
00000000
00000000
00000000
,
20030000
00000000
00000000
00000000
,
32000000
00000000
00000000
00000000
,
03200000
00000000
00000000
00000000
,
00301000
00010000
00000010
00001000
,
00000010
00000100
00000001
00001000
,
00000100
00000010
00000001
00000000
00000100
00001000
00010000
00000000
,
00001000
00000000
00000000
00001000
00000000
00000000
00001000
00000000
,
00010000
00000000
00001000
00000000
00100000
00000000
00000000
00010000
,
00000000
01000000
00000000
00100000
00000000
00000000
01000000
00000000
,
00010000
00000000
10000000
00000000
01000000
00000000
00000000
00100000
,
00000000
00001000
00000000
00000010
00000000
00000000
00000100
00000000
,
00001000
00000000
00000001
00000000
00000100
00000000
00000000
00000010
,
00000000
00010000
00000000
00001000
00000000
00000000
00010000
00000000
,
00001000
00000000
00100000
00000000
00001000
00000000
00000000
00010000
,
00000000
00000100
00000000
00000010
00000000
00000000
00000001
00000000
,
00001000
00000000
00000010
00000000
00010000
00000000
00000000
00001000
,
00000000
00100000
00000000
00001000
00000000
00010000
00010000
00000000
,
00001000
00000000
01000000
00000000
00010000
00000000
00000000
10000000
,
00000000
10000000
00000000
01000000
00000000
00100000
00100000
00000000
,
00001000
00010000
00000100
00000010
,
00000001
00000100
00001000
00010000
,
00001000
00000010
00000100
00000010
,
00000001
00001000
00000001
00001000
00000001
00001000
00000001
00000000
,
00002002
00000000
00000000
00000000
,
00000000
00000000
00000000
00000000
,
00003003
00000000
00000000
00000000
;

//--------------- dance-double - Fred-104 ----------------
#NOTEDATA:;
#STEPSTYPE:dance-double;
#DESCRIPTION:Fred-104;
#DIFFICULTY:Medium;
#METER:14;
#CREDIT:Fred-104;
#NOTES:
00000000
00000000
00000000
00000000
,
00000000
00000000
00000000
00000000
,
00000000
00000000
00000000
00000000
,
00000000
00000000
00000000
00000000
,
00000000
00000000
00000000
00000000
,
00000000
00000000
00000000
00000000
,
00000000
00000000
00000000
00000000
,
00000000
00000000
00000000
00000000
,
00000000
00000000
00000000
00000000
,
00010000
00000000
00001000
00000000
00010000
00001000
00000000
01000000
,
00010000
00100000
01000000
00000000
10000000
00100000
00000000
00010000
,
00001000
00010000
00000100
00000000
00001000
00000001
00000000
00000100
,
00000010
00000100
00001000
00000000
00010000
00001000
00010000
00000000
,
00001000
00010000
00100000
01000000
00010000
10000000
00100000
00000000
,
00010000
00001000
00000100
00000010
00001000
00000001
00001000
00000000
,
00000001
00000010
00000100
00001000
00000010
00000100
00001000
00010000
,
00100000
01000000
00010000
00100000
01000000
10000000
00010000
00000000
,
10000000
01000000
01100000
00000000
00001000
00010000
00000000
00010010
,
00000000
00011000
00000000
00010100
00000000
00010000
00001000
00000100
,
00000001
00000010
00000110
00000000
00010000
00001000
00000000
00101000
,
00000000
00010010
00000000
00011000
00000000
00001000
00010000
00100000
,
01000000
00010000
00110000
00000000
10000000
01000000
00000000
01100000
,
00000000
00011000
00000000
00000110
00000000
00000001
00001000
00000010
,
00000100
00001000
00011000
00000000
00010000
00001000
00000000
01001000
,
00000000
00010100
00000000
00011000
00000000
00010000
00001000
01000000
,
00010000
00100000
01000000
00000000
10000000
00100000
00010000
00001000
,
00000000
00010000
00000000
01000000
00000000
00100000
00010000
10000000
,
00100000
00010000
00001000
00000000
00010000
00001000
00000100
00000001
,
00000000
00001000
00000000
00000100
00000000
00000010
00000001
00001000
,
00000010
00000100
00001000
00000000
00010000
01000000
00100000
00010000
,
00000000
10000000
00100000
01000000
00000000
00100000
00010000
00001000
,
00010000
00000100
00001000
00000001
00000100
00000010
00001000
00000001
,
00000010
00000000
00000100
00000000
00010000
00000000
00001000
00000000
00010000
00001000
00010000
00001000
00010000
00000000
00000000
00000000
,
00001000
00010000
00100000
01000000
10000000
01000000
00010000
00000000
,
00100000
01000000
00010000
00000000
00001000
00000010
00000100
00000000
,
00001000
00000010
00000100
00001000
00010000
00001000
01000000
00000000
,
00001000
00010000
01000000
00000000
00100000
00010000
10000000
00000000
,
00100000
00010000
00001000
00000100
00000010
00000001
00000010
00000000
,
00001000
00000100
00000010
00000000
00001000
00010000
00001000
00000000
,
00010000
00001000
00000100
00000010
00000100
00000001
00001000
00000100
,
00000010
00000000
00000001
00000000
00001000
00000010
00001000
00000010
00010000
00000000
00001000
00000000
00010000
00000000
00000100
00000000
,
00002200
00000000
00000000
00000000
,
00000000
00000000
00000000
00000000
,
00000000
00000000
00000000
00000000
,
00000000
00000000
00000000
00003300
,
00022000
00000000
00000000
00000000
,
00000000
00000000
00000000
00000000
,
00000000
00000000
00000000
00000000
,
00000000
00000000
00000000
00000000
00000000
00000000
00000000
00000000
00000000
00000000
00000000
00000000
00000000
00000000
00000000
00000000
00000000
00000000
00000000
00000000
00000000
00000000
00000000
00000000
00000000
00000000
00000000
00033000
00000000
00000000
00000000
00000000
00000000
00000000
00000000
00000000
00000000
00000000
00000000
00000000
00000000
00000000
00000000
00000000
00000000
00000000
00000000
00000000
00000000
00000000
00000000
00000000
00000000
00000000
00000000
00000000
00000000
00000000
00000000
00000000
00000000
00000000
00000000
00000000
,
01000000
00100000
01000000
00000000
01100000
00000000
20010000
00000000
30020000
00000000
10030000
01000000
00100000
00100000
00100000
00000000
,
00001000
00001000
00001000
00000000
00011000
00000000
00010000
00010000
00001000
00000100
00000001
00000100
00000010
00001000
00000002
00000003
,
00000110
00000000
00011000
00000000
01100000
00000000
10100000
00000000
01010000
00000000
10000000
01000000
00010000
00001000
00020000
00000000
,
00030100
00000100
00000100
00000000
00010000
00001000
00010000
00100000
01000000
01000000
01000000
01000000
00100000
00100000
01100000
00000000
,
10010000
00000000
10000000
01000000
01100000
00000000
00101000
00000000
00010010
00000000
01001000
00000000
00010000
00001000
00011000
00000000
,
00000100
00000010
00000110
00000000
00001001
00000000
00000001
00000100
00000010
00000100
00001000
00010000
00001000
00001000
00002000
00003000
,
00011000
00000000
10010000
00000000
01100000
00000000
11000000
00000000
01010000
00000000
00011000
00000000
00000100
00000010
00000110
00000000
,
00000001
00000100
00000010
00000100
00001000
00010000
00001000
00000100
00000010
00000000
00000010
00000000
00000010
00001000
00000001
00000000
,
00000020
00000000
00002030
00000000
,
00013000
00001000
00010000
01000000
,
00100000
00001000
00100000
01000000
,
10000000
00000000
00100000
00000000
00010000
00001000
00010000
00000000
,
00001000
00010000
00100000
01000000
00100000
10000000
00010000
00000000
,
00100000
01000000
10000000
00010000
10000000
00100000
00010000
00000000
,
00001000
00010000
00000100
00001000
00000001
00000100
00000010
00001000
,
00000100
00000010
00001000
00010000
01000000
00100000
00010000
00000000
,
10000000
00010000
01000000
00010000
10000000
01000000
00100000
00001000
,
00000000
00011000
00000000
00010010
00000000
00010000
00001000
00000010
,
00000100
00000010
00000001
00001000
00000010
00000100
00001000
00010000
,
00000000
00011000
00000000
01100000
00000000
00010000
10000000
00100000
,
10000000
01000000
00100000
01000000
10000000
00100000
00010000
00001000
,
00000000
01001000
00000000
00010100
00000000
00010000
00001000
00000100
,
00000010
00000100
00001000
00010000
00001000
01000000
00010000
00100000
,
00000000
00011000
00000000
01100000
00000000
00010000
10000000
00100000
,
10000000
01000000
00010000
01000000
10000000
00100000
01000000
00100000
,
00010000
00001000
00000100
00000001
00001000
00000100
00000010
00000000
,
00000001
00001000
00000010
00000001
00000010
00001000
00000001
00000010
,
00000100
00000010
00001000
00010000
00100000
10000000
00010000
00000000
,
00100000
01000000
10000000
00010000
01000000
00100000
10000000
00010000
,
00100000
00001000
00010000
00000010
00001000
00000100
00010000
00000100
,
00001000
00000001
00000010
00000100
00001000
00000100
00010000
00001000
,
00010000
00000000
00100000
00000000
10000000
00000000
00010000
00000000
00100000
00000000
01000000
00000000
10000000
00010000
10000000
00010000
,
20000000
00000000
00000000
00000000
,
00000000
00000000
00000000
00000000
,
30000000
00000000
00000000
00000000
;

//--------------- dance-double - Fred-104 ----------------
#NOTEDATA:;
#STEPSTYPE:dance-double;
#DESCRIPTION:Fred-104;
#DIFFICULTY:Hard;
#METER:17;
#CREDIT:Fred-104;
#NOTES:
00000000
00000000
00000000
00000000
,
00000000
00000000
00000000
00000000
,
00000000
00000000
00000000
00000000
,
00000000
00000000
00000000
00000000
,
00000000
00000000
00000000
00000000
,
00000000
00000000
00000000
00000000
,
00000000
00000000
00000000
00000000
,
00000000
00000000
00000000
00000000
,
00000000
00000000
00000000
00000000
,
00001000
00000000
00010000
00000000
00000100
00001000
00000000
00000010
,
00000000
00010000
00001000
00000000
00010000
00100000
10000000
00010000
,
00100000
00000000
00001000
00000000
00010000
00001000
00000000
00000100
,
00000000
00000001
00001000
00000000
00000100
00000000
00000010
00000000
,
00000001
00000010
00000100
00001000
00000010
00000100
00001000
00010000
,
00100000
01000000
00010000
00100000
01000000
10000000
00010000
01000000
,
00100000
10000000
01000000
00100000
00010000
00100000
00001000
00010000
00000010
00001000
00000010
00000100
00000001
00001000
00000100
00010000
,
00001000
00000000
00010000
00000000
00100000
00000000
10000000
00000000
01000000
00000000
00010000
00000000
00001000
00010000
00001000
00010000
,
00001000
00010000
00010100
00000000
00001000
00000100
00000010
00000011
,
00000000
00000001
00000100
00000110
00000000
00001000
00000010
00010000
,
00001000
00100000
00101000
00000000
00001000
00010000
00100000
10100000
,
00000000
10000000
01000000
01100000
00000000
00001000
00010000
00000100
,
00001000
00000100
00000110
00000000
00000001
00001000
00000010
00010010
,
00000000
00010000
00001000
00101000
00000000
00001000
00010000
00100000
,
10000000
01000000
01100000
00000000
00001000
00010000
00000010
00001010
,
00000000
00000000
00000101
00000000
00000000
00000000
00001100
00000000
00000000
00000000
00000001
00000010
00000100
00000000
00010000
00000000
,
00001000
00010000
00011000
00000000
00001000
00010000
00100000
10000000
,
00010000
00100000
01000000
10000000
00100000
00010000
00000010
00010000
,
00001000
01000000
01010000
00000000
10000000
01000000
00010000
00001000
,
00000010
00000000
00000100
00000000
00001000
00000000
00000001
00000000
00000100
00000000
00001000
00010000
00001000
00000000
01000000
00000000
,
00010000
10000000
11000000
00000000
01000000
00100000
00001000
00010000
,
00000010
00000000
00001000
00000000
00010000
00000000
01000000
00000000
00100000
00000000
10000000
00010000
00100000
00000000
00001000
00000000
,
00010000
00001000
00000010
00000100
00001000
00000010
00010000
00001000
,
00010000
00001000
00010000
00001000
00000010
00000100
00000010
00000100
00000010
00000001
00001000
00000001
00001000
00000000
00000000
00000000
,
00000001
00000100
00001000
00010000
00100000
10000000
00010000
00000000
,
00100000
01000000
00100000
01000000
10000000
00000000
00000000
00000000
00010000
01000000
00010000
01000000
00100000
00000000
00000000
00000000
,
10000000
01000000
00100000
01000000
00010000
00001000
00000100
00000000
,
00000001
00001000
00000001
00001000
00000100
00000000
00000000
00000000
00000010
00000001
00000010
00000001
00001000
00000000
00000010
00000000
,
00010000
00001000
00000100
00000010
00000001
00001000
00010000
00000000
,
00001000
00010000
00001000
00010000
00100000
00000000
00000000
00000000
01000000
00010000
01000000
00010000
10000000
00000000
00000000
00000000
,
00010000
00100000
01000000
00010000
00001000
00000010
00000100
00001000
,
00000001
00000000
00000100
00000000
00000010
00001000
00000010
00010000
00001000
00000000
00100000
00010000
10000000
00000000
01000000
00000000
,
02200000
00000000
00000000
00000000
,
00000000
00000000
00000000
00000000
,
00000000
00000000
00000000
00000000
,
00000000
00000000
00000000
03300000
,
00022000
00000000
00000000
00000000
,
00000000
00000000
00000000
00000000
,
00000000
00000000
00000000
00000000
,
00000000
00000000
00000000
00000000
00000000
00000000
00000000
00000000
00000000
00000000
00000000
00000000
00000000
00000000
00000000
00000000
00000000
00000000
00000000
00000000
00000000
00000000
00000000
00000000
00000000
00000000
00000000
00033000
00000000
00000000
00000000
00000000
00000000
00000000
00000000
00000000
00000000
00000000
00000000
00000000
00000000
00000000
00000000
00000000
00000000
00000000
00000000
00000000
00000000
00000000
00000000
00000000
00000000
00000000
00000000
00000000
00000000
00000000
00000000
00000000
00000000
00000000
00000000
00000000
,
00001000
00000000
00010000
00000000
00200000
00000000
00000000
00000000
10300000
00000000
00000000
00000000
01010000
00000000
00000000
00000000
00011000
00000000
00000000
00000000
00010100
00000000
00010000
00000000
00001000
00010000
00001000
00010000
00001000
00000000
00000000
00000000
,
00000100
00000010
00000100
00000010
00000100
00000000
00000000
00000000
00000101
00000000
00000000
00000000
00001100
00000000
00001000
00000001
00001000
00000000
00000010
00000000
00000100
00000000
00002000
00000000
00010000
00000000
00010000
00000000
00020000
00000000
00033000
00000000
,
00022000
00033000
02200000
03300000
11000000
00000000
01010000
00000000
10100000
00000000
10010000
00000000
00101000
00001000
00020000
00000000
,
00031000
00010000
00001000
00010000
00001000
00000000
00000000
00000000
00000200
00000000
00000320
00000000
00002030
00000000
00003200
00000000
00000310
00000000
00000010
00000000
00000010
00000000
00000010
00000000
00000001
00000000
00000001
00000000
00001001
00000000
00000000
00000000
,
00000110
00000000
00010000
00001000
01001000
00000000
00010010
00000000
00101000
00000000
00010100
00000000
00011000
00001000
00011000
00000000
,
01000000
00000000
01000000
00000000
01100000
00000000
00000000
00000000
10010000
00000000
00000000
00000000
10000000
00000000
01000000
00000000
00010000
00000000
00001000
00010000
00001000
00000000
00000100
00000000
00000001
00000000
00000001
00000000
00000020
00000000
00000030
00000000
,
00000220
00000330
00001001
00001000
00001100
00000000
00010100
00000000
01001000
00000000
01100000
00000000
10000000
01000000
01100000
00000000
,
20000000
00000000
30200000
00000000
00302000
00000000
00003020
00000000
00002030
00000000
00023000
00000000
00032000
00000000
00003020
00000000
00010030
00000000
00001000
00010000
00000100
00000000
00001000
00000010
00010000
00000000
00001000
00000000
00010000
00001000
00010000
00001000
,
00020000
00000000
00000000
00000000
,
00032000
00000000
00000000
00000000
,
00023000
00000000
00000000
00000000
,
00031000
00000000
00001000
00000000
00010000
00001000
00010000
00000000
,
00001000
00010000
01000000
10000000
00010000
01000000
00100000
00010000
,
00001000
00000100
00000001
00001000
00000100
00000010
00000001
00001000
,
00000001
00000010
00000100
00001000
00000100
00010000
00001000
01000000
00010000
10000000
01000000
00100000
00010000
10000000
00100000
01000000
,
00010000
00000000
10000000
00000000
01000000
00000000
00010000
00000000
00001000
00000000
00000010
00000000
00000001
00001000
00000010
00001000
,
00000001
00000100
00000010
00000001
00000010
00000100
00001000
00010000
,
00100000
00000000
01000000
00000000
10000000
00000000
01000000
00000000
00010000
00000000
10000000
01000000
00100000
00000000
00010000
00000000
,
10000000
01000000
00100000
10000000
00100000
01000000
00010000
00001000
,
00000010
00000000
00000100
00000000
00000001
00000000
00000100
00000000
00001000
00000000
00000001
00000100
00000010
00000000
00001000
00000000
,
00000001
00000100
00001000
00000100
00000010
00000001
00000010
00000100
,
00001000
00000000
00010000
00000000
00100000
00000000
01000000
00000000
10000000
00000000
01000000
00010000
10000000
00000000
00010000
00000000
,
10000000
01000000
00010000
01000000
00100000
10000000
00100000
01000000
,
00010000
00000000
00001000
00000000
00000010
00000000
00000100
00000000
00000001
00000000
00000100
00001000
00000001
00000000
00001000
00000000
,
00000010
00000000
00000100
00000000
00001000
00000000
00010000
00000000
00100000
00000000
10000000
00010000
00100000
00000000
01000000
00000000
,
10000000
00000000
00010000
10000000
00100000
00000000
01000000
00100000
00010000
00000000
00001000
00010000
00000100
00001000
00000001
00000000
,
00001000
00000000
00000001
00000000
00000100
00000000
00000010
00000000
00000100
00000000
00001000
00010000
00001000
00000000
01000000
00010000
,
10000000
00000000
00010000
00100000
01000000
00000000
00100000
00001000
00010000
00000000
00001000
00010000
00000010
00010000
00001000
00000000
,
00010000
00000000
00000100
00001000
00000001
00000000
00000100
00000001
00001000
00000000
00000100
00000010
00000001
00000000
00001000
00000010
,
00000100
00000000
00001000
00010000
00100000
00000000
01000000
00010000
10000000
00000000
00010000
10000000
01000000
00100000
00010000
00000000
,
00100000
00001000
00000010
00000100
00001000
00000001
00000100
00001000
,
00010000
00001000
00100000
00010000
00100000
00001000
00010000
00000010
00001000
00000010
00010000
00001000
01000000
00010000
01000000
00001000
,
00020000
00000000
00000000
00000000
,
00000000
00000000
00000000
00000000
,
00030000
00000000
00000000
00000000
;

//--------------- dance-double - Fred-104† ----------------
#NOTEDATA:;
#STEPSTYPE:dance-double;
#DESCRIPTION:Fred-104†;
#DIFFICULTY:Challenge;
#METER:18;
#CREDIT:Fred-104†;
#NOTES:
00000000
00000000
00000000
00000000
,
00000000
00000000
00000000
00000000
,
00000000
00000000
00000000
00000000
,
00000000
00000000
00000000
00000000
,
00000000
00000000
00000000
00000000
,
00000000
00000000
00000000
00000000
,
00000000
00000000
00000000
00000000
,
00000000
00000000
00000000
00000000
,
00000000
00000000
00000000
00000000
,
00010000
00001000
00010000
00000000
00000100
00000010
00001000
00000001
,
00000100
00001000
00000001
00000000
00000100
00001000
00010000
00100000
,
01000000
00100000
10000000
00000000
00010000
00100000
01000000
00100000
,
00001000
00010000
00100000
00000000
10000000
00000000
10010000
00000000
,
10000000
01000000
10000000
01000000
00100000
00010000
00100000
00010000
00100000
00001000
00100000
00001000
00010000
00000010
00010000
00000010
,
00001000
00000001
00001000
00000001
00000010
00000100
00000010
00000100
00001000
00000100
00001000
00000100
00010000
00001000
00010000
00001000
,
00010000
00000100
00001000
00000010
00000100
00000001
00000010
00000001
00000100
00000010
00001000
00000100
00010000
00000100
00001000
00000001
,
00000200
00002300
00023000
02030000
23000000
30200000
02300000
03000000
,
01010000
00010000
10010000
00000000
11000000
01000000
00100000
00101000
,
00000000
00010010
00010000
00011000
00000000
00010100
00000100
00000010
,
00000011
00000001
00001001
00000000
00000101
00000100
00001000
00011000
,
00000000
00000000
00110000
00000000
00100000
00000000
10100000
00000000
00000000
00000000
10000000
01000000
10000000
00000000
00010000
00000000
,
01010000
01000000
01100000
00000000
01010000
01000000
00001000
00011000
,
00000000
00000000
00010100
00000000
00000100
00000000
00000110
00000000
00000000
00000000
00000010
00000001
00000010
00000000
00000100
00000000
,
00001100
00001000
00001001
00000000
00000101
00000100
00001000
00011000
,
00000000
00000000
01001000
00000000
00001000
00000000
00011000
00000000
00000000
00000000
00010000
00001000
00010000
00000000
00001000
00000000
,
00021000
01030000
00012000
00003010
00021000
00031000
00010000
00010200
,
00010300
00000000
00010020
00000000
00010030
00000000
00010200
00000000
00010300
00000000
00001000
00100000
00010000
00000000
10000000
00000000
,
01200000
00310000
02100000
13000000
20010000
30010000
00100000
00201000
,
00301000
00000000
02001000
00000000
03001000
00000000
00201000
00000000
00301000
00000000
00010000
00000100
00001000
00000000
00000100
00000000
,
00020100
00031000
00010200
00001300
00012000
00013000
00000100
00000210
,
00000310
00000000
00002010
00000000
00003010
00000000
00000021
00000000
00000031
00000000
00001000
00000010
00000100
00000000
00001000
00000000
,
00011000
00010000
00011000
00001000
00011000
00010000
00011000
00000000
,
00001000
00100000
00010000
10000000
00100000
01000000
00010000
00100000
01000000
10000000
00100000
01000000
00010000
00000000
00000000
00000000
,
10000000
00000000
00100000
00010000
00100000
00000000
10000000
00000000
01000000
00010000
01000000
00000000
10000000
00000000
00000000
00000000
,
01100000
00000000
00100000
00010000
00100000
00000000
00000000
00000000
00011000
00000000
00010000
00000010
00010000
00000000
00000000
00000000
,
00001000
00000000
00010000
00000010
00010000
00000000
00001000
00000000
00010000
00000100
00010000
00000000
00001000
00000000
00000000
00000000
,
00011000
00010000
00010010
00000000
00011000
00001000
00101000
00000000
,
00010000
00000000
00001000
00000010
00001000
00000000
00010000
00000000
00001000
00000100
00001000
00000000
00010000
00000000
00000000
00000000
,
00011000
00000000
00010000
00000010
00010000
00000000
00000000
00000000
00001010
00000000
00000010
00000100
00000010
00000000
00000000
00000000
,
00001000
00000000
00000100
00000010
00000001
00000000
00001000
00000000
00000010
00000000
00000100
00000001
00001000
00000000
00000001
00000000
,
00000010
00000000
00000010
00000000
00000100
00000010
00001000
00010000
00001000
00000000
01000000
00010000
00100000
00000000
01000000
00000000
,
10000000
00000000
00000000
00000000
00000000
00000000
00000000
00000000
00100000
00000000
00000000
00000000
00000000
00000000
00000000
00000000
10000000
00000000
00000000
00000000
00000000
00000000
00000000
00000000
00100000
00000000
00000000
00000000
00000000
00000000
00000000
00000000
01000000
00000000
00000000
00000000
00000000
00000000
00000000
00000000
00001000
00000000
00000000
00000000
00000000
00000000
00000000
00000000
02000000
03000000
00000000
00000000
00000000
00000000
00000000
00000000
00001000
00000000
00000000
00000000
00000000
00000000
00000000
00000000
,
00010000
00000000
00000000
00000000
00000000
00000000
00000000
00000000
00000100
00000000
00000000
00000000
00000000
00000000
00000000
00000000
00010000
00000000
00000000
00000000
00000000
00000000
00000000
00000000
00000100
00000000
00000000
00000000
00000000
00000000
00000000
00000000
00000010
00000000
00000000
00000000
00000000
00000000
00000000
00000000
00000001
00000000
00000000
00000000
00000000
00000000
00000000
00000000
00000020
00000030
00000000
00000000
00000000
00000000
00000000
00000000
00000001
00000000
00000000
00000000
00000000
00000000
00000000
00000000
,
00000100
00000000
00000000
00000000
00000000
00000000
00000000
00000000
00001000
00000000
00000000
00000000
00000000
00000000
00000000
00000000
00010000
00000000
00000000
00000000
00000000
00000000
00000000
00000000
00100000
00000000
00000000
00000000
00000000
00000000
00000000
00000000
10000000
00000000
00000000
00000000
00000000
00000000
00000000
00000000
01000000
00000000
00000000
00000000
00000000
00000000
00000000
00000000
00020000
00030000
00000000
00000000
00000000
00000000
00000000
00000000
00001000
00000000
00000000
00000000
00000000
00000000
00000000
00000000
,
00010000
00000000
00000000
00000000
00000000
00000000
00000000
00000000
00001000
00000000
00000000
00000000
00000000
00000000
00000000
00000000
00000010
00000000
00000000
00000000
00000000
00000000
00000000
00000000
00000001
00000000
00000000
00000000
00000000
00000000
00000000
00000000
00001000
00000000
00000000
00000000
00000000
00000000
00000000
00000000
00000001
00000000
00000000
00000000
00000000
00000000
00000000
00000000
00000200
00000300
00000000
00000000
00000000
00000000
00000000
00000000
00001000
00000000
00000000
00000000
00000000
00000000
00000000
00000000
,
00022000
00000000
00000000
00000000
,
00000000
00000000
00000000
00000000
,
00000000
00000000
00000000
00000000
,
00000000
00000000
00000000
00000000
00000000
00000000
00000000
00000000
00000000
00000000
00000000
00000000
00000000
00000000
00000000
00000000
00000000
00000000
00000000
00000000
00000000
00000000
00000000
00000000
00000000
00000000
00000000
00033000
00000000
00000000
00000000
00000000
00000000
00000000
00000000
00000000
00000000
00000000
00000000
00000000
00000000
00000000
00000000
00000000
00000000
00000000
00000000
00000000
00000000
00000000
00000000
00000000
00000000
00000000
00000000
00000000
00000000
00000000
00000000
00000000
00000000
00000000
00000000
00000000
,
00020000
00030000
00000000
00000000
00000100
00000000
00000000
00000000
00001000
00000000
00000000
00000000
00000000
00000000
00000000
00000000
00001001
00000000
00000000
00000000
00000000
00000000
00000000
00000000
00000011
00000000
00000000
00000000
00000000
00000000
00000000
00000000
00001010
00000000
00000000
00000000
00000000
00000000
00000000
00000000
00011000
00000000
00000000
00000000
00010000
00000000
00000000
00000000
00001000
00000000
00010000
00000000
00001000
00000000
00010000
00000000
00001000
00000000
00000000
00000000
00000000
00000000
00000000
00000000
,
00100000
01000000
00100000
01000000
00100000
00000000
00000000
00000000
10100000
00000000
00000000
00000000
00110000
00000000
00010000
20000000
00100000
00000000
00100000
00000000
00100000
00000000
30200000
00000000
01000000
00000000
01000000
00000000
02000000
00000000
03300000
00000000
,
02200000
00000000
03300000
00000000
20020000
00000000
30030000
00000000
10100000
00000000
00000000
00000000
00110000
00000000
00000000
00000000
00011000
00000000
00000000
00000000
00001100
00000000
00000100
00000000
00000001
00001000
00000001
00001000
00000001
00000000
00000000
00000000
,
00000100
00000010
00000100
00000010
00000100
00000000
00000000
00000000
00001000
00000000
00000100
00000000
00000001
00000000
00000020
00000000
00001000
00000000
00001000
00000000
00001000
00000000
00002030
00000000
00010000
00000000
00010000
00000000
00020000
00000000
00033000
00000000
,
00011000
00000000
00001000
01000000
01100000
00000000
00110000
00000000
10100000
00000000
10010000
00000000
11000000
11000000
01100000
00000000
,
00100000
00001000
00100000
00001000
00010000
00000000
00000000
00000000
00011000
00000000
00000000
00000000
00011000
00000000
00001000
00000200
00000001
00000000
00000001
00000000
00000001
00000000
00000302
00000000
00001000
00000000
00001000
00000000
00002000
00000000
00003003
00000000
,
00002002
00003003
00000101
00000100
00000110
00000000
00010010
00000000
00101000
00000000
10010000
00000000
01001000
00001000
00011000
00000000
,
00010000
00000000
00001000
00000000
00001100
00000000
00000100
00000000
00000001
00000000
00000010
00000000
00001010
00000000
00001000
00000000
00010000
00000000
00001000
00100000
00010000
00000000
00010000
00000000
00100000
00000000
00100000
00010000
10000000
00100000
10000000
00010000
,
00200000
00000000
00000000
00000000
,
00000000
00000000
00000000
00000000
,
00300000
00000000
00000000
00000000
,
00000000
00000000
00000000
00000000
,
00000001
00000100
00000001
00000100
00000010
00001000
00000010
00001000
00000010
00010000
00000010
00010000
00001000
00100000
00001000
00100000
,
00010000
10000000
00010000
10000000
00100000
01000000
00100000
01000000
00010000
01000000
00010000
01000000
00001000
00010000
00001000
00010000
,
00001000
01000000
00010000
00100000
01000000
10000000
00100000
10000000
01000000
00100000
00010000
01000000
00100000
01000000
00010000
10000000
,
02000000
03020000
00032000
00003200
00000302
00000023
00000230
00000300
,
00001000
00000000
00000001
00000100
00000010
00000000
00001000
00000000
00000100
00000010
00000100
00000000
00010000
00000000
00010020
00000000
,
00010030
00000000
00010200
00000000
00010300
00000000
00010020
00000000
00010030
00000000
00001000
00100000
00010000
00000000
00100000
00000000
,
01000000
00000000
10000000
00010000
01000000
00000000
00100000
00000000
10000000
01000000
00100000
00000000
00001000
00000000
00021000
00000000
,
00031000
00000000
02001000
00000000
03001000
00000000
00201000
00000000
00301000
00000000
00010000
00000010
00001000
00000000
00000001
00000000
,
00000010
00000000
00000100
00000010
00000001
00000000
00001000
00000000
00000010
00010000
00001000
00000000
01000000
00000000
01002000
00000000
,
01003000
00000000
01020000
00000000
01030000
00000000
01002000
00000000
01003000
00000000
00100000
10000000
01000000
00000000
00100000
00000000
,
00001000
00000000
00010000
00001000
01000000
00000000
00010000
00000000
00100000
00001000
00010000
00000000
00000010
00000000
00020010
00000000
,
00030010
00000000
00002010
00000000
00003010
00000000
00000210
00000000
00000310
00000000
00001000
00000001
00000010
00000000
00001000
00000000
,
00011000
00000000
00000000
00000000
00000000
00000000
00000000
00000000
00010000
00000000
00000000
00000000
00000100
00000000
00000000
00000000
00001000
00000000
00000000
00000000
00000000
00000000
00000000
00000000
00000010
00000000
00000000
00000000
00000000
00000000
00000000
00000000
00010000
00000000
00000000
00000000
00001000
00000000
00000000
00000000
00010000
00000000
00000000
00000000
00100000
00000000
00000000
00000000
02000000
00000000
00000000
00000000
00000000
00000000
00000000
00000000
00010000
00000000
00000000
00000000
00100000
00000000
00000000
03000000
,
02000000
00000000
00000000
00000000
00000000
00000000
00000000
00000000
10000000
00000000
00000000
00000000
00100000
00000000
00000000
03000000
02000000
00000000
00000000
00000000
00000000
00000000
00000000
00000000
00010000
00000000
00000000
00000000
00100000
00000000
00000000
03000000
02000000
00000000
00000000
00000000
00000000
00000000
00000000
00000000
10000000
00000000
00000000
00000000
00100000
00000000
00000000
03000000
01000000
00000000
00000000
00000000
00010000
00000000
00000000
00000000
10000000
00000000
00000000
00000000
00000000
00000000
00000000
00000000
,
01000000
00000000
00000000
00000000
00000000
00000000
00000000
00000000
00100000
00000000
00000000
00000000
00001000
00000000
00000000
00000000
00010000
00000000
00000000
00000000
00000000
00000000
00000000
00000000
00001000
00000000
00000000
00000000
00000000
00000000
00000000
00000000
00000100
00000000
00000000
00000000
00000010
00000000
00000000
00000000
00001000
00000000
00000000
00000000
00000001
00000000
00000000
00000000
00000020
00000000
00000000
00000000
00000000
00000000
00000000
00000000
00000100
00000000
00000000
00000000
00001000
00000000
00000000
00000030
,
00000020
00000000
00000000
00000000
00000000
00000000
00000000
00000000
00000100
00000000
00000000
00000000
00000001
00000000
00000000
00000030
00000020
00000000
00000000
00000000
00000000
00000000
00000000
00000000
00000100
00000000
00000000
00000000
00001000
00000000
00000000
00000030
00000020
00000000
00000000
00000000
00000000
00000000
00000000
00000000
00000100
00000000
00000000
00000000
00000001
00000000
00000000
00000030
00000010
00000000
00000000
00000000
00000100
00000000
00000000
00000000
00010000
00000000
00000000
00000000
00000000
00000000
00000000
00000000
,
00011000
00000000
00000000
00000000
00000000
00000000
00000000
00000000
00001000
00000000
00000000
00000000
00010000
00000000
00000000
00000000
00100000
00000000
00000000
00000000
00000000
00000000
00000000
00000000
01000000
00000000
00000000
00000000
00000000
00000000
00000000
00000000
00100000
00000000
00000000
00000000
10000000
00000000
00000000
00000000
00010000
00000000
00000000
00000000
01000000
00000000
00000000
00000000
00002000
00000000
00000000
00000000
00000000
00000000
00000000
00000000
00010000
00000000
00000000
00000000
00000100
00000000
00000000
00003000
,
00002000
00000000
00000000
00000000
00000000
00000000
00000000
00000000
00000100
00000000
00000000
00000000
00010000
00000000
00000000
00003000
00002000
00000000
00000000
00000000
00000000
00000000
00000000
00000000
00010000
00000000
00000000
00000000
00000100
00000000
00000000
00003000
00002000
00000000
00000000
00000000
00000000
00000000
00000000
00000000
00000100
00000000
00000000
00000000
00010000
00000000
00000000
00003000
00001000
00000000
00000000
00000000
01000000
00000000
00000000
00000000
00010000
00000000
00000000
00000000
00100000
00000000
00000000
00000000
,
01000000
01000000
10000000
10000000
00100000
00100000
00010000
00010000
,
00001000
00010000
00000010
00001000
00000100
00000010
00000001
00000100
00000010
00001000
00000100
00010000
00001000
00100000
01000000
10000000
,
20020000
00000000
00000000
00000000
,
00000000
00000000
00000000
00000000
,
30030000
00000000
00000000
00000000
;
