#VERSION:0.83;
#TITLE:255;
#ARTIST:255;
#GENRE:HYPER SPEED RAVE;
#BANNER:255.png;
#BACKGROUND:255-bg.png;
#CDTITLE:./CDTitles/bm IIDX 25 CANNON BALLERS.png;
#MUSIC:255.ogg;
#SAMPLESTART:1.882;
#SAMPLELENGTH:15;
#BPMS:0=255;
#BGSTAGE:30;

//--------------- dance-single - Fred-104 ----------------
#NOTEDATA:;
#STEPSTYPE:dance-single;
#DESCRIPTION:Fred-104;
#DIFFICULTY:Beginner;
#METER:6;
#CREDIT:Fred-104;
#NOTES:
0000
0000
0000
0000
,
0000
0000
0000
0000
,
0000
0000
0000
0000
,
0000
0000
0000
0000
,
0000
0000
0000
0000
,
0000
0000
0000
0000
,
0000
0000
0000
0000
,
0000
0000
0000
0000
,
0000
0000
0000
0000
,
0000
0000
0000
0000
,
0001
0000
0001
0000
,
0010
0000
0010
0000
,
0100
0000
0100
0000
,
1000
0000
1000
0000
,
0001
0000
0001
0000
,
1000
0000
1000
0000
,
0001
0001
0001
0001
,
1001
0000
0000
0000
,
1000
0000
0000
0000
,
0100
0000
0100
0000
,
0100
0000
0000
0000
,
0010
0000
0001
0000
,
1000
0000
0000
0000
,
0001
0000
0100
0000
,
0001
0000
0000
0000
,
1000
0000
0000
0000
,
0001
0000
0001
0000
,
0010
0000
0000
0000
,
1000
0000
1000
0000
,
0100
0000
0000
0000
,
0001
0000
0010
0000
,
1000
0000
0100
0000
,
0001
0000
0001
0000
,
1001
0000
0000
0000
,
1000
0000
0000
1000
,
0000
0000
1000
0000
,
0100
0000
0000
0100
,
0000
0000
0100
0000
,
0010
0000
0000
0010
,
0000
0000
0010
0000
,
0001
0000
0001
0000
,
1001
0000
0000
0000
,
0001
0000
0000
0001
,
0000
0000
0100
0000
,
1000
0000
0000
1000
,
0000
0000
0010
0000
,
0001
0000
0001
0000
,
1000
0000
1000
0000
,
0001
0000
0001
0000
,
1001
0000
0000
0000
,
1001
0000
0000
0000
,
1000
1000
1000
0000
,
0001
0000
0010
0000
,
0010
0000
0000
0000
,
0100
0000
0100
0000
,
0010
0000
0010
0000
,
0001
0000
1000
0000
,
1001
0000
0000
0000
,
0001
0000
0010
0000
,
0100
0000
0100
0000
,
1000
0000
0001
0000
,
1000
0000
1000
0000
,
1001
0000
0000
0000
,
0110
0000
0000
0000
,
1001
0000
0000
0000
,
0000
0000
0000
0000
,
1000
0000
0100
0000
,
1000
0000
1000
0000
,
0001
0000
0100
0000
,
0010
0000
0010
0000
,
1001
0000
0000
0000
,
0110
0000
0000
0000
,
1001
0000
0000
0000
,
0110
0000
0110
0000
,
0001
0000
0000
0001
,
0000
0000
0100
0000
,
1000
0000
0000
1000
,
0000
0000
0010
0000
,
0001
0000
0001
0000
,
1000
0000
1000
0000
,
0001
0000
1000
0000
,
1001
0000
0000
0000
,
2000
0000
0000
0000
,
0000
0000
3000
0000
,
0002
0000
0000
0000
,
0000
0000
0003
0000
,
2000
0000
0000
0000
,
0000
0000
3000
0000
,
0002
0000
0000
0000
,
0000
0000
0003
0000
,
1000
0000
0000
0000
,
0100
0000
0000
0000
,
1000
0000
0000
0000
,
0001
0000
0000
0000
,
1000
0000
1000
0000
,
0001
0000
0001
0000
,
0000
0000
0001
0001
,
0000
1000
1000
1000
,
1000
0000
0001
0000
,
1000
0000
0100
0000
,
0010
0000
0010
0000
,
0001
0000
0001
0000
,
1000
0000
0001
0000
,
0100
0000
0010
0000
,
0010
0000
0100
0000
,
0001
0001
0001
0000
,
1000
0000
1000
0000
,
0100
0000
0100
0000
,
0001
0000
0001
0000
,
0010
0000
0010
0000
,
2000
0000
0000
3000
,
0002
0000
0000
0003
,
1000
0000
0001
0000
,
1001
0000
0000
2002
,
0000
0000
0000
0000
,
0000
0000
0000
0000
,
3003
0000
0000
0000
;

//--------------- dance-single - Fred-104 ----------------
#NOTEDATA:;
#STEPSTYPE:dance-single;
#DESCRIPTION:Fred-104;
#DIFFICULTY:Easy;
#METER:12;
#CREDIT:Fred-104;
#NOTES:
0000
0000
0000
0000
,
0000
0000
0000
0000
,
0000
0000
0000
0000
,
0000
0000
0000
0000
,
0000
0000
0000
0000
,
0000
0000
0000
0000
,
0000
0000
0000
0000
,
0000
0000
0000
0000
,
0000
0000
0000
0000
,
0000
0000
0000
0000
,
1000
0000
0100
0000
0000
0100
0000
0000
,
0100
0010
0001
0001
,
1000
0000
0001
0000
0000
0001
0000
0000
,
0001
0100
0010
0010
,
0100
0000
0010
0000
0000
0010
0000
0000
,
1000
0000
0000
1000
0000
0000
1000
0000
,
0001
0010
0100
1000
,
0001
0100
0010
0110
,
0001
0000
1000
0000
0001
0000
0000
0100
,
0000
0100
0000
0010
0000
0010
1000
0000
,
1000
0000
0100
0000
0010
0001
0000
0001
,
0000
1000
0000
1000
0000
0001
0000
0000
,
0100
0000
0010
0000
0100
0010
0000
0010
,
0000
0100
0000
0100
0000
0001
1000
0000
,
1000
0000
0100
0000
1000
0001
0000
0001
,
1000
0100
0110
0000
,
0001
0000
0010
0000
0000
0100
0000
0100
,
0000
1000
0000
0001
0000
1000
0000
0000
,
0010
0000
0100
0000
0010
0000
0000
1000
,
0000
0100
0000
0010
0000
0100
0000
0000
,
1000
0000
0000
0100
0000
0001
0000
0000
,
1000
0000
0000
0010
0000
0001
0000
0000
,
1000
0000
1000
0000
1000
0000
1000
0001
,
0000
0100
0220
0330
,
0001
0000
0010
0000
0000
0010
0000
0000
,
0100
0100
1000
0001
,
0100
0000
0100
0000
0000
0010
0000
0000
,
0100
0001
1000
1000
,
0100
0000
0010
0000
0000
0001
0000
0000
,
1000
0000
0000
0001
0000
0000
0100
0000
,
0001
1000
0100
0100
,
0001
1000
1001
0000
,
0001
0000
0010
0000
0000
0100
0000
0000
,
0100
1000
0001
0001
,
0100
0000
0010
0000
0000
0010
0000
0000
,
0100
0100
0001
1000
,
0100
0100
0010
0011
,
0100
0100
0010
1010
,
1000
0100
1000
0000
0001
0100
0001
0000
,
2000
0002
0000
3003
,
1001
0000
0000
0000
,
1000
0100
0110
0000
,
0001
0000
0001
0000
0000
1000
0000
1000
,
0000
0010
0000
0100
0000
0001
1000
0000
,
0001
0000
0001
0000
0000
0010
0000
0010
,
0000
0100
1000
0000
0001
0000
1000
0000
,
0001
0100
0001
0000
0000
1000
0000
1000
,
0200
0320
0200
0330
,
1000
0000
1000
0000
0000
0001
0000
0010
,
0000
0100
0000
1000
0000
0001
0100
0000
,
0010
0000
0010
0000
0000
0100
0000
0001
,
0000
1000
0000
0100
0000
0010
0001
0000
,
1000
0000
0000
0010
0000
0001
0000
0000
,
1000
0000
0000
0100
0000
0001
0000
0000
,
1000
0010
1000
0000
0001
0010
0002
0000
,
2000
0003
3000
0000
,
1001
1000
0100
0100
,
0001
0000
0010
0000
0100
1000
0100
0000
,
1001
1000
0100
0100
,
0001
0000
1000
0000
0001
0010
0001
0000
,
0011
1001
0022
0033
,
1010
1001
2020
3030
,
0101
0110
0101
0110
,
1100
0110
2200
3300
,
0001
0010
0100
1000
,
0010
0000
0100
0000
0001
1000
0001
0000
,
1000
0100
0010
0001
,
1000
0000
0001
0000
0100
0010
0100
0000
,
0001
0010
0100
1000
,
0001
0000
1000
0000
0010
1000
0010
0000
,
1000
0100
0001
0100
,
1000
0001
1000
0000
0010
0100
0010
0000
,
1000
0000
1000
0000
0001
0000
0000
0020
,
0000
0000
0130
0100
,
1000
0000
0001
0000
0100
0000
0000
0010
,
0000
0100
0100
0000
,
0001
0000
0010
0000
0100
0000
0000
0200
,
0000
0000
1300
0001
,
1000
0010
0100
0001
,
1000
0100
0110
0000
,
0011
0001
1000
1000
,
0010
0010
0100
0100
,
0001
0001
1000
1000
,
0001
0010
0001
0000
1000
0010
1000
0000
,
0001
0100
1000
0001
,
0001
0010
1000
0001
,
0010
0000
0001
0001
,
0000
1000
1000
1000
,
0100
0000
0010
0000
0001
0000
0000
1000
,
0000
0001
0100
0010
,
0100
0000
0100
0000
0001
0000
0000
0010
,
0000
0100
0100
1000
,
0001
0000
0100
0000
0010
0000
0000
0010
,
0000
0100
0001
1000
,
0100
0010
0011
0000
,
0100
0010
1010
0000
,
0001
0000
0010
0000
0100
0000
0000
1000
,
0000
0001
0100
0010
,
0100
0000
0001
0000
1000
0000
0000
0100
,
0000
0010
0001
1000
,
0001
0000
0010
0000
0100
1000
0100
0000
,
1000
0000
0010
0000
0100
0001
0100
0000
,
0001
0010
0001
0000
1000
0010
1000
0000
,
1001
0000
0000
0110
0000
0000
2002
0000
,
0000
0000
0000
0000
,
0000
0000
0000
0000
,
3003
0000
0000
0000
;

//--------------- dance-single - Fred-104 ----------------
#NOTEDATA:;
#STEPSTYPE:dance-single;
#DESCRIPTION:Fred-104;
#DIFFICULTY:Medium;
#METER:15;
#CREDIT:Fred-104;
#NOTES:
0000
0000
0000
0000
,
0000
0000
0000
0000
,
0000
0000
0000
0000
,
0000
0000
0000
0000
,
0000
0000
0000
0000
,
0000
0000
0000
0000
,
0000
0000
0000
0000
,
0000
0000
0000
0000
,
0000
0000
0000
0000
,
0000
0000
0000
0000
,
1000
0100
1000
0000
0001
1000
0000
0010
,
1000
0000
0001
1000
0100
0000
0011
0000
,
0001
1000
0010
0000
0100
0001
0000
1000
,
0100
0000
0010
0100
1000
0001
1000
0000
,
0001
0100
0001
0000
1000
0010
0000
1000
,
0100
0000
1000
0001
0000
1000
0100
0000
,
0010
0001
0010
0001
1000
0010
1000
0010
,
0100
0001
1000
0100
0010
0001
0010
0000
,
0011
0000
1001
0000
1010
0000
0001
0100
,
0000
0110
0000
0110
0000
0010
1000
0000
,
1001
0000
0110
0000
1000
0001
0000
0101
,
0000
1001
0000
1100
0000
1001
0000
0001
,
0100
0000
0110
0000
0010
1000
0010
1000
,
0001
1000
0000
1100
0000
0010
0001
0000
,
1001
0000
0110
0000
0001
1000
0000
1000
,
0100
0010
0001
0000
1000
0001
1000
0000
,
0011
0000
0011
0000
0100
1000
0000
0010
,
0000
1000
0000
0100
0000
0010
0001
1000
,
0001
0000
0101
0000
1001
0000
1000
0100
,
0000
0001
0100
0001
0100
1000
0100
0000
,
1000
0100
0000
0010
0000
0001
0000
0001
,
1000
0010
0000
0100
0000
0001
1000
0001
,
0010
0100
0010
0100
0010
0100
0000
0110
,
0000
0100
2002
3003
,
1000
0001
0010
0000
0100
1000
0000
0001
,
1000
0000
0010
0100
0010
0000
0110
0000
,
0001
1000
0100
0000
1000
0001
0000
0100
,
0001
0000
1000
0100
0010
0100
0010
0000
,
0001
1000
0001
0000
1000
0010
0000
1000
,
0001
0000
0010
0100
0000
0010
0001
0000
,
1001
0000
0110
0000
1001
0000
0100
0100
,
0001
0000
1000
0000
0001
0010
0001
0000
,
1000
0001
0010
0000
0100
1000
0000
0001
,
0100
0000
0010
1000
0010
0000
0110
0000
,
0001
0010
0100
0000
1000
0001
0000
0100
,
0001
0000
1000
0100
0010
0001
0010
0000
,
0001
0100
0001
1000
0001
0010
0001
0000
,
1000
0010
1000
0001
1000
0100
1000
0000
,
0001
0010
0100
1000
0100
0010
0001
0020
,
0002
0030
0000
0003
,
1000
0000
0000
0001
0000
0000
1000
0000
,
1000
0100
0010
0011
,
1001
0000
1001
0000
0001
0100
0000
0001
,
0000
1000
0000
0100
0000
0010
0001
1000
,
0001
0000
0110
0000
0001
1000
0010
1000
,
0000
0100
0000
0010
0000
0100
1000
0000
,
1100
0000
1001
0000
0001
0010
0001
1000
,
0020
0230
0002
0303
,
0001
0000
0001
0000
1000
0100
1000
0100
,
0000
0010
0000
0001
1000
0010
1000
0000
,
0100
0000
0010
0000
0001
0000
1000
0001
,
0000
0100
0001
1000
0001
0010
0200
0300
,
1000
0100
0000
0010
0000
0001
0000
0001
,
1000
0010
0000
0100
0000
0001
1000
0001
,
0010
0100
1000
0100
1000
0001
1000
0020
,
0200
0030
0300
0000
,
1001
0000
1001
0000
1001
0000
0100
0100
,
0001
0000
0000
0000
0010
0100
0010
0000
,
0110
0000
0110
0000
1001
0000
0100
0100
,
0001
0000
1000
0000
0001
1000
0001
0000
,
1100
1100
0220
0330
,
0101
0101
0220
0330
,
1100
0110
0011
1001
,
1010
0101
2002
3003
,
0001
0010
0001
0000
1000
0010
0000
0100
,
0001
0000
1000
0100
1000
0000
1001
0000
,
0001
0010
0001
0000
1000
0010
0000
0100
,
0010
0000
1000
0001
0010
0001
0010
0000
,
0100
1000
0100
0000
1000
0001
0000
0100
,
0001
0000
1000
0001
0010
0001
0010
0000
,
0001
0100
0001
0000
0100
1000
0100
0000
,
0001
1000
0001
1000
0001
1000
0001
0000
,
1000
0000
1000
0000
0100
0010
0000
0020
,
0000
0000
0031
1000
,
0001
0000
0100
0000
0010
1000
0000
2000
,
0000
0000
3100
0000
0010
0000
0001
1000
,
0001
0000
0100
0000
0010
0100
0000
0200
,
0000
0000
0301
0010
,
0100
0000
1000
0000
0001
1000
0001
1000
,
0100
0000
0010
0000
0110
0000
0001
1000
,
0001
0000
0100
0000
0001
0010
0000
0020
,
0000
0000
0130
1000
,
0001
0000
0100
0000
0010
1000
0000
1000
,
0100
1000
0010
1000
0001
1000
0100
0000
,
0010
0001
0100
0001
0010
0100
1000
0000
,
0010
1000
0100
1000
0010
0100
0001
0000
,
0010
0000
0001
0001
,
0000
1000
1000
1000
,
0100
0000
0010
0000
0001
0010
0001
0010
,
0000
0100
1000
0000
0001
1000
0010
0100
,
0001
0000
1000
0000
0100
0010
0100
0010
,
0000
0001
1000
0000
0010
0000
0100
0001
,
0010
0000
0100
0000
0010
0001
0010
0001
,
0000
1000
0010
0000
0100
0001
1000
0100
,
0010
0000
0001
0000
1000
0001
0100
0010
,
1000
0000
0100
0000
0110
0000
0001
1000
,
0001
0000
1000
0000
0100
1000
0100
0010
,
0000
0100
0010
0001
1000
0001
0100
0000
,
0010
0000
1000
0000
0001
0010
0100
1000
,
0001
0100
0010
1000
0100
0010
0001
0000
,
1000
0100
1000
0001
0100
0010
1000
0000
,
0001
0010
0001
1000
0010
0100
0001
0000
,
1000
0100
0010
0001
0010
0100
1000
0001
,
0100
0000
0000
0110
0000
0000
2002
0000
,
0000
0000
0000
0000
,
0000
0000
0000
0000
,
3003
0000
0000
0000
;

//--------------- dance-single - Fred-104 ----------------
#NOTEDATA:;
#STEPSTYPE:dance-single;
#DESCRIPTION:Fred-104;
#DIFFICULTY:Hard;
#METER:17;
#CREDIT:Fred-104;
#NOTES:
0000
0000
0000
0000
,
0000
0000
0000
0000
,
0000
0000
0000
0000
,
0000
0000
0000
0000
,
0000
0000
0000
0000
,
0000
0000
0000
0000
,
0000
0000
0000
0000
,
0000
0000
0000
0000
,
0000
0000
0000
0000
,
0000
0000
0000
0000
,
1000
0100
1000
0001
0100
0001
1000
0010
,
1000
0001
0010
0100
1100
0000
0101
0000
,
0001
0100
0001
1000
0100
1000
0001
0010
,
0001
1000
0010
0100
0001
1000
1001
0000
,
0001
0100
0010
1000
0100
0010
0001
0100
,
0010
1000
0100
0010
0001
0100
0010
1000
,
0001
0100
0001
0000
1000
0000
0001
0010
0001
0000
1000
0000
0001
0100
0001
0000
,
1000
0100
0010
0100
1000
0001
2000
0000
,
3001
1000
0100
1000
0001
1000
0010
0001
,
0000
0001
0000
0001
0010
1000
0001
0000
,
1100
0000
1001
0000
0001
0011
0000
1010
,
0000
0101
0000
1100
0000
1001
0000
0001
,
1000
0100
0001
0000
0100
0010
0100
1000
,
0001
0100
0000
1000
0000
1000
0100
0001
,
1001
0000
1100
0000
1000
0100
0000
0100
,
0001
0100
1000
0001
0100
1000
0100
0000
,
0001
1000
0100
1000
0001
0100
0010
1000
,
0001
0010
0100
0010
0001
1000
0001
0000
,
1000
0100
0010
0001
1000
0010
0100
0001
,
0010
0001
1000
0010
0100
0001
1000
0000
,
0001
0100
0000
1000
0000
1000
0000
0100
,
0001
0010
0000
1000
0000
1000
0010
0001
,
1000
1000
0100
0100
0010
0010
0001
0001
,
0000
1010
0101
1100
,
0001
0010
0010
0001
0010
0010
0001
0100
,
0100
0001
0100
0100
0001
0000
1001
0000
,
1000
0100
0100
1000
0100
0100
1000
0010
,
0010
1000
0010
0010
1000
0001
1000
0000
,
0001
0010
0100
1000
0001
0100
0100
1000
,
0100
0100
0001
1000
0010
0100
0001
0000
,
1001
0000
0110
0000
1001
0000
0100
0100
,
0001
0000
1000
0001
0010
0100
0010
0000
,
0001
0010
0010
0100
1000
1000
0001
0100
,
0100
0010
1000
1000
1001
0000
0110
0000
,
1000
0010
0010
0100
0001
0001
0010
0100
,
0100
1000
0001
0001
0100
0010
0100
0000
,
0001
0001
1000
1000
0100
0010
0011
0000
,
1000
1000
0010
0010
0100
0100
0101
0000
,
0001
0010
0001
0000
1000
0000
0001
0100
0001
0000
1000
0000
0100
0010
0100
0000
,
0010
0022
0000
0033
,
0001
0000
1000
0010
0000
0100
0001
0000
,
1000
0000
0000
0000
0100
0000
0000
0100
0010
0000
0000
0000
0011
0000
0000
0000
,
1010
0000
0101
0000
1000
0100
0001
0100
,
0010
0100
1000
0001
0100
0010
1000
0000
,
0110
0000
1001
0000
0001
0100
0010
0100
,
1000
0100
0010
1000
0100
0010
0001
0000
,
1000
0001
0100
0010
0100
0001
0010
0100
,
1000
0010
0100
0001
1000
0100
1000
0000
,
1010
0000
0101
0000
1000
0010
0100
1000
,
0001
0010
0100
0001
0010
0100
1000
0000
,
1010
0000
0101
0000
1100
0000
0001
0100
,
1000
0100
0010
0100
1000
0100
0002
0003
,
1000
0100
0000
0001
0000
0001
0000
0100
,
1000
0010
0000
0001
0000
0001
0010
1000
,
0001
1000
0001
0000
0010
0000
0100
1000
0100
0000
1000
0000
0001
0100
0001
0000
,
2000
3002
0200
0303
,
0011
0000
1010
0000
0101
0000
0100
0100
,
0001
0000
0100
0001
0010
0010
0100
0000
,
0110
0000
1001
0000
0101
0000
0100
0100
,
0001
0000
1000
0100
0010
0010
0001
0000
,
1100
0011
1001
1000
,
0101
1010
1001
0001
,
1100
0101
1010
0011
,
1001
0110
2002
3003
,
0001
0100
1000
0001
0010
1000
0001
0100
,
1000
0001
0010
1000
0001
0000
1001
0000
,
1000
0100
0001
1000
0010
0001
1000
0100
,
0001
1000
0010
0001
1000
0100
0010
0000
,
0001
0010
0010
0100
1000
1000
0001
0100
,
0100
0010
1000
1000
0100
0010
0001
0000
,
1000
0100
0010
0001
0100
0010
1000
0100
,
0010
0001
0100
0010
1000
0001
1000
0000
,
0001
0000
0010
0000
1000
0001
0000
0200
,
0000
0000
0310
0001
,
1000
0000
0010
0000
0001
1000
0000
0200
,
0000
0000
0310
0000
1000
0000
0001
0010
,
0100
0000
1000
0000
0001
0100
0000
2000
,
0000
0000
3100
0010
,
0100
0000
0001
0000
1000
0100
0010
0001
,
2000
0000
3002
0000
0203
0000
0310
1000
,
1001
0000
0110
0000
1000
0100
0010
0001
,
0000
1000
0010
0000
0100
0000
1000
0100
,
0001
0000
1000
0000
0100
0001
0100
0010
,
0100
0010
0100
1000
0001
0100
0001
1000
,
0100
0000
0010
0000
0001
0000
1000
0000
0001
1000
0001
1000
0001
0000
0000
0000
,
0100
0000
0010
0000
1000
0000
0001
0000
1000
0001
1000
0001
1000
0000
0000
0000
,
0010
0000
0000
0000
0001
0010
1000
0000
,
0000
0000
0001
0100
1000
0100
0001
0000
,
0110
0000
1001
0000
1000
0100
0010
0001
,
1000
0010
0100
0010
1000
0001
0010
0100
,
0010
0000
0011
0000
1000
0001
0100
0010
,
1000
0001
0010
0100
1000
0000
0001
0100
,
0001
0000
1100
0000
0001
1000
0100
0010
,
0001
1000
0010
1000
0001
0010
0100
1000
,
0100
0000
0110
0000
0010
0001
1000
0010
,
1010
0000
0101
0000
1001
0000
0001
1000
,
0010
0000
0110
0000
0100
0001
1000
0100
,
0001
0100
0010
0100
1000
0001
0100
0010
,
1000
0000
1001
0000
0001
1000
0010
0001
,
0010
0100
0010
1000
0001
0010
0100
1000
,
0001
0100
0001
1000
0010
1000
1001
0000
,
1000
0100
1000
0001
0010
0001
1001
0000
,
0001
0000
0010
0000
0100
0000
1000
0000
0001
0000
0100
0000
0010
1000
0010
1000
,
0001
0010
1000
0001
0100
1000
2002
0000
,
0000
0000
0000
0000
,
0000
0000
0000
0000
,
3003
0000
0000
0000
;

//--------------- dance-single - Fred-104† ----------------
#NOTEDATA:;
#STEPSTYPE:dance-single;
#DESCRIPTION:Fred-104†;
#DIFFICULTY:Challenge;
#METER:18;
#CREDIT:Fred-104†;
#NOTES:
0000
0000
0000
0000
,
0000
0000
0000
0000
,
0000
0000
0000
0000
,
0000
0000
0000
0000
,
0000
0000
0000
0000
,
0000
0000
0000
0000
,
0000
0000
0000
0000
,
0000
0000
0000
0000
,
0000
0000
0000
0000
,
0000
0000
0000
0000
,
0001
0010
0001
0000
0010
0000
0100
1000
0100
0000
1000
0000
0001
0100
0001
0000
,
1000
0000
0001
0010
0001
0000
1000
0000
1001
0000
0000
0000
0110
0000
0000
0000
,
0001
1000
0001
0000
1000
0000
0010
0100
0010
0000
1000
0000
0001
0010
0001
0000
,
1000
0000
0100
0010
0100
0000
1000
0000
0100
0000
0100
0000
0110
0000
0000
0000
,
0001
0010
0001
0000
1000
0000
0010
1000
0010
0000
1000
0000
0100
0010
0100
0000
,
1000
0000
0001
0100
0001
0000
1000
0000
0001
0000
0001
0000
1000
0000
1000
0000
,
0100
1000
0100
1000
0100
0000
0010
0001
0010
0001
0010
0000
0001
1000
0001
1000
,
0001
0100
1000
0100
0001
0001
1001
0000
,
1100
0000
0101
0000
1100
0000
0001
0010
,
0000
1010
0000
0011
0001
1000
0010
0000
,
0110
0000
1001
0000
1000
1100
0000
0101
,
0000
1010
0000
0011
0000
0110
0000
0001
,
1001
0000
0011
0000
0001
1000
0100
1000
,
0001
0101
0000
1100
0000
0011
0001
1000
,
1001
0000
0110
0000
0001
0010
0000
0010
,
0100
1000
0001
0100
1000
0001
0010
0000
,
1000
0001
0010
0100
1000
0100
0010
0001
,
1000
0010
0100
0010
1000
0001
0010
0010
,
0001
1000
0100
1000
0001
0100
0010
1000
,
0010
0100
0001
1000
0100
0010
0001
0001
,
1000
0100
0000
0001
0000
0100
0000
1000
,
0001
0000
0100
0000
0000
0000
1000
0000
0000
0000
0100
0000
0001
1000
0001
1000
,
0001
0001
0010
0010
0100
0100
1000
1001
,
0000
0110
1001
MMMM
,
1000
0000
0000
0000
0000
0000
0000
0000
0200
0300
0000
0000
0000
0000
0000
0000
0200
0300
0000
0000
0000
0000
0000
0000
0001
0000
0000
0000
0000
0000
0000
0000
0200
0300
0000
0000
0000
0000
0000
0000
0200
0300
0000
0000
0000
0000
0000
0000
1000
0000
0000
0000
0000
0000
0000
0000
0020
0030
0000
0000
0000
0000
0000
0000
,
0020
0030
0000
0000
0000
0000
0000
0000
0001
0000
0000
0000
0000
0000
0000
0000
0020
0030
0000
0000
0000
0000
0000
0000
0020
0030
0000
0000
0000
0000
0000
0000
1000
0000
0000
0000
0000
0000
0000
0000
0000
0000
0000
0000
0000
0000
0000
0000
1001
0000
0000
0000
0000
0000
0000
0000
0000
0000
0000
0000
0000
0000
0000
0000
,
0001
0000
0000
0000
0000
0000
0000
0000
0200
0300
0000
0000
0000
0000
0000
0000
0200
0300
0000
0000
0000
0000
0000
0000
1000
0000
0000
0000
0000
0000
0000
0000
0200
0300
0000
0000
0000
0000
0000
0000
0200
0300
0000
0000
0000
0000
0000
0000
0001
0000
0000
0000
0000
0000
0000
0000
0020
0030
0000
0000
0000
0000
0000
0000
,
0020
0030
0000
0000
0000
0000
0000
0000
1000
0000
0000
0000
0000
0000
0000
0000
0020
0030
0000
0000
0000
0000
0000
0000
0020
0030
0000
0000
0000
0000
0000
0000
0001
0000
0000
0000
0000
0000
0000
0000
0001
0000
0000
0000
0000
0000
0000
0000
1001
0000
0000
0000
0000
0000
0000
0000
0000
0000
0000
0000
0000
0000
0000
0000
,
1000
0000
0000
0000
0000
0000
0000
0000
0200
0300
0000
0000
0000
0000
0000
0000
0200
0300
0000
0000
0000
0000
0000
0000
0001
0000
0000
0000
0000
0000
0000
0000
0020
0030
0000
0000
0000
0000
0000
0000
0020
0030
0000
0000
0000
0000
0000
0000
1000
0000
0000
0000
0000
0000
0000
0000
0020
0030
0000
0000
0000
0000
0000
0000
,
0020
0030
0000
0000
0000
0000
0000
0000
0001
0000
0000
0000
0000
0000
0000
0000
0200
0300
0000
0000
0000
0000
0000
0000
0200
0300
0000
0000
0000
0000
0000
0000
1000
0000
0000
0000
0000
0000
0000
0000
1000
0000
0000
0000
0000
0000
0000
0000
1001
0000
0000
0000
0000
0000
0000
0000
0000
0000
0000
0000
0000
0000
0000
0000
,
1100
0000
0101
0000
1001
0000
0100
0100
,
0001
0000
1000
1000
0001
0001
1001
0000
,
0011
0010
0100
1100
1000
0001
0101
0100
,
0010
1010
1000
0001
1001
1000
1001
0000
,
1100
0100
0010
0011
0001
1000
1010
0010
,
0100
0101
0001
1000
1001
0001
1001
0000
,
1000
0100
0001
1000
0010
0001
0011
0000
,
0001
0100
1000
0001
0010
1000
1010
0000
,
0001
0100
0001
0100
0001
0000
1000
0100
1000
0100
1000
0000
0001
1000
0001
2000
,
0002
0000
3000
0000
0000
0003
MMMM
0000
,
2000
0000
0000
0010
0000
0000
3001
0000
,
1000
0000
0000
0000
0100
0000
0000
0100
0010
0000
0000
0000
0011
0000
0000
0000
,
0001
0010
0100
1000
0001
1000
0001
0100
,
1000
0001
0010
0100
0010
1000
0001
0001
,
0010
0001
1000
0010
0100
0010
1000
0001
,
0010
1000
0001
0100
0010
0001
1000
1000
,
0001
0100
0010
0100
1000
0100
0010
1000
,
0001
0100
0010
0001
1000
0100
0001
1000
,
1100
0000
0101
0000
1000
0100
0010
0100
,
0001
1000
0010
0100
1000
0001
0100
0010
,
0110
0000
1001
0000
0001
0010
1000
0001
,
0100
0010
1000
0010
0001
1000
2002
3003
,
1000
0100
0000
0001
0000
0100
0000
1000
,
0001
0100
0000
1000
0000
0100
0001
1000
,
0001
0010
0001
0010
0001
0000
0010
0100
0010
0100
0010
0000
0100
1000
0100
1000
,
0100
MMMM
MMMM
MMMM
,
1001
0000
0110
0000
1001
0000
0100
0100
,
0001
0000
0010
0100
1100
0000
1001
0000
,
1010
0000
0011
0000
1010
0000
0100
0100
,
0001
0000
0010
0100
1000
1000
1001
0000
,
0011
0000
1010
0000
0022
0033
MMMM
0000
,
1100
0000
0101
0000
2200
3300
MMMM
0000
,
1100
0101
0011
1010
,
1001
0000
0110
0000
2002
3003
MMMM
0000
,
0011
0001
1000
1010
0010
0100
0101
0001
,
1000
1100
0100
0010
0011
0001
0011
0000
,
1001
0001
0100
0110
0010
1000
1001
0001
,
0010
0110
0100
1000
1100
0100
1100
0000
,
0011
0001
1001
1000
0010
0100
0101
0001
,
1000
0100
0110
0010
0011
0001
1001
0000
,
0001
0100
1000
0001
0010
1000
0001
0010
,
1000
0001
0100
1000
0001
0001
0001
0000
,
1000
0000
0010
0000
0001
0010
0000
0200
,
0000
0000
0301
1000
,
0100
0000
0010
0000
0001
1000
0000
0020
,
0000
0000
0031
0000
0010
0000
0100
0001
,
1000
0000
0100
0000
0001
1000
0000
0020
,
0000
0000
0031
1000
,
0001
0000
0010
0000
0100
0100
1000
1000
,
0001
0000
1000
0000
1001
0000
0001
0100
,
0110
0000
1001
0000
0001
0100
1000
0100
,
0010
0001
1000
0100
0001
1000
0100
0010
,
0001
0000
1001
0000
1000
0010
0100
0010
,
0001
1000
0100
0001
1000
0001
0010
0100
,
1000
0000
0000
0000
0100
0000
0000
0000
0010
0000
0000
0000
0001
0000
0000
0000
0010
0000
0000
0000
0100
0000
0000
0000
1000
0000
0000
0001
0000
0000
1000
0000
0000
0001
0000
0000
1000
0000
0000
0000
0000
0000
0000
0000
0000
0000
0000
0000
,
0001
0000
0000
0000
0100
0000
0000
0000
0010
0000
0000
0000
1000
0000
0000
0000
0010
0000
0000
0000
0100
0000
0000
0000
0001
0000
0000
1000
0000
0000
0001
0000
0000
1000
0000
0000
0001
0000
0000
0000
0000
0000
0000
0000
0000
0000
0000
0000
,
0100
0000
0001
0001
,
0000
1000
1000
1000
,
1000
0001
0100
0001
1000
0100
0001
1000
,
0010
0000
0100
0000
0010
0000
0001
0000
1000
0000
0001
0000
1000
0010
1000
0010
,
0100
0001
1000
0001
0010
0100
1000
0001
,
0100
0000
1000
0000
0001
0000
0010
0000
0100
0000
0001
0000
1000
0001
1000
0001
,
1000
0100
0010
0001
1000
0010
0100
0010
,
1000
0000
0001
0000
0010
0000
0100
0000
0001
0000
0100
0000
0010
0001
0010
0000
,
0011
0000
1000
0000
0001
0001
0010
0010
,
0110
0000
0000
0000
1100
0000
0000
0000
1001
0000
0000
0000
1000
0001
1000
0000
,
0010
0000
1000
0000
0010
0000
0100
0000
0000
0001
0000
0000
1000
0000
0000
0100
0000
0000
0010
0000
0001
0000
1000
0000
,
0001
0000
0000
0100
0000
0000
0010
0000
0000
1000
0000
0000
0001
0000
0010
0000
0100
0000
1000
0000
0100
0000
0010
0000
,
0001
0000
0000
1000
0000
0000
0010
0000
0000
0100
0000
0000
0010
0000
1000
0000
0010
0000
0100
0000
0001
0000
1000
0000
,
0100
0100
0010
0010
0001
0001
1001
0000
,
0001
0000
0001
0000
0100
0000
0100
0000
0010
1000
0010
1000
0001
0000
0000
0000
,
1000
0000
1000
0000
0100
0000
0100
0000
0010
0001
0010
0001
1000
0000
0000
0000
,
0001
0000
0000
0000
0010
0000
0000
0000
0100
0000
0000
0000
1000
0000
0000
0000
0100
0000
0000
0000
0010
0000
0000
0000
0001
0000
0000
0000
1000
0000
0000
0000
0010
0000
0000
0000
0100
0000
0000
0001
0000
0000
0100
0000
0000
0001
0000
0000
,
0100
0000
MMMM
0110
0000
MMMM
2002
0000
,
0000
0000
0000
0000
,
0000
0000
0000
0000
,
3003
0000
0000
0000
;

//--------------- dance-double - Fred-104 ----------------
#NOTEDATA:;
#STEPSTYPE:dance-double;
#DESCRIPTION:Fred-104;
#DIFFICULTY:Easy;
#METER:12;
#CREDIT:Fred-104;
#NOTES:
00000000
00000000
00000000
00000000
,
00000000
00000000
00000000
00000000
,
00000000
00000000
00000000
00000000
,
00000000
00000000
00000000
00000000
,
00000000
00000000
00000000
00000000
,
00000000
00000000
00000000
00000000
,
00000000
00000000
00000000
00000000
,
00000000
00000000
00000000
00000000
,
00000000
00000000
00000000
00000000
,
00000000
00000000
00000000
00000000
,
00010000
00000000
00001000
00000000
00000000
01000000
00000000
00000000
,
00001000
00010000
00001000
00010000
,
00000100
00000000
00000010
00000000
00000000
00000001
00000000
00000000
,
00000100
00001000
00010000
00001000
,
01000000
00000000
00010000
00000000
00000000
10000000
00000000
00000000
,
01000000
00000000
00000000
00100000
00000000
00000000
00001000
00000000
,
00010000
00100000
01000000
00010000
,
10000000
01000000
00010000
00011000
,
00001000
00000000
00010000
00000000
00001000
00000000
00000000
01000000
,
00000000
00010000
00000000
00100000
00000000
00100000
01000000
00000000
,
10000000
00000000
00010000
00000000
10000000
01000000
00000000
01000000
,
00000000
00100000
00000000
00100000
00000000
00001000
00000000
00000000
,
00010000
00000000
00001000
00000000
00000010
00000001
00000000
00000001
,
00000000
00001000
00000000
00001000
00000000
00000010
00010000
00000000
,
00010000
00000000
00001000
00000000
01000000
00001000
00000000
00001000
,
01000000
00100000
10010000
00000000
,
10000000
00000000
00100000
00000000
00000000
01000000
00000000
01000000
,
00000000
00010000
00000000
10000000
00000000
01000000
00000000
00000000
,
00100000
00000000
00001000
00000000
00010000
00000000
00000000
00000010
,
00000000
00001000
00000000
00000100
00000000
00000010
00000000
00000000
,
00000001
00000000
00000000
00000100
00000000
00001000
00000000
00000000
,
00010000
00000000
00000000
00100000
00000000
10000000
00000000
00000000
,
01000000
00000000
01000000
00000000
00100000
00000000
00100000
00001000
,
00000000
00010000
00022000
00033000
,
00001000
00000000
00010000
00000000
00000000
00100000
00000000
00000000
,
01000000
00010000
10000000
01000000
,
00100000
00000000
00001000
00000000
00000000
00010000
00000000
00000000
,
00000010
00010000
00001000
00000010
,
00000001
00000000
00000100
00000000
00000000
00001000
00000000
00000000
,
00010000
00000000
00000000
00001000
00000000
00000000
01000000
00000000
,
00010000
10000000
01000000
01000000
,
00010000
10000000
10010000
00000000
,
10000000
00000000
00100000
00000000
00000000
00010000
00000000
00000000
,
00001000
00010000
00000100
00010000
,
00001000
00000000
00000100
00000000
00000000
00000001
00000000
00000000
,
00000010
00000100
00010000
00001000
,
00010000
00010000
00001000
01001000
,
00001000
00001000
00010000
00010100
,
00001000
00010000
00001000
00000000
01000000
00100000
01000000
00000000
,
00020000
20000000
00000000
30030000
,
10010000
00000000
00000000
00000000
,
10000000
01000000
01100000
00000000
,
00001000
00000000
00001000
00000000
00000000
00010000
00000000
00010000
,
00000000
00000010
00000000
00001000
00000000
00000010
00010000
00000000
,
00001000
00000000
00001000
00000000
00000000
00010000
00000000
00100000
,
00000000
01000000
00100000
00000000
10000000
00000000
01000000
00000000
,
00100000
00010000
00100000
00000000
00000000
00001000
00000000
00001000
,
00020000
00032000
00020000
00033000
,
00001000
00000000
00001000
00000000
00000000
00010000
00000000
00000010
,
00000000
00001000
00000000
00000010
00000000
00000100
00000010
00000000
,
00001000
00000000
00000100
00000000
00000000
00000010
00000000
00000001
,
00000000
00001000
00000000
00000010
00000000
00010000
00001000
00000000
,
00010000
00000000
00000000
00100000
00000000
10000000
00000000
00000000
,
01000000
00000000
00000000
00010000
00000000
00001000
00000000
00000000
,
00010000
00001000
00010000
00000000
00001000
00010000
00002000
00000000
,
02000000
00003000
03000000
00000000
,
10010000
10000000
01000000
01000000
,
00010000
00000000
00100000
00000000
00001000
00010000
00000100
00000000
,
00001001
00001000
00000100
00000100
,
00000001
00000000
00000010
00000000
00000100
00010000
00001000
00000000
,
00011000
00010010
00022000
00033000
,
00011000
00101000
00022000
00033000
,
00011000
00001000
01001000
01000000
,
01100000
10010000
02200000
03300000
,
10000000
00100000
00010000
00001000
,
00010000
00000000
01000000
00000000
00100000
00010000
00100000
00000000
,
01000000
10000000
00100000
00010000
,
00001000
00000000
00010000
00000000
00000100
00001000
00000001
00000000
,
00000100
00001000
00010000
00001000
,
00000010
00000000
00001000
00000000
00010000
00001000
00010000
00000000
,
00001000
01000000
00010000
10000000
,
01000000
00100000
01000000
00000000
00100000
01000000
00100000
00000000
,
00001000
00000000
00010000
00000000
00001000
00000000
00000000
00002000
,
00000000
00000000
00013000
00100000
,
01000000
00000000
00100000
00000000
01000000
00000000
00000000
00010000
,
00000000
00100000
01000000
00000000
,
10000000
00000000
00100000
00000000
00010000
00000000
00000000
00002000
,
00000000
00000000
00013000
00100000
,
00010000
00001000
00000100
00001000
,
00000100
00000001
00001001
00000000
,
00001001
00000001
00000100
00001000
,
00010000
00100000
01000000
00010000
,
10000000
01000000
00100000
00001000
,
00010000
00001000
00010000
00000000
00001000
00010000
00001000
00000000
,
00010000
00001000
00000100
00000001
,
00000010
00000100
00001000
00000001
,
00001100
00000000
00000001
00000100
,
00000000
00000100
00000100
00001100
,
00001001
00000000
00000001
00000000
00000100
00000000
00000000
00001000
,
00000000
00010000
00001000
01000000
,
00010000
00000000
00100000
00000000
01000000
00000000
00000000
10000000
,
00000000
00100000
00001000
00000010
,
00000100
00000000
00000001
00000000
00001000
00000000
00000000
00000010
,
00000000
00100000
00001000
00010000
,
00001000
00010000
01010000
00000000
,
10000000
01000000
01100000
00000000
,
00010000
00100000
10000000
00100000
,
00001000
00000000
00010000
00000000
00000010
00001000
00000010
00000000
,
00000100
00000001
00000100
00001000
,
00010000
00000000
00100000
00000000
10000000
00010000
10000000
00000000
,
01000000
00100000
01000000
00000000
00100000
00001000
00100000
00000000
,
00001000
00010000
00001000
00000000
00010000
00000010
00010000
00000000
,
00000010
00001000
00000010
00000000
00000100
00000001
00000100
00000000
,
00000110
00000000
00000000
00011000
00000000
00000000
02200000
00000000
,
00000000
00000000
00000000
00000000
,
00000000
00000000
00000000
00000000
,
03300000
00000000
00000000
00000000
;

//--------------- dance-double - Fred-104 ----------------
#NOTEDATA:;
#STEPSTYPE:dance-double;
#DESCRIPTION:Fred-104;
#DIFFICULTY:Medium;
#METER:15;
#CREDIT:Fred-104;
#NOTES:
00000000
00000000
00000000
00000000
,
00000000
00000000
00000000
00000000
,
00000000
00000000
00000000
00000000
,
00000000
00000000
00000000
00000000
,
00000000
00000000
00000000
00000000
,
00000000
00000000
00000000
00000000
,
00000000
00000000
00000000
00000000
,
00000000
00000000
00000000
00000000
,
00000000
00000000
00000000
00000000
,
00000000
00000000
00000000
00000000
,
00001000
00010000
00001000
00000000
00100000
00010000
00000000
01000000
,
00100000
00000000
10000000
01000000
00010000
00000000
00011000
00000000
,
00001000
00010000
00001000
00000000
01000000
00010000
00000000
00100000
,
01000000
00000000
10000000
00100000
01000000
00100000
10000000
00000000
,
01000000
00100000
00010000
00000000
00100000
00001000
00000000
00010000
,
00001000
00000000
00000100
00000001
00000000
00001000
00000100
00000000
,
00000010
00000001
00000010
00000001
00000100
00001000
00000100
00001000
,
00010000
00100000
00010000
00100000
10000000
00010000
00100000
00000000
,
00101000
00000000
00011000
00000000
00010010
00000000
00010000
00001000
,
00000000
00011000
00000000
00010100
00000000
00001000
00000001
00000000
,
00000110
00000000
00000110
00000000
00001000
00000001
00000000
00000101
,
00000000
00001100
00000000
00011000
00000000
01001000
00000000
00001000
,
00010000
00000000
00011000
00000000
00001000
00010000
00001000
00010000
,
01000000
00100000
00000000
00110000
00000000
10000000
00010000
00000000
,
01100000
00000000
10010000
00000000
10000000
01000000
00000000
01000000
,
00010000
00001000
00010000
00001000
00010000
00000000
00000000
00000000
,
00011000
00000000
00011000
00000000
00010000
00001000
00000000
00000100
,
00000000
00000001
00000000
00001000
00000100
00000010
00000001
00000000
,
00000011
00000000
00001010
00000000
00000011
00000000
00000001
00000100
,
00000000
00001000
00010000
00001000
01000000
00001000
00010000
00000000
,
00001000
00010000
00000000
00100000
00000000
10000000
00000000
10000000
,
01000000
00100000
00000000
00001000
00000000
00001000
00010000
00000010
,
00001000
00000010
00001000
00000010
00001000
00000010
00000000
00001001
,
00000000
00000100
00022000
00033000
,
00010000
00001000
00010000
00000000
00001000
00000010
00000000
00001000
,
00010000
00000000
00001000
00100000
00001000
00010000
00001000
00000000
,
00010000
00001000
00010000
00000000
00001000
00000100
00000000
00001000
,
00010000
00000000
00001000
01000000
00001000
00010000
00001000
00000000
,
00010000
00001000
00010000
00000000
00001000
00000010
00000000
00000001
,
00001000
00000000
00000100
00000010
00000001
00001000
00000010
00000000
,
00000110
00000000
00000110
00000000
00000110
00000000
00000100
00000100
,
00000001
00000000
00000010
00000000
00000100
00010000
00001000
00000000
,
00010000
00001000
01000000
00000000
00010000
00100000
00000000
01000000
,
10000000
00000000
00100000
00010000
00001000
00000000
00011000
00000000
,
00010000
00000100
00001000
00000000
00000100
00000010
00000000
00000001
,
00001000
00000000
00000010
00000100
00001000
00010000
00001000
00000000
,
01000000
00001000
00010000
00001000
01000000
00001000
00010000
00000000
,
00001000
00010000
00001000
00100000
00001000
00010000
00001000
00000000
,
00010000
00001000
00000010
00000100
00000010
00000001
00001000
00000020
,
00000200
00000030
00000000
00000300
,
00000001
00000000
00000000
00000100
00000000
00000000
00001000
00000000
,
00010000
00001000
00022000
00033000
,
00101000
00000000
00101000
00000000
00001000
00100000
00000000
00010000
,
00000000
10000000
00000000
00100000
00010000
00001000
00010000
00000000
,
00011000
00000000
00011000
00000000
00010000
00000100
00001000
00000100
,
00000000
00000010
00000000
00000001
00000000
00001000
00000010
00000000
,
00000110
00000000
00000110
00000000
00000001
00000100
00001000
00010000
,
00002000
02003000
00020000
03030000
,
10000000
00000000
10000000
00000000
01000000
00010000
01000000
00010000
,
00000000
00010000
00000000
00001000
00000100
00000001
00001000
00000000
,
00000001
00000000
00000001
00000000
00000010
00001000
00000010
00001000
,
00000000
00001000
00000000
00010000
00100000
10000000
00010000
00000000
,
10000000
01000000
00000000
00010000
00000000
00001000
00000000
00010000
,
00000100
00001000
00000000
00000001
00000000
00000010
00000100
00010000
,
00001000
00010000
00001000
00010000
01000000
10000000
01000000
20000000
,
00020000
30000000
00030000
00000000
,
10010000
00000000
10010000
00000000
10010000
00000000
01000000
01000000
,
00010000
00000000
10000000
00000000
01000000
00100000
00001000
00000000
,
00011000
00000000
00010100
00000000
00001001
00000000
00000100
00000100
,
00000001
00000000
00000010
00000100
00001000
00000100
00010000
00000000
,
00011000
00001000
00022000
00033000
,
01001000
00001000
00202000
00303000
,
00011000
00001000
00010000
00100000
,
10000000
01000000
20020000
30030000
,
10000000
01000000
00100000
00000000
00001000
00010000
00000000
00100000
,
00010000
00000000
00001000
00010000
00000010
00000000
00001010
00000000
,
00001000
00000100
00000010
00000000
00000001
00001000
00000000
00000010
,
00000100
00000000
00001000
00010000
00000100
00010000
00001000
00000000
,
00010000
00001000
01000000
00000000
00010000
00100000
00000000
01000000
,
10000000
00000000
00010000
01000000
00100000
10000000
00010000
00000000
,
10000000
01000000
00010000
00000000
00001000
00010000
00001000
00000000
,
00010000
00000100
00010000
00000100
00010000
00000100
00000010
00000000
,
00000001
00000000
00000001
00000000
00001000
00000010
00000000
00000020
,
00000000
00000000
00010030
00001000
,
00010000
00000000
00100000
00000000
01000000
00010000
00000000
00020000
,
00000000
00000000
00130000
00000000
01000000
00000000
10000000
00010000
,
10000000
00000000
00100000
00000000
00010000
00001000
00000000
00002000
,
00000000
00000000
00013000
00000100
,
00001000
00000000
00000001
00000000
00000100
00001000
00000100
00001000
,
00010000
00000000
00010000
00000000
00010000
00000000
00001000
01000000
,
00001000
00000000
00010000
00000000
00100000
01000000
00000000
10000000
,
00000000
01000000
00010000
00000000
10000000
00000000
01000000
00000000
,
00100000
00000000
00001000
00000000
00010000
00001000
00000000
00001000
,
00010000
00001000
00010000
00000000
00000010
00001000
00000010
00000000
,
00001000
00000100
00000010
00000001
00000010
00000100
00001000
00000000
,
00000001
00000100
00000010
00001000
00000010
00000100
00000001
00000000
,
00001001
00000000
00000101
00001001
,
00000000
00010000
00001001
00010000
,
00011000
00000000
00001000
00000000
01000000
00010000
00000000
00100000
,
00000000
01000000
10000000
00000000
00010000
00000000
01000000
00100000
,
00010000
00000000
00001000
00000000
00010000
00000100
00000000
00000010
,
00000000
00000001
00001000
00000000
00000010
00000000
00000100
00000001
,
00000100
00000000
00000001
00000000
00000010
00000100
00000000
00010000
,
00000000
00001000
00010000
00000000
00001000
00000000
01000000
00010000
,
00100000
00000000
01000000
00000000
10000000
00010000
01000000
00010000
,
10000000
00000000
01000000
00000000
01100000
00000000
00010000
10000000
,
00010000
00000000
10000000
00000000
01000000
00010000
01000000
00010000
,
00000000
00001000
00010000
00000000
00000100
00000000
00000010
00000001
,
00001000
00000000
00000001
00000000
00000010
00001000
00000010
00001000
,
00000000
00010000
00001000
00000000
01000000
00000000
00001000
00000000
,
00010000
00001000
00010000
00001000
01000000
00001000
00010000
00000000
,
00001000
00010000
00001000
00010000
00000100
00010000
00001000
00000000
,
00010000
01000000
00100000
01000000
10000000
00010000
01000000
00100000
,
10000000
00000000
00000000
00110000
00000000
00000000
20020000
00000000
,
00000000
00000000
00000000
00000000
,
00000000
00000000
00000000
00000000
,
30030000
00000000
00000000
00000000
;

//--------------- dance-double - Fred-104 ----------------
#NOTEDATA:;
#STEPSTYPE:dance-double;
#DESCRIPTION:Fred-104;
#DIFFICULTY:Hard;
#METER:17;
#CREDIT:Fred-104;
#NOTES:
00000000
00000000
00000000
00000000
,
00000000
00000000
00000000
00000000
,
00000000
00000000
00000000
00000000
,
00000000
00000000
00000000
00000000
,
00000000
00000000
00000000
00000000
,
00000000
00000000
00000000
00000000
,
00000000
00000000
00000000
00000000
,
00000000
00000000
00000000
00000000
,
00000000
00000000
00000000
00000000
,
00000000
00000000
00000000
00000000
,
00010000
00001000
00010000
00000010
00001000
00000010
00010000
00001000
,
00100000
00001000
00010000
00000100
00001000
00000000
00001001
00000000
,
00000001
00000100
00000010
00001000
00000001
00000010
00000100
00010000
,
00001000
01000000
00010000
10000000
01000000
00100000
00110000
00000000
,
00010000
10000000
01000000
10000000
00010000
01000000
00001000
00010000
,
00000100
00001000
00000001
00000100
00000010
00001000
00000001
00001000
,
00000001
00000100
00001000
00010000
00100000
10000000
00010000
00100000
,
01000000
10000000
00010000
01000000
00010000
10000000
10010000
00000000
,
00010000
10000000
00010000
10000000
00100000
00010000
00001000
00000100
,
00000000
00000100
00000000
00000100
00000001
00001000
00000100
00000000
,
00000110
00000000
00000011
00000000
00000001
00000100
00000000
00001100
,
00000000
00011000
00000000
00110000
00000000
10100000
00000000
00010000
,
10000000
01000000
00100000
00000000
00001000
00010000
00001000
01000000
,
00001000
00000100
00000000
00000100
00000000
00000100
00000010
00001000
,
00000001
00000000
00001001
00000000
00000001
00000010
00000000
00000010
,
00001000
00000010
00000001
00000100
00001000
00010000
00001000
00000000
,
00010000
00001000
01000000
00010000
01000000
00001000
00010000
00000100
,
00010000
00000100
00001000
00000001
00000100
00000010
00000100
00000000
,
00000001
00001000
00000010
00010000
00001000
00100000
00001000
00100000
,
00010000
00100000
01000000
10000000
00010000
01000000
00100000
00000000
,
10000000
01000000
00000000
00010000
00000000
00001000
00000000
00000010
,
00000001
00000100
00000000
00001000
00000000
00010000
00100000
10000000
,
00010000
00100000
01000000
10000000
00010000
01000000
00100000
10000000
,
00000000
11000000
00110000
00101000
,
00001000
00010000
00010000
00000100
00010000
00010000
00001000
00010000
,
00010000
00000010
00010000
00010000
00001000
00000000
00011000
00000000
,
00010000
00001000
00001000
01000000
00001000
00001000
00010000
00001000
,
00001000
00100000
00001000
00001000
00010000
00001000
00010000
00000000
,
00001000
00010000
00010000
00100000
00010000
00010000
00001000
00010000
,
00010000
01000000
00010000
00010000
00001000
00010000
00001000
00000000
,
00011000
00000000
00010010
00000000
00001001
00000000
00000100
00000100
,
00000001
00000000
00001000
00000100
00000010
00000001
00001000
00000000
,
00000001
00000010
00000010
00000100
00010000
00010000
00001000
01000000
,
01000000
00010000
00100000
00100000
01100000
00000000
10010000
00000000
,
10000000
01000000
01000000
00100000
00001000
00001000
00010000
00000100
,
00000100
00000010
00000001
00000001
00001000
00000010
00001000
00000000
,
00000001
00000100
00001000
00010000
00001000
00010000
00011000
00000000
,
00001000
00010000
00100000
10000000
00010000
10000000
10010000
00000000
,
10000000
01000000
10000000
00000000
01000000
00000000
00100000
00010000
00100000
00000000
00001000
00000000
00010000
00000010
00010000
00000000
,
00001000
00022000
00000000
00033000
,
00001000
00010000
00000010
00001000
00000001
00000010
00000100
00000000
,
00001000
00000000
00000000
00000000
00000100
00000000
00000000
00000100
00000010
00000000
00000000
00000000
00000011
00000000
00000000
00000000
,
00000110
00000000
00001001
00000000
00000001
00000100
00000010
00000100
,
00001000
00010000
00001000
01000000
00010000
00100000
01000000
00000000
,
11000000
00000000
10010000
00000000
00010000
01000000
00100000
10000000
,
00010000
00100000
01000000
00100000
00001000
00010000
00000010
00000000
,
00010000
00001000
00010000
00000100
00001000
00000100
00000010
00000100
,
00000010
00000001
00001000
00000010
00000100
00001000
00010000
00000000
,
00011000
00000000
01001000
00000000
00001000
00010000
00001000
01000000
,
00010000
00100000
01000000
10000000
00010000
10000000
00100000
00000000
,
01100000
00000000
01010000
00000000
10010000
00000000
10000000
01000000
,
00100000
00001000
00010000
00000100
00000010
00000001
00002000
00003000
,
00000001
00000100
00000000
00001000
00000000
00010000
00000000
00100000
,
10000000
01000000
00000000
00010000
00000000
00001000
00000010
00000001
,
00001000
00000010
00001000
00000000
00000001
00000000
00000010
00000100
00000010
00000000
00000100
00000000
00010000
00001000
00010000
00000000
,
00002000
00023000
00002000
00033000
,
00011000
00000000
01001000
00000000
01010000
00000000
01000000
01000000
,
00010000
00000000
10000000
01000000
00100000
00100000
00001000
00000000
,
00010010
00000000
00001010
00000000
00001001
00000000
00000100
00000100
,
00000001
00000000
00001000
00000001
00000100
00000100
00000010
00000000
,
00001010
00010010
00011000
00001000
,
01010000
11000000
01100000
00010000
,
11000000
01100000
00110000
00101000
,
00010010
00001010
00002002
00003003
,
00000001
00000010
00000100
00001000
00000010
00000100
00001000
00010000
,
00100000
01000000
00010000
10000000
01000000
00000000
01100000
00000000
,
00010000
01000000
00100000
10000000
01000000
00100000
00001000
00010000
,
00000100
00000010
00000001
00000100
00000010
00000010
00000010
00000000
,
00001000
00000100
00000010
00000001
00000100
00000010
00001000
00000100
,
00000010
00001000
00010000
01000000
00100000
00010000
10000000
00000000
,
00010000
00100000
00001000
00010000
00000010
00001000
00000001
00000010
,
00000100
00010000
00001000
00100000
00010000
10000000
00010000
00000000
,
00100000
00000000
01000000
00000000
10000000
00100000
00000000
00020000
,
00000000
00000000
00031000
00000010
,
00000100
00000000
00001000
00000000
00000001
00000100
00000000
00002000
,
00000000
00000000
00013000
00000000
00001000
00000000
00000010
00001000
,
00010000
00000000
00001000
00000000
01000000
00010000
00000000
00200000
,
00000000
00000000
01300000
10000000
,
00100000
00000000
00010000
00000000
00001000
00000010
00000001
00001000
,
00000010
00000000
00000100
00000000
00000110
00000000
00000001
00001000
,
00000100
00000000
00000110
00000000
00000001
00000010
00000100
00000010
,
00000000
00001000
00010000
00000000
00100000
00000000
01000000
00010000
,
10000000
00000000
01000000
00000000
00100000
00001000
00100000
00001000
,
00010000
00001000
00010000
00001000
00000010
00000100
00000010
00000001
,
00001000
00000000
00000100
00000000
00000010
00000000
00000001
00000000
00001000
00000001
00001000
00000001
00001000
00000000
00000000
00000000
,
00000001
00000000
00000100
00000000
00001000
00000000
00010000
00000000
00001000
00010000
00001000
00010000
00001000
00000000
00000000
00000000
,
00011000
00000000
00000000
00000000
00000100
00001000
00000100
00001000
,
00000000
00000000
00000001
00000010
00000001
00000010
00000001
00000010
,
00000100
00000000
00001000
00000000
00000001
00000100
00000001
00001000
,
00000100
00010000
00001000
01000000
00010000
00000000
01000000
00001000
,
00010000
00000000
00100000
00000000
01000000
00010000
10000000
01000000
,
10000000
00010000
00100000
01000000
00100000
00000000
00001000
00010000
,
00001000
00000000
00010000
00000000
00001000
00100000
00010000
00100000
,
01000000
10000000
00010000
01000000
00010000
10000000
01000000
00100000
,
00001000
00000000
00010000
00000000
00001000
00000100
00000010
00001000
,
00000001
00000000
00000100
00000000
00000110
00000000
00001000
00000001
,
00000010
00000000
00000110
00000000
00001000
00000001
00000100
00001000
,
00010000
00001000
01000000
00001000
00010000
00100000
00010000
00001000
,
01000000
00000000
01010000
00000000
00010000
10000000
01000000
00100000
,
00010000
00000000
00000000
00000000
00000000
00000000
00000000
00000000
01000000
00000000
00000000
00000000
00000000
00000000
00000000
00000000
00001000
00000000
00000000
00000000
00000000
00000000
00000000
00000000
00010000
00000000
00000000
00000000
00000000
00000000
00000000
00000000
00001000
00000000
00000000
00000000
00000000
00000000
00000000
00000000
00000100
00000000
00000000
00000000
00000000
00000000
00000000
00000000
00000020
00000030
00000000
00000000
00000000
00000000
00000000
00000000
00000020
00000030
00000000
00000000
00000000
00000000
00000000
00000000
,
00000001
00000100
00001000
00010000
00100000
10000000
10010000
00000000
,
10000000
01000000
00010000
00001000
00000010
00000001
00001001
00000000
,
00000001
00000000
00000010
00000000
00000100
00000000
00001000
00000000
00000100
00000000
00010000
00000000
00001000
00010000
00001000
00010000
,
00001000
00010000
00100000
10000000
01000000
00010000
00022000
00000000
,
00000000
00000000
00000000
00000000
,
00000000
00000000
00000000
00000000
,
00033000
00000000
00000000
00000000
;

//--------------- dance-double - Fred-104† ----------------
#NOTEDATA:;
#STEPSTYPE:dance-double;
#DESCRIPTION:Fred-104†;
#DIFFICULTY:Challenge;
#METER:18;
#CREDIT:Fred-104†;
#NOTES:
00000000
00000000
00000000
00000000
,
00000000
00000000
00000000
00000000
,
00000000
00000000
00000000
00000000
,
00000000
00000000
00000000
00000000
,
00000000
00000000
00000000
00000000
,
00000000
00000000
00000000
00000000
,
00000000
00000000
00000000
00000000
,
00000000
00000000
00000000
00000000
,
00000000
00000000
00000000
00000000
,
00000000
00000000
00000000
00000000
,
00010000
00001000
00010000
00000000
00001000
00000000
00000100
00000010
00000100
00000000
00000001
00000000
00001000
00000100
00001000
00000000
,
00000001
00000000
00000100
00000010
00000100
00000000
00001000
00000000
00010000
00000000
00000000
00000000
00011000
00000000
00000000
00000000
,
00001000
00100000
00001000
00000000
00100000
00000000
00010000
10000000
00010000
00000000
00100000
00000000
01000000
10000000
01000000
00000000
,
00100000
00000000
00001000
00010000
00001000
00000000
01000000
00000000
00001000
00000000
00001000
00000000
00011000
00000000
00000000
00000000
,
00010000
00001000
00010000
00000000
00000100
00000000
00000010
00000001
00000010
00000000
00000100
00000000
00001000
00000100
00001000
00000000
,
00000001
00000000
00000100
00001000
00000100
00000000
00001000
00000000
00010000
00000000
00010000
00000000
00001000
00000000
00001000
00000000
,
00100000
00010000
00100000
00010000
00100000
00000000
00001000
00010000
00001000
00010000
00001000
00000000
00010000
00000000
00000100
00000000
,
00010000
00001000
00010000
00000010
00001000
00001000
00001001
00000000
,
00001100
00000000
00000011
00000000
00001100
00000000
00000001
00000100
,
00000000
00000110
00000000
00000001
00000100
00001000
00010000
00000000
,
00011000
00000000
01001000
00000000
01000000
01100000
00000000
10100000
,
00000000
01010000
00000000
11000000
00000000
00110000
00000000
00100000
,
00101000
00000000
00011000
00000000
00010000
00000010
00010000
00001000
,
00010000
00011000
00000000
00101000
00000000
00001000
00010000
01000000
,
01100000
00000000
10010000
00000000
10000000
01000000
00000000
01000000
,
00010000
01000000
10000000
00100000
00010000
00001000
00010000
00000000
,
00001000
01000000
00010000
00100000
00001000
00010000
00001000
00000100
,
00000010
00000001
00000010
00001000
00000100
00000010
00001000
00010000
,
00001000
00010000
01000000
00100000
10000000
00100000
00010000
10000000
,
00100000
00010000
00001000
00010000
01000000
00010000
00001000
00000000
,
00010000
00001000
00000000
00000010
00000000
00000001
00000000
00000100
,
00001000
00000000
00010000
00000000
00000000
00000000
00100000
00000000
00000000
00000000
10000000
00000000
01000000
00100000
01000000
00100000
,
01000000
01000000
00100000
00100000
00010000
00010000
10000000
10010000
,
00000000
01001000
00011000
MMMMMMMM
,
00010000
00000000
00000000
00000000
00000000
00000000
00000000
00000000
00002000
00003000
00000000
00000000
00000000
00000000
00000000
00000000
00002000
00003000
00000000
00000000
00000000
00000000
00000000
00000000
00000010
00000000
00000000
00000000
00000000
00000000
00000000
00000000
00002000
00003000
00000000
00000000
00000000
00000000
00000000
00000000
00002000
00003000
00000000
00000000
00000000
00000000
00000000
00000000
00010000
00000000
00000000
00000000
00000000
00000000
00000000
00000000
00002000
00003000
00000000
00000000
00000000
00000000
00000000
00000000
,
00002000
00003000
00000000
00000000
00000000
00000000
00000000
00000000
00000100
00000000
00000000
00000000
00000000
00000000
00000000
00000000
00002000
00003000
00000000
00000000
00000000
00000000
00000000
00000000
00002000
00003000
00000000
00000000
00000000
00000000
00000000
00000000
00010000
00000000
00000000
00000000
00000000
00000000
00000000
00000000
00000000
00000000
00000000
00000000
00000000
00000000
00000000
00000000
00011000
00000000
00000000
00000000
00000000
00000000
00000000
00000000
00000000
00000000
00000000
00000000
00000000
00000000
00000000
00000000
,
00001000
00000000
00000000
00000000
00000000
00000000
00000000
00000000
00020000
00030000
00000000
00000000
00000000
00000000
00000000
00000000
00020000
00030000
00000000
00000000
00000000
00000000
00000000
00000000
01000000
00000000
00000000
00000000
00000000
00000000
00000000
00000000
00020000
00030000
00000000
00000000
00000000
00000000
00000000
00000000
00020000
00030000
00000000
00000000
00000000
00000000
00000000
00000000
00001000
00000000
00000000
00000000
00000000
00000000
00000000
00000000
00020000
00030000
00000000
00000000
00000000
00000000
00000000
00000000
,
00020000
00030000
00000000
00000000
00000000
00000000
00000000
00000000
00100000
00000000
00000000
00000000
00000000
00000000
00000000
00000000
00020000
00030000
00000000
00000000
00000000
00000000
00000000
00000000
00020000
00030000
00000000
00000000
00000000
00000000
00000000
00000000
00001000
00000000
00000000
00000000
00000000
00000000
00000000
00000000
00001000
00000000
00000000
00000000
00000000
00000000
00000000
00000000
00011000
00000000
00000000
00000000
00000000
00000000
00000000
00000000
00000000
00000000
00000000
00000000
00000000
00000000
00000000
00000000
,
00010000
00000000
00000000
00000000
00000000
00000000
00000000
00000000
00002000
00003000
00000000
00000000
00000000
00000000
00000000
00000000
00002000
00003000
00000000
00000000
00000000
00000000
00000000
00000000
00000010
00000000
00000000
00000000
00000000
00000000
00000000
00000000
00002000
00003000
00000000
00000000
00000000
00000000
00000000
00000000
00002000
00003000
00000000
00000000
00000000
00000000
00000000
00000000
01000000
00000000
00000000
00000000
00000000
00000000
00000000
00000000
00020000
00030000
00000000
00000000
00000000
00000000
00000000
00000000
,
00020000
00030000
00000000
00000000
00000000
00000000
00000000
00000000
00000100
00000000
00000000
00000000
00000000
00000000
00000000
00000000
00002000
00003000
00000000
00000000
00000000
00000000
00000000
00000000
00002000
00003000
00000000
00000000
00000000
00000000
00000000
00000000
00010000
00000000
00000000
00000000
00000000
00000000
00000000
00000000
00010000
00000000
00000000
00000000
00000000
00000000
00000000
00000000
00011000
00000000
00000000
00000000
00000000
00000000
00000000
00000000
00000000
00000000
00000000
00000000
00000000
00000000
00000000
00000000
,
00010100
00000000
00001001
00000000
00000101
00000000
00000100
00000100
,
00000001
00000000
00000100
00001000
00010000
00100000
10000000
00000000
,
00010000
01000000
00100000
10000000
01000000
00100000
00001000
00010000
,
00000100
00000010
00000001
00000100
00001000
00000000
00011000
00000000
,
00010000
00001000
00000100
00000001
00001000
00000100
00000010
00001000
,
00010000
01000000
00100000
00001000
00010000
00010000
00011000
00000000
,
00001000
00010000
00100000
10000000
01000000
00010000
00011000
00000000
,
00010000
00001000
00000010
00000001
00000100
00001000
00011000
00000000
,
00001000
01000000
00001000
01000000
00001000
00000000
00010000
00000100
00010000
00000100
00010000
00000000
00001000
00010000
00001000
00010000
,
00001000
MMMM0000
0000MMMM
MMMMMMMM
,
00001000
00000000
00010000
00100000
00000000
10000000
01000000
00000000
,
1000MMMM
00000000
00000000
00000000
00000000
00000000
00000000
00000000
0100MMMM
00000000
00000000
00000000
00000000
00000000
01000000
0000MMMM
0010MMMM
00000000
00000000
00000000
00000000
00000000
00000000
00000000
00110000
00000000
00000000
00000000
00000000
00000000
00000000
00000000
,
10000000
00100000
01000000
00100000
00010000
00001000
01000000
00001000
,
00010000
00001000
00000100
00000010
00001000
00000001
00000010
00000000
,
00000001
00000100
00000010
00000100
00001000
00010000
00001000
01000000
,
00100000
00010000
00100000
10000000
01000000
00100000
00001000
00000000
,
00010000
00001000
00000010
00001000
00010000
00100000
01000000
00001000
,
00010000
00001000
00000010
00000100
00001000
00000001
00000100
00000010
,
00000110
00000000
00001001
00000000
00000001
00000100
00001000
00010000
,
00100000
01000000
10000000
00010000
00100000
10000000
00010000
00000000
,
01100000
00000000
10010000
00000000
10000000
00100000
00010000
00001000
,
00000100
00000010
00000001
00001000
00000100
00000010
00002000
00003000
,
00000001
00000100
00000000
00001000
00000000
00010000
00000000
00100000
,
10000000
01000000
00000000
00010000
00000000
00001000
00000010
00000001
,
00001000
00000001
00001000
00000001
00001000
00000000
00000010
00000100
00000010
00000100
00000010
00000000
00001000
00000001
00001000
00000001
,
00001000
MMMMMMMM
MMMMMMMM
MMMMMMMM
,
00010010
00000000
00001010
00000000
00001001
00000000
00000100
00000100
,
00000001
00000000
00000010
00000100
00001100
00000000
00010100
00000000
,
00011000
00000000
01010000
00000000
11000000
00000000
01000000
01000000
,
00010000
00000000
10000000
00100000
00010000
00001000
00011000
00000000
,
00011000
00000000
00001010
00000000
00000022
00000033
MMMMMMMM
00000000
,
00000101
00000000
00001100
00000000
00022000
00033000
MMMMMMMM
00000000
,
00110000
10100000
11000000
01010000
,
00011000
00000000
00010010
00000000
00022000
00033000
MMMMMMMM
00000000
,
00011000
00001000
00010000
00010010
00000010
00001000
00001001
00000001
,
00000100
00000110
00000010
00001000
00001100
00000000
00010100
00000000
,
00011000
00001000
00100000
00110000
00010000
10000000
10100000
00100000
,
01000000
01010000
00010000
10000000
01000000
01000000
01100000
00000000
,
00010000
10000000
11000000
01000000
00100000
00001000
00011000
00010000
,
00000100
00001000
00001001
00000001
00000100
00000100
00000110
00000000
,
00000001
00000100
00001000
00010000
00100000
10000000
10000000
01000000
,
00010000
00001000
00000010
00000001
00001000
00001000
00001001
00000000
,
00000001
00000000
00000100
00000000
00001000
00010000
00000000
00002000
,
00000000
00000000
01003000
00001000
,
00010000
00000000
00100000
00000000
10000000
01000000
00000000
00200000
,
00000000
00000000
00301000
00000000
00000010
00000000
00000100
00001000
,
00000001
00000000
00000100
00000000
00001000
00010000
00000000
00002000
,
00000000
00000000
01003000
00001000
,
00000100
00000000
00000001
00000000
00001000
00000100
00000010
00000001
,
00000100
00000000
00001000
00000000
00011000
00000000
00010000
00001000
,
00011000
00000000
01001000
00000000
00001000
00010000
00100000
10000000
,
01000000
00010000
01000000
10000000
01000000
00100000
00001000
00000000
,
00011000
00000000
00010100
00000000
00001000
00010000
00000100
00001000
,
00000010
00000010
00001000
00001000
00000001
00000001
00001000
00001000
,
00000001
00000000
00000000
00000000
00000100
00000000
00000000
00000000
00000010
00000000
00000000
00000000
00000100
00000000
00000000
00000000
00001000
00000000
00000000
00000000
00010000
00000000
00000000
00000000
00100000
00000000
00000000
01000000
00000000
00000000
00100000
00000000
00000000
01000000
00000000
00000000
00010000
00000000
00000000
00000000
00000000
00000000
00000000
00000000
00000000
00000000
00000000
00000000
,
10000000
00000000
00000000
00000000
01000000
00000000
00000000
00000000
00100000
00000000
00000000
00000000
00010000
00000000
00000000
00000000
00100000
00000000
00000000
00000000
00001000
00000000
00000000
00000000
00010000
00000000
00000000
00000010
00000000
00000000
00010000
00000000
00000000
00000010
00000000
00000000
00010000
00000000
00000000
00000000
00000000
00000000
00000000
00000000
00000000
00000000
00000000
00000000
,
00011000
00000000
00110000
11000000
,
00000000
00000000
01000000
01000000
01000000
01000000
01000000
01000000
,
11000000
10000000
00010000
01000000
00100000
10000000
00100000
00010000
,
00001000
00010000
01000000
00010000
00001000
00010000
00000010
00000010
,
00001000
00000100
00001000
00000001
00000010
00000100
00001000
00010000
,
00100000
01000000
10000000
00010000
01000000
00100000
01000000
01000000
,
01000000
00010000
00100000
01000000
00010000
00001000
00010000
00000010
,
00010000
00001000
00000010
00000100
00001000
00000001
00000100
00000010
,
00000110
00000000
00001000
00000000
00000001
00000010
00001000
00010000
,
00011000
00000000
00110000
00000000
10100000
00000000
00010000
10000000
,
00010000
00000000
00000000
00100000
00000000
00000000
01000000
00000000
00000000
10000000
00000000
00000000
00010000
00000000
01000000
00000000
00100000
00000000
10000000
00000000
00100000
00000000
01000000
00000000
,
00010000
00000000
00000000
10000000
00000000
00000000
01000000
00000000
00000000
00100000
00000000
00000000
00001000
00000000
00010000
00000000
00000010
00000000
00001000
00000000
00000000
00000100
00000000
00000000
,
00000010
00000000
00000000
00000100
00000000
00000000
00001000
00000000
00000000
00000001
00000000
00000000
00000100
00000000
00000010
00000000
00001000
00000000
00000010
00000000
00000100
00000000
00000001
00000000
,
00001000
00001000
00000100
00000100
00010000
00010000
00011000
00000000
,
00010000
00000000
00001000
00000000
00000100
00000000
00000001
00000000
00001000
00000001
00001000
00000001
00001000
00000000
00000000
00000000
,
00000001
00000000
00000010
00000000
00001000
00000000
00010000
00000000
00001000
00010000
00001000
00010000
00001000
00000000
00000000
00000000
,
00010000
00000000
00000000
00000000
00001000
00000000
00000000
00000000
00010000
00000000
00000000
00000000
00100000
00000000
00000000
00000000
01000000
00000000
00000000
00000000
00100000
00000000
00000000
00000000
10000000
00000000
00000000
00000000
00010000
00000000
00000000
00000000
00100000
00000000
00000000
00000000
00010000
00000000
00000000
10000000
00000000
00000000
00010000
00000000
00000000
10000000
00000000
00000000
,
00010000
00000000
MMMM0000
00011000
00000000
0000MMMM
00002002
00000000
,
00000000
00000000
00000000
00000000
,
00000000
00000000
00000000
00000000
,
00003003
00000000
00000000
00000000
;
