#TITLE:1116;
#ARTIST:BEMANI Sound Team "Dustup";
#ARTISTTRANSLIT:Dustup;
#GENRE:BREAKBEATS;
#BANNER:1116.png;
#BACKGROUND:1116-bg.png;
#CDTITLE:./CDTitles/jb festo.png;
#MUSIC:1116.ogg;
#SAMPLESTART:37.895;
#SAMPLELENGTH:15;
#BPMS:0=190;

//--------------- dance-single - Fred-104 ----------------
#NOTES:
     dance-single:
     Fred-104:
     Beginner:
     7:
     :
0000
0000
0000
0000
,
0000
0000
0000
0000
,
0000
0000
0000
0000
,
0000
0000
0000
0000
,
0000
0000
0000
0000
,
0000
0000
0000
0000
,
1000
0000
1001
0000
,
0001
0000
1001
0000
,
1000
0000
0110
0000
,
0001
0000
0110
0000
,
0001
0001
0100
0100
,
0010
0010
1000
0000
,
0010
1000
0001
1000
,
0100
0010
0100
0000
,
1000
0001
1000
0000
,
0001
1000
0001
0000
,
1000
0100
0010
0001
,
2002
0000
0000
3003
,
1001
0000
0000
0000
,
0000
0000
0000
0000
,
0000
0000
0000
0000
,
0000
0000
0000
0000
,
1000
0100
1000
0000
,
0001
0000
1000
0000
,
0001
0100
0001
0000
,
0010
0000
0100
0000
,
0010
0010
0001
0000
,
0100
0000
0010
0000
,
0100
0100
0001
0000
,
1000
1000
1000
1000
,
1000
0000
0001
0000
,
0100
0010
0100
0000
,
0010
0000
1000
0000
,
0001
0001
0100
0000
,
1000
0000
0100
0000
,
0001
1000
0010
0000
,
0001
0000
0010
0000
,
1000
0001
1000
0001
,
2000
0000
0000
3000
,
0200
0000
0000
0300
,
0020
0000
0000
0030
,
0002
0000
0000
0003
,
0200
0000
0000
0300
,
0020
0000
0000
0030
,
2000
0000
0000
3000
,
0002
0000
0000
0003
,
1000
0000
1100
0000
,
0001
0000
0101
0000
,
0001
0000
0011
0000
,
1000
0000
1010
0000
,
0001
0001
0001
1000
,
1000
1000
0010
0010
,
0010
0100
0100
0100
,
2002
0000
0000
3003
,
1000
0000
0010
0010
,
1000
0000
0010
0010
,
0100
0000
0001
0001
,
1000
0000
0001
0001
,
1000
0000
0010
0100
,
0010
0000
0100
0001
,
1000
0000
0001
1000
,
1001
0000
0000
0000
,
1000
0000
0100
0000
,
1000
1000
0001
0000
,
1000
0000
0010
0000
,
0100
0010
0100
0000
,
0001
0000
1000
0000
,
0010
0010
0100
0000
,
0001
0000
1000
0000
,
0100
0010
0001
0000
,
2002
0000
0000
0000
,
3003
0000
0000
0000
,
0220
0000
0000
0000
,
0330
0000
0000
0000
,
2002
0000
0000
0000
,
3003
0000
0000
0000
,
1000
0000
0001
0000
,
1000
0000
0001
0000
1000
0001
1000
0001
,
1000
0000
0001
0000
,
1000
1000
0100
0000
,
1000
0000
0001
0000
,
0100
0100
0010
0000
,
0100
0000
0001
0000
,
0100
0100
0010
0000
,
1000
1000
0001
0001
,
1000
0000
0100
0000
0010
0000
0001
1000
,
0001
0000
0000
0000
;

//--------------- dance-single - Fred-104 ----------------
#NOTES:
     dance-single:
     Fred-104:
     Easy:
     11:
     :
0000
0000
0000
0000
,
0000
0000
0000
0000
,
0000
0000
0000
0000
,
0000
0000
0000
0000
,
0000
0000
0000
0000
,
0000
0000
0000
0000
,
1000
1100
0010
0101
,
0010
1100
0001
0110
,
1000
0110
0001
1001
,
0100
0110
0001
1001
,
1000
0000
0000
0000
0010
0000
0000
0000
0100
0000
0000
0100
0000
0000
0001
0000
,
1000
0000
0001
0000
1000
0100
0001
0100
,
0010
0000
0000
0000
0001
0000
0000
0000
1000
0000
0000
1000
0000
0000
0010
0000
,
0100
0000
0001
0000
1000
0001
1000
0001
,
0010
0100
1000
0001
,
0100
0001
1000
0001
,
1000
0100
1000
0100
0010
0001
0010
0001
,
2000
0000
0000
3000
,
1001
0000
0000
0000
,
0000
0000
0000
0000
,
1000
0000
1000
0000
1000
0000
0001
0000
0001
0000
0001
0000
,
2000
0000
0002
3003
,
0001
0000
0100
0000
0001
0010
0001
0000
,
1000
0000
0010
0000
1000
0100
1000
0000
,
0001
0000
1000
0000
0100
0010
0100
0000
,
1000
0000
0001
0000
0100
0010
1000
0010
,
0100
0000
0001
0000
1000
0100
1000
0000
,
0001
0000
0010
0000
1000
0010
1000
0000
,
0010
0000
0001
0000
0100
0001
0100
0000
,
0010
0000
0100
0000
0001
1000
0001
1000
,
0001
0000
0000
0001
0000
0000
0001
0000
0000
0001
0000
0000
0001
0000
0000
0000
,
1000
0000
1001
0000
1000
0100
0001
0000
,
0100
0000
0000
0010
0000
0000
0100
0000
0000
0001
0000
0000
1000
0000
0000
0000
,
0001
0000
0110
0000
0001
1000
0100
0000
,
1000
0000
0010
0000
0100
0001
1000
0001
,
0010
0000
0100
0000
1000
0000
0001
1000
,
1000
0000
0100
0000
1000
0001
0100
0001
,
1000
0000
0000
0100
0000
0000
1000
0000
0000
0001
0000
0000
1001
0000
0000
0000
,
0002
0000
0100
0000
0103
0001
1000
0000
,
0001
0000
1000
0000
0010
1000
0001
1000
,
0200
0000
1000
0000
1300
0001
0010
0000
,
0100
0010
0100
0010
0100
0010
0200
0000
,
1300
0000
0110
0000
0001
0000
1000
0010
,
0001
0000
0010
0000
0100
0010
1000
0001
,
0010
0000
0100
0000
1100
0000
0001
1000
,
0001
1000
0001
1000
0010
0100
0002
0000
,
1003
0100
0010
0011
,
1000
0010
0100
0101
,
0001
0010
0100
1100
,
0001
0100
0010
1010
,
1000
1000
0100
0100
,
0001
0001
0010
0010
,
1000
0001
0010
0001
1000
0010
0100
0001
,
2000
0000
0000
3000
,
1001
1000
0010
2000
,
3001
0010
0010
0002
,
0203
0310
0010
2000
,
3100
0001
0100
1000
,
0020
0130
0100
0001
,
1000
0000
0001
1000
0001
0000
1000
0000
,
0200
0301
0100
0010
,
0001
0011
2002
3003
,
0001
1000
0010
0100
,
0001
1000
2002
3003
,
1000
1000
0010
0001
,
0100
0100
1000
0000
,
1000
0000
0001
0001
,
0010
0000
0000
0000
0100
0000
0000
0000
2002
0000
0000
0000
0000
0000
0000
3003
,
1000
1000
0001
0001
,
1000
0000
0100
0000
0001
0000
1000
0000
0010
0000
0001
0000
,
2000
0000
3200
0000
,
0310
0000
0001
1000
,
0002
0000
0203
0000
,
0310
1000
0001
1000
,
0001
0000
0010
0000
1000
0000
0001
0000
0100
0000
1000
0000
,
0001
0000
0100
0000
0110
0000
0010
0000
0000
0100
0000
0000
,
0001
1000
0001
0000
0100
0010
0100
0000
,
0001
1000
0100
1000
0001
1000
0100
0000
,
0010
0000
0001
0000
1000
0001
0010
0000
,
0100
0000
1000
0000
0001
0100
0001
0000
,
1000
0000
0001
0000
0100
0010
1000
0000
,
0001
0000
0010
0000
0100
1000
0100
0000
,
1001
0000
1000
0000
0100
0001
0100
0001
,
0100
0000
0010
0000
0001
1000
0010
0000
,
0100
0001
1000
0000
0100
0010
0001
0000
,
0020
0000
0230
0000
1300
0000
0001
1000
,
1001
0000
0000
0000
;

//--------------- dance-single - Fred-104 ----------------
#NOTES:
     dance-single:
     Fred-104:
     Medium:
     16:
     :
0000
0000
0000
0000
,
0000
0000
0000
0000
,
0000
0000
0000
0000
,
0000
0000
0000
0000
,
0000
0000
0000
0000
,
0000
0000
0000
0000
,
0002
1003
0010
0110
,
2000
3100
0010
0011
,
2000
3001
0100
0110
,
0002
1003
0100
0110
,
1001
0000
0000
0001
1000
0000
0100
0000
0010
0100
0000
0010
0100
0000
1000
0000
,
0010
0000
0000
0010
0100
0000
0001
0000
1000
0100
0000
1000
0001
0000
0100
0000
,
0001
0000
0000
1000
0001
0000
0010
0000
0100
0010
0000
0001
0010
0000
0100
0000
,
1000
0000
0000
0001
0100
0000
0010
0000
0100
0001
0000
1000
0010
0000
1000
0000
,
0001
0010
0001
0010
0100
1000
0100
1000
,
0001
0100
0001
0100
0010
1000
0010
1000
,
0001
1000
0001
1000
0001
1000
0001
1000
0100
0010
0100
0010
0100
0010
0100
0010
,
0002
0000
0000
0003
,
1001
0000
0000
0000
,
0000
0000
0000
0000
,
0001
0000
0100
0000
0001
0000
1000
0000
0100
0000
0001
0000
,
1000
0000
0000
0010
0000
0100
0000
0000
0010
0000
0001
0000
,
1000
0000
0010
1000
0000
0001
1000
0000
0100
1000
0000
0001
1000
0000
0010
0000
,
0100
0000
0010
0100
0001
0000
1000
0100
1000
0100
1000
0000
0001
0000
0000
0000
,
1000
0000
0100
0010
0000
0001
1000
0000
0010
0100
0000
0001
0100
0000
0010
0000
,
1000
0000
0001
0010
0001
0000
1000
0000
0001
0100
0001
0100
0002
0000
0000
0000
,
1003
0000
0100
0010
0000
1000
0010
0000
0001
1000
0000
0010
1000
0000
0001
0000
,
1000
0000
0001
0100
0001
0000
1000
0100
1000
0100
1000
0000
0001
0000
0100
0000
,
0001
0000
1000
0100
0000
0010
0001
0000
1000
0001
0000
0100
0010
0000
1000
0000
,
0001
0000
0010
0100
0010
0000
0001
0000
1000
0010
1000
0000
0002
0000
0000
0000
,
1003
0000
0100
0000
0010
0000
0001
0000
1000
0001
1000
0001
0100
0000
0010
0000
,
1000
0000
0011
0100
1000
0000
1010
0100
,
0001
0000
1000
0000
0010
0000
0100
0000
0001
1000
0001
1000
0100
0000
1000
0000
,
0001
0010
0000
0100
1000
0000
0001
0100
0000
0010
1000
0000
0002
0000
0000
0000
,
1003
0000
0100
0000
0010
0000
0100
0000
0010
0100
0010
0100
0010
0000
0001
0000
,
1000
0000
1100
0010
0001
0000
0101
0010
,
1000
0000
0001
0000
0010
0000
0001
0000
0100
0010
0100
0010
0100
0000
0001
0000
,
1000
0100
0000
0010
0001
0000
1000
0010
0000
0100
0001
0000
1000
0000
0000
0000
,
0002
0000
0103
0010
0001
1000
0100
0010
,
1000
0100
0010
1000
0001
0100
0010
0001
,
2000
0000
3100
0010
1000
0001
0100
0010
,
0001
0100
0010
0001
1000
0100
0020
0000
,
2030
0000
3001
0010
1000
0001
0100
0010
,
0001
1000
0010
0001
1000
0100
0010
1000
,
0002
0000
1003
0010
1000
0001
0010
0100
,
1000
0100
1000
0000
0001
0100
0001
0000
1000
0001
1000
0001
2000
0000
0000
0000
,
3001
0011
1000
1100
,
0001
0101
1000
1010
,
0011
1100
0101
1010
,
0110
1001
0110
1001
,
0001
0100
0001
0100
0010
1000
0010
1000
,
0001
0010
0001
0010
0100
1000
0100
1000
,
0001
0100
0001
0100
0001
0100
0001
0100
0010
1000
0010
1000
0010
1000
0010
1000
,
0001
0000
1000
0000
0220
0330
2002
3003
,
0001
0010
0100
1000
1001
0000
1100
0000
,
0110
0000
0001
0100
0010
0000
0110
0000
,
0001
1000
0100
0010
0000
0000
0011
0000
0000
2001
0000
0000
,
3001
1000
0010
0001
1000
0100
0010
1000
,
0001
0000
0000
0000
1000
0000
0000
0000
0001
0000
0000
0000
1000
0000
0000
0000
0000
0000
0000
0000
0000
0000
0000
0000
0100
0000
0000
0000
0000
0000
0010
0000
0000
0000
0000
0000
0100
0000
0000
0000
0000
0000
0000
0000
0000
0100
0000
0000
,
0010
0000
0000
0000
0000
0000
0001
0000
0000
0100
0000
0000
0110
0000
0000
0000
0000
0000
1000
0000
0100
0000
0010
0000
,
0001
0011
1010
1001
,
0001
0000
1000
0000
0002
2003
3200
0320
,
0031
1000
1001
0000
0011
0000
1010
0000
,
0102
0000
0000
0000
2003
0000
0000
0000
3020
0000
0000
0000
1030
0001
1000
0001
,
1000
0000
0001
0100
1000
0001
0010
0100
,
1000
0000
0001
0000
0010
0000
0100
0000
0010
0000
1000
0000
0001
0000
1000
0001
,
2000
3000
0011
0000
1001
0000
1100
0000
,
0101
0000
1100
0000
1010
0000
2002
3003
,
0001
0010
0100
0010
0001
1000
0010
0100
,
0002
0000
0100
0000
1003
0000
0002
0000
0010
0000
1003
0000
,
1001
0000
0000
0000
1000
0000
0000
0010
0000
0010
0000
0000
0100
0000
0001
1000
,
0001
0000
1000
0000
0010
0000
0100
0000
0000
0010
0000
0000
1000
0000
0100
0000
,
0110
0000
0000
0000
0001
0000
0000
1000
0000
1000
0000
0000
0010
0000
0100
0001
,
0100
0000
0010
0000
0100
0000
0001
0000
0000
0001
0000
0000
1000
0000
0100
0000
,
1000
0000
0100
0000
1100
0000
0001
0000
0100
0000
0101
0000
,
0100
0000
0000
0000
0110
0000
0000
0000
1001
0000
0000
0000
1000
0000
0000
0100
0000
0000
0010
0000
0000
0001
0000
0000
,
1000
0100
1000
0001
0100
0010
1000
0001
,
1000
0000
0001
0010
0001
0000
1000
0000
0001
0100
0010
0100
0001
0100
0010
0100
,
0001
0000
1000
0100
0000
0010
0001
0000
0100
0010
0000
1000
0001
0000
1000
0000
,
1100
0000
0000
0100
0001
0000
0100
0000
1000
0010
0000
0100
0001
0000
1000
0000
,
0001
0000
0010
0001
0000
0100
0010
0000
1000
0001
0000
0010
0100
0000
0010
0000
,
0011
0000
0000
0001
0100
0000
1000
0000
0100
0001
0000
0010
0100
0000
1000
0000
,
0001
0000
0010
0100
0000
0100
1000
0000
0010
0100
0000
0100
0001
0000
1000
0000
,
1010
0000
0000
0001
1000
0000
0100
0000
0010
0100
0000
1000
0001
0000
0010
0000
,
0100
0000
1000
0100
0000
0100
0010
0000
0001
0010
0000
0010
0100
0000
1000
0000
,
0001
0000
0100
0000
0010
0000
1000
0000
0010
0000
0100
0000
0001
0000
0000
0000
0000
0000
1000
0000
0000
0001
0000
0000
,
1001
0000
0000
0000
;

//--------------- dance-single - Fred-104 ----------------
#NOTES:
     dance-single:
     Fred-104:
     Hard:
     18:
     :
0000
0000
0000
0000
,
0000
0000
0000
0000
,
0000
0000
0000
0000
,
0000
0000
0000
0000
,
0000
0000
0000
0000
,
0000
0000
0000
0000
,
2000
0000
0000
3000
1010
0000
0000
0000
0001
0000
0000
0000
0101
0000
0000
0000
,
1000
1100
0001
0011
,
0020
0000
0000
0030
1010
0000
0000
0000
1000
0000
0000
0000
1100
0000
0000
0000
,
0001
0101
0110
1001
,
0012
0000
0000
0013
0100
0000
1000
0000
0001
1000
0000
0010
0100
0000
0010
0000
,
1020
0000
0000
0000
0000
0000
0000
0000
0000
1000
0000
0000
0130
0000
0000
0000
0000
0000
0001
0000
0000
0000
0000
0000
0100
0000
0000
0010
0000
0000
0000
0000
0000
0001
0000
0000
1000
0000
0000
0000
0000
0000
0001
0000
1000
0000
0001
0000
,
2000
0000
0000
3100
0001
0000
0100
0000
1000
0100
0000
0010
0001
0000
0010
0000
,
0012
0000
0000
0000
0000
0000
0000
0000
0000
1000
0000
0000
0013
0000
0000
0000
0000
0000
0001
0000
0000
0000
0000
0000
0010
0000
0000
1000
0000
0000
0000
0000
0000
0001
0000
0000
0010
0000
0000
0000
0000
0000
0100
0000
1000
0000
0100
0000
,
2000
3000
0000
0000
0000
0000
0000
0000
0000
0000
0000
0000
0000
0000
0000
0000
0000
0000
0000
0000
0000
0000
0000
0000
0001
0000
0000
0000
0000
0000
0000
0000
0000
0000
0000
0000
0000
0000
0000
0000
0000
0000
0000
0000
0000
0000
0000
0000
1000
0000
0000
0000
0000
0000
0000
0000
0000
0000
0000
0000
0000
0000
0000
0000
0000
0000
0000
0000
0000
0000
0000
0000
0010
0000
0000
0000
0000
0000
0000
0000
0000
0000
0000
0000
0000
0000
0000
0000
0000
0000
0000
0000
0000
0000
0000
0000
1000
0000
0000
0000
0000
0000
0000
0000
0000
0000
0000
0000
0000
0000
0000
0000
0000
0000
0000
0000
0000
0000
0000
0000
0001
0000
0000
0000
0000
0000
0000
0000
0000
0000
0000
0000
0000
0000
0000
0000
0000
0000
0000
0000
0000
0000
0000
0000
1000
0000
0000
0000
0000
0000
0000
0000
0000
0000
0000
0000
0000
0000
0000
0000
0000
0000
0000
0000
0000
0000
0000
0000
0100
0000
0000
0000
0000
0000
0000
0000
0000
0000
0000
0000
0000
0000
0000
0000
0000
0000
0000
0000
0000
0000
0000
0000
,
0010
0001
1000
0001
0100
0001
1000
0010
,
2000
3000
0000
0000
0000
0000
0000
0000
0000
0000
0000
0000
0001
0000
0000
0000
0000
0000
0000
0000
0000
0000
0000
0000
0010
0000
0000
0000
0000
0000
0000
0000
0000
0000
0000
0000
0100
0000
0000
0000
0000
0000
0000
0000
0000
0000
0000
0000
1000
0000
0000
0000
0000
0000
0000
0000
0000
0000
0000
0000
0001
0000
0000
0000
0000
0000
0000
0000
0000
0000
0000
0000
0100
0000
0000
0000
0000
0000
0000
0000
0000
0000
0000
0000
0010
0000
0000
0000
0000
0000
0000
0000
0000
0000
0000
0000
0100
0000
0000
0000
0000
0000
0000
0000
0000
0000
0000
0000
0001
0000
0000
0000
0000
0000
0000
0000
0000
0000
0000
0000
1000
0000
0000
0000
0000
0000
0000
0000
0000
0000
0000
0000
0100
0000
0000
0000
0000
0000
0000
0000
0000
0000
0000
0000
1000
0000
0000
0000
0000
0000
0000
0000
0000
0000
0000
0000
0001
0000
0000
0000
0000
0000
0000
0000
0000
0000
0000
0000
0100
0000
0000
0000
0000
0000
0000
0000
0000
0000
0000
0000
0010
0000
0000
0000
0000
0000
0000
0000
0000
0000
0000
0000
,
2000
0000
0000
3000
,
1001
0000
0000
0000
,
0000
0000
0000
0000
,
0011
0000
1010
0000
1100
0000
0101
0000
1100
0000
1010
0000
,
0011
0000
0000
0001
0000
0001
0000
0000
1000
0000
1000
0000
,
0001
0000
0100
0010
0001
0010
0001
0000
0010
1000
0010
1000
0001
0000
0010
0000
,
0100
0000
1000
0001
0100
0000
1000
0100
0010
0100
0010
1000
0001
0000
0100
0000
,
0001
0000
1000
0001
0100
0001
1000
0000
0001
0010
0100
1000
0001
0000
0100
0000
,
1000
0000
0000
0000
0000
0000
0100
0000
0000
0001
0000
0000
0100
0000
0000
0001
0000
0000
0010
0000
0000
0000
0000
0000
0100
0000
0000
0001
0000
0000
0100
0000
0000
0010
0000
0000
0001
0000
0000
0000
0000
0000
1000
0000
0001
0000
1000
0000
,
0001
0000
0100
0010
1000
0001
0010
0000
1000
0010
1000
0010
0100
0000
1000
0000
,
0001
0000
0010
0100
1000
0000
0001
1000
0100
0010
0100
0000
0001
0100
0010
0000
,
0001
0000
1000
0010
0001
0010
0100
0000
0001
0010
0100
1000
0001
0000
1000
0000
,
0001
0000
0100
0010
1000
0000
0001
0010
0100
1000
0001
1000
0001
0000
1000
0001
,
1000
0000
0001
1000
0100
0000
0001
0100
0010
0100
0010
0000
0001
1000
0001
0000
,
2000
3020
0032
0023
0230
2300
3200
0302
,
1003
0000
0100
1000
0001
1000
0100
0000
0001
0100
0001
0100
0010
0000
0001
0000
,
1000
0001
0010
0000
1000
0000
0001
0100
1000
0000
0001
0010
0100
1000
0001
1000
,
0010
0000
0001
0010
0100
0010
1000
0000
0001
0010
1000
0010
0001
0000
1000
0000
,
0100
0000
0001
0100
0010
0000
0100
1000
0001
0100
0010
0000
1000
0001
1000
0000
,
0100
0000
0010
0001
1000
0000
0001
1000
0010
0100
1000
0000
0100
0010
1000
0000
,
0001
0010
0001
1000
0010
1000
0001
0100
0001
1000
0100
1000
0001
0000
1000
0000
,
0001
1000
1200
0000
1300
0010
0100
0001
,
0020
1000
0100
0031
2000
0010
0001
3100
,
1000
0100
0120
0000
0031
0100
0010
1000
,
0001
0010
0100
1000
0001
0100
0010
1000
0001
0010
0100
1000
0001
1000
0010
1000
,
0001
0100
0010
1000
0002
0100
2003
0010
,
3002
0203
0320
0032
2003
3200
0320
0230
,
0301
1000
0100
0010
0002
1000
0203
0010
,
0301
1000
0100
1000
0001
0100
0001
1000
0010
1000
0001
0010
0100
1000
0100
1000
,
0001
0000
1100
0000
0110
0000
0001
0100
,
0110
0000
1100
0000
0101
0000
1000
0100
,
0110
0000
0011
0000
1010
0000
0001
0100
,
0110
0000
1100
0000
0101
0000
1000
0010
,
0110
0100
0001
0001
1000
1000
0100
0100
,
0010
0010
0001
0001
1000
1000
0001
0001
,
1000
0010
0100
0001
0010
0100
1000
0100
0010
0001
1000
0010
0100
0010
1000
0001
,
1000
0000
0100
0000
0220
0330
2002
3003
,
0011
0000
0010
0000
0001
0000
1000
0000
1010
0000
0000
0000
1000
0000
0001
0100
,
0001
0000
0000
0000
0000
0000
0110
0000
0000
0001
0000
0000
1000
0000
0000
0000
0000
0000
1010
0000
0000
0000
0001
0000
,
0100
0000
0100
0000
1000
0000
0001
0000
0000
0000
0000
0000
0100
0000
0000
0010
0000
0000
0100
0000
0000
0000
0100
0000
,
0001
0000
1000
0000
0110
0000
0001
0000
0110
0000
1000
0000
1001
0000
0000
1000
,
0010
0000
0000
0000
0010
0000
0000
0000
0010
0000
0000
0000
0100
0000
0000
0000
0000
0000
0001
0000
0000
0000
0000
0000
2000
0000
0000
0000
0000
0000
0000
0000
0000
0000
0000
0000
3100
0000
0000
0000
0000
0000
0001
0000
0000
0100
0000
0000
,
0010
0000
0000
0001
0000
0000
1000
0000
0000
0001
0000
0000
1001
0000
0000
0000
0000
0000
0001
0000
0100
0000
0100
0000
,
1000
0000
0001
0000
0110
0000
0000
0000
1010
0000
0000
0000
1001
0000
0000
1000
,
0020
0000
0031
0000
0020
0000
1030
0000
0001
0000
0001
0000
2000
3002
2003
3002
,
1003
0000
1100
0000
0110
0000
0000
0000
0001
0000
1000
0000
0001
0000
0000
1000
,
0020
0000
0000
0000
0001
0000
0000
0000
0100
0000
0000
0000
2030
3002
2003
3002
,
1003
0000
0000
0000
1001
0000
1000
0001
0020
0000
0130
1000
0020
0000
0130
0001
,
0020
0000
0130
0001
0200
0000
2300
0000
3001
0100
0020
0000
0032
0000
0013
1000
,
0002
0000
1003
0000
1001
0000
0000
0000
1010
0000
0000
0000
0101
0000
0000
1000
,
0010
0000
0000
0000
0110
0000
0000
0000
0101
0000
0000
0000
2200
0000
0000
3300
,
1000
0000
0010
0000
0001
0000
0010
0000
0100
0000
0001
0010
0100
0000
1000
0000
,
1100
0000
0101
0000
0011
0000
1010
0000
1100
0000
0011
0000
,
2002
0000
3003
0000
1100
0000
0000
0101
0000
1010
0000
0000
0110
0000
1000
0100
,
0001
0000
0100
0000
1000
0000
1010
0000
0000
0011
0000
0000
1001
0000
0100
0000
,
0220
0000
0330
0000
1010
0000
0000
1100
0000
0011
0000
0000
0101
0000
0001
0010
,
0100
0000
1000
0000
1100
0000
0101
0000
0000
1010
0000
0000
0011
0000
0110
0000
,
2200
3300
0101
0000
1010
0000
0101
0000
1100
0000
0011
0000
,
1100
0000
0000
0000
0110
0000
0000
0000
0011
0000
0000
0000
1001
0000
0000
1000
0000
0000
0001
0000
0000
0001
0000
0000
,
1000
0000
0010
0000
0001
0010
0100
0000
0001
0000
0010
0100
0001
0000
0100
1000
,
0001
0000
0100
0001
1000
0000
0001
0010
0100
1000
0010
0100
0001
0010
0100
1000
,
0001
0000
1000
0010
1000
0001
0010
0000
0100
1000
0001
0100
0010
0000
1000
0000
,
2001
0000
0000
0000
0000
0000
0000
0000
0000
3001
0000
0000
1000
0000
0000
0000
0000
0000
0001
0000
0000
0000
0000
0000
0010
0000
0000
1000
0000
0000
0000
0000
0000
0010
0000
0000
0100
0000
0000
0000
0000
0000
1000
0000
0001
0000
1000
0000
,
0001
0000
1000
0010
1000
0001
1000
0000
0100
0010
0001
1000
0010
0000
0100
0000
,
0201
0000
0000
0000
0000
0000
0000
0000
0000
0301
0000
0000
1000
0000
0000
0000
0000
0000
0001
0000
0000
0000
0000
0000
0010
0000
0000
0100
0000
0000
1000
0000
0000
0001
0000
0000
0100
0000
0000
0000
0000
0000
0001
0000
1000
0000
0001
0000
,
1000
0000
0100
0010
0001
1000
0010
0000
0100
0001
0010
0001
1000
0000
0001
0000
,
0201
0000
0000
0000
0000
0000
0000
0000
0000
0301
0000
0000
1000
0000
0000
0000
0000
0000
0001
0000
0000
0000
0000
0000
0010
0000
0000
0100
0000
0000
0000
0000
0000
1000
0000
0000
0001
0000
0000
0000
0000
0000
1000
0000
0100
0000
1000
0000
,
0001
0000
1000
0010
0001
0010
0100
0000
0001
0010
0100
1000
0001
0000
1000
0001
,
1000
0000
0100
0000
0001
0000
1000
0000
0010
0000
0001
0000
0020
0000
0000
0000
0000
0000
0130
0000
0000
1000
0000
0000
,
1001
0000
0000
0000
;

//--------------- dance-single - Fred-104 ----------------
#NOTES:
     dance-single:
     Fred-104:
     Challenge:
     19:
     :
0000
0000
0000
0000
,
0000
0000
0000
0000
,
0000
0000
0000
0000
,
0000
0000
0000
0000
,
0000
0000
0000
0000
,
0000
0000
0000
0000
,
1002
0000
0000
0000
0000
0000
0000
0000
0000
0000
0000
0000
0000
0000
0000
0003
0101
0000
0000
0000
0000
0000
0000
0000
0000
0000
0000
0000
0000
0000
0000
0000
1100
0000
0000
0000
0000
0000
0000
0000
0000
0000
0000
0000
0000
0000
0000
0000
1001
0000
0000
0000
0000
0000
0000
0000
0000
0000
0000
0000
0000
0000
0000
0000
,
2010
0000
0000
0000
0000
0000
0000
0000
0000
0000
0000
0000
0000
0000
0000
3000
1001
0000
0000
0000
0000
0000
0000
0000
0000
0000
0000
0000
0000
0000
0000
0000
0011
0000
0000
0000
0000
0000
0000
0000
0000
0000
0000
0000
0000
0000
0000
0000
0110
0000
0000
0000
0000
0000
0000
0000
0000
0000
0000
0000
0000
0000
0000
0000
,
1200
0000
0000
0000
0000
0000
0000
0000
0000
0000
0000
0000
0000
0000
0000
0300
0101
0000
0000
0000
0000
0000
0000
0000
0000
0000
0000
0000
0000
0000
0000
0000
1010
0000
0000
0000
0000
0000
0000
0000
0000
0000
0000
0000
0000
0000
0000
0000
1001
0000
0000
0000
0000
0000
0000
0000
0000
0000
0000
0000
0000
0000
0000
0000
,
0012
0000
0000
0000
0000
0000
0000
0000
0000
0000
0000
0000
0000
0000
0000
0003
1100
0000
0000
0000
0000
0000
0000
0000
0000
0000
0000
0000
0000
0000
0000
0000
1010
0000
0000
0000
0000
0000
0000
0000
0000
0000
0000
0000
0000
0000
0000
0000
0101
0000
0000
0000
0000
0000
0000
0000
0000
0000
0000
0000
0000
0000
0000
0000
,
1002
0000
0000
1003
0001
1000
0100
0000
0010
0100
0000
0001
0100
0000
1000
0000
,
0120
0000
0000
0000
0000
0000
0000
0000
0000
1030
0000
0000
0001
0000
0000
0100
0000
0000
1000
0000
0000
0000
0000
0000
0100
0000
0000
0010
0000
0000
0000
0000
0000
1000
0000
0000
0001
0000
0000
0000
0000
0000
1000
0000
0001
0000
1000
0000
,
0200
0000
0000
1300
0001
0010
0001
0000
0100
0010
0000
0001
0010
0000
1000
0000
,
1002
0000
0000
0000
0000
0000
0000
0000
0000
1003
0000
0000
0100
0000
0000
0001
0000
0000
0100
0000
0000
0000
0000
0000
0010
0000
0000
1000
0000
0000
0000
0000
0000
0010
0000
0000
0001
0000
0000
0000
0000
0000
1000
0000
0010
0000
1000
0000
,
0020
1030
0001
0010
0110
0100
1000
0001
,
0102
0103
0010
1000
1100
0100
0010
0001
,
1000
0010
0100
0001
0010
0100
1000
0100
0010
0001
0100
0010
0001
1000
0100
0010
,
2000
0000
0000
3000
,
1001
0000
0000
0000
,
0000
0000
0000
0000
,
0110
0000
1001
0000
0001
0100
1000
0000
1001
0000
1000
0100
,
0001
0000
0000
1001
0000
0001
0000
0000
0100
0000
0100
0000
,
1001
0000
1000
0001
1000
0010
0100
0001
1000
0100
0010
0100
1000
0000
0001
0000
,
0100
0000
0001
1000
0100
1000
0001
0010
0001
1000
0100
0001
0100
0000
1000
0000
,
0001
0000
0100
0010
1000
0001
0010
0100
1000
0010
0100
0010
1000
0000
0001
0000
,
0010
0000
0000
0000
0000
0000
1000
0000
0000
0010
0000
0000
0001
0000
0000
1000
0000
0000
0010
0000
0000
0100
0000
0000
1000
0000
0000
0100
0000
0000
0001
0000
0000
1000
0000
0000
0001
0000
1000
0000
0001
0000
1000
0000
0001
0000
1000
0000
,
0001
0000
0000
0000
0000
0000
0010
0000
0000
0001
0000
0000
1000
0000
0000
0010
0000
0000
0100
0000
0000
0001
0000
0000
1000
0000
0100
0000
1000
0000
0100
0000
1000
0000
0100
0000
1000
0000
0000
0001
0000
0000
1000
0000
0000
0000
0000
0000
,
0001
0000
0000
0000
0000
0000
0010
0000
0000
0001
0000
0000
0100
0000
0000
0010
0000
0000
1000
0000
0000
0001
0000
0000
0010
0000
0100
0000
0010
0000
0100
0000
0010
0000
0100
0000
1000
0000
0000
0001
0000
0000
0100
0000
0000
0000
0000
0000
,
0001
0000
0000
0000
0000
0000
1000
0000
0000
0100
0000
0000
0010
0000
0000
0001
0000
0000
0100
0000
0000
0010
0000
0000
1000
0000
0001
0000
1000
0000
0001
0000
1000
0000
0001
0000
0010
0000
0000
0100
0000
0000
1000
0000
0000
0000
0000
0000
,
0001
0000
0000
0000
0000
0000
0100
0000
0000
0010
0000
0000
0001
0000
0000
0010
0000
0000
0100
0000
0000
0001
0000
0000
1000
0000
0100
0000
1000
0000
0100
0000
0010
0000
0001
0000
1000
0000
0000
0001
0000
0000
1000
0000
0000
0000
0000
0000
,
0001
0000
0100
0001
1000
0000
0010
1000
0001
0010
0100
0010
1000
0010
0001
1000
,
0002
0000
0013
0100
2000
0000
0100
0000
3001
0100
0001
0100
0020
0000
1000
0000
,
1030
0000
0100
0010
0001
0000
0010
0100
1000
0001
0100
0010
0001
0010
1000
0000
,
0001
0000
0000
0010
0000
0000
0001
0000
0000
0100
0000
0000
0010
0000
0000
1000
0000
0000
0100
0000
0000
1000
0000
0000
0010
0000
0000
0100
0000
0000
0001
0000
0000
1000
0000
0000
0001
0000
1000
0000
0001
0000
1000
0000
0001
0000
1000
0000
,
0001
0000
1000
0010
0100
0000
0001
1000
0100
0010
0001
1000
0001
0100
0010
0000
,
0002
0000
0013
1000
0001
0000
0010
0100
1000
0100
1000
0000
0001
0000
0100
0001
,
1000
0000
0001
0010
0100
0000
1000
0001
0100
0001
1000
0100
0010
0001
1000
0000
,
0001
0100
0010
0100
1000
0100
0010
0001
0010
0100
0010
1000
0001
0010
0100
1000
,
0001
1000
0001
0010
0001
1000
0010
0100
,
0002
0010
2003
0100
3002
0010
2003
0100
,
3001
1000
0010
0100
0001
1000
0100
0010
,
0100
0000
0000
1000
0000
0000
0001
0000
0000
0100
0000
0000
0010
0000
0000
1000
0000
0000
0001
0000
0000
0010
0000
0000
0100
0000
0000
1000
0000
0000
0100
0000
0000
0010
0000
0000
0001
0000
1000
0000
0010
0000
0100
0000
0001
0000
1000
0000
,
0001
0000
1000
0000
0100
0000
0010
0000
1000
0010
0001
1000
0001
0000
0100
0000
,
0002
0010
2003
0100
3002
1000
0203
0010
,
0301
0000
1000
0000
0001
0000
0100
0000
0010
1000
0010
0100
0001
0000
1000
0000
,
0001
0000
0000
1000
0000
0000
0010
0000
0000
1000
0000
0000
0001
0000
0000
0010
0000
0000
0100
0000
0000
0010
0000
0000
0001
0000
0000
1000
0000
0000
0010
0000
0000
0100
0000
0000
0001
0000
1000
0000
0100
0000
0010
0000
0001
0000
1000
0000
,
0001
0000
1100
0100
1100
0000
0101
0100
,
0101
0000
1010
0010
1010
0000
0011
0010
,
0011
0000
1100
0100
0101
0000
0011
0010
,
1010
0000
0000
1000
0000
0000
1100
0000
0000
0100
0000
0000
0110
0000
0000
0001
0000
0000
1000
0010
1000
0001
0000
0000
,
1000
0100
0010
0001
0101
0100
0010
1000
,
1001
0001
0100
0010
0110
0100
0001
1000
,
0100
1000
0001
0100
0001
1000
0100
0010
0001
0100
0010
1000
0001
0010
0100
1000
,
0001
0000
0100
0000
0220
0330
2002
3003
,
1100
0000
0100
0000
0010
0000
0001
0000
0101
0000
0000
0000
0110
0000
1000
0001
,
0100
0000
0000
0000
0000
0000
1001
0000
0000
1010
0000
0000
1100
0000
0000
0000
0000
0000
0110
0000
0000
0000
0010
0000
,
0100
0100
0100
0010
0000
0000
0011
0000
0000
1001
0000
1000
,
0010
0000
1000
0000
0110
0000
0001
0000
1000
0000
0001
0000
0110
0000
0000
1000
,
0100
0000
0000
0000
0100
0000
0000
0000
0100
0000
0000
0000
0010
0000
0000
0000
0000
0000
0001
0000
0000
0000
0000
0000
1001
0000
0000
0000
0000
0000
0000
0000
0000
0000
0000
0000
0110
0000
0000
0000
0000
0000
1000
0000
0000
0001
0000
0000
,
0100
0000
0000
0000
0000
0000
0011
0000
0000
1001
0000
0000
1100
0000
0000
0000
0000
0000
0001
0000
0001
0000
1000
0000
,
1001
0000
0000
0000
1100
0000
0000
0000
0101
0000
0000
0000
1001
0000
0000
1000
,
0002
0000
0010
0000
2003
0000
0100
0000
3001
0000
0001
0000
2000
3200
0320
0032
,
1003
0000
0001
0000
1001
0000
0000
0000
1010
0000
0001
0000
0100
0000
0000
0010
,
1000
0000
0110
0000
0001
0000
0110
0000
1000
0000
0011
0000
2000
3200
0302
0203
,
1300
0000
0000
0000
1001
0000
1000
0010
0200
0000
1300
0100
0002
0000
1003
0100
,
0002
0000
0103
1000
0002
0000
0103
0010
0001
0010
1000
0001
0010
0100
1000
0001
,
2000
3000
2000
3000
1100
0000
0000
0000
0101
0000
0000
0000
1100
0000
0001
0100
,
0010
0000
0000
0000
1010
0000
0000
0000
1000
0000
0100
0010
0002
0000
0000
0000
,
1003
0000
0001
0000
0100
0000
1000
0000
0001
0000
0010
0100
0001
0000
1000
0000
,
1100
0000
0101
0000
0011
0000
1010
0000
1100
0000
0110
0000
,
2002
0000
3003
0000
0011
0000
0000
1100
0000
0101
0000
0000
1010
0000
0001
0100
,
0010
0000
1010
0000
1001
0000
1100
0000
0000
0110
0000
0000
0010
0000
0001
0000
,
0202
0000
0303
0000
1010
0000
0000
0101
0000
1100
0000
0000
0011
0000
1000
0100
,
0010
0000
0011
0000
1001
0000
1100
0000
0000
0110
0000
0000
0001
0000
1000
0000
,
1100
0000
0101
0000
1010
0000
0011
0000
0101
0000
1100
0000
,
0110
0000
0000
0000
0011
0000
0000
0000
0101
0000
0000
0000
1001
0000
0000
1000
0000
0000
0100
0000
0000
1000
0000
0000
,
0100
0000
0010
0000
0001
1000
0001
0010
0100
0010
1000
0010
0001
0000
1000
0010
,
0001
0000
0010
0100
0001
0000
1000
0100
0001
0100
0010
0100
1000
0100
0010
0001
,
1000
0000
0001
0010
0100
0010
0001
1000
0010
0001
0010
0100
0010
1000
0001
0000
,
0210
0000
0000
0000
0000
0000
0000
0000
0000
1300
0000
0000
0001
0000
0000
0000
0000
0000
0100
0000
0000
0000
0000
0000
0010
0000
0000
1000
0000
0000
0001
0000
0000
0000
0000
0000
0010
0000
0000
0000
0000
0000
0100
0000
1000
0000
0100
0000
,
1000
0000
0001
1000
0100
1000
0001
0100
0010
0001
0010
1000
0001
0010
0100
0000
,
2100
0000
0000
0000
0000
0000
0000
0000
0000
3001
0000
0000
1000
0000
0000
0000
0000
0000
0100
0000
0000
0000
0000
0000
0010
0000
0000
0001
0000
0000
1000
0000
0000
0010
0000
0000
0100
0000
0000
0000
0000
0000
0001
0000
1000
0000
0001
0000
,
1000
0000
0001
1000
0010
0100
1000
0100
0010
0100
0001
0100
0010
1000
0001
0000
,
0020
0000
0000
0000
0000
0000
0000
0000
0000
0031
0000
0000
1000
0000
0000
0000
0000
0000
1001
0000
0000
0000
0000
0000
0001
0000
0000
0010
0000
0000
0000
0000
0000
1000
0000
0000
0010
0000
0000
0000
0000
0000
0001
0000
1000
0000
0001
0000
,
1000
0001
0100
0010
0100
0001
0010
0001
0100
0010
1000
0001
0010
0100
1000
0001
,
1000
0010
0100
0001
0100
0010
1000
0000
0001
0000
0010
0000
0210
0000
0000
0000
0000
0000
1300
0000
0000
0110
0000
0000
,
1001
0000
0000
0000
;

//--------------- dance-double - Fred-104 ----------------
#NOTES:
     dance-double:
     Fred-104:
     Easy:
     11:
     :
00000000
00000000
00000000
00000000
,
00000000
00000000
00000000
00000000
,
00000000
00000000
00000000
00000000
,
00000000
00000000
00000000
00000000
,
00000000
00000000
00000000
00000000
,
00000000
00000000
00000000
00000000
,
10000000
01100000
00001000
00011000
,
00001000
00010000
00001000
00000100
,
00000001
00000010
00000100
00001000
,
00000001
00000110
00001000
00000100
,
00000010
00000000
00000000
00000000
00000001
00000000
00000000
00000000
00001000
00000000
00000000
00001000
00000000
00000000
00001000
00000000
,
00000001
00000000
00000100
00000000
00001000
00010000
00001000
00010000
,
00001000
00000000
00000000
00000000
00100000
00000000
00000000
00000000
01000000
00000000
00000000
10000000
00000000
00000000
00010000
00000000
,
10000000
00000000
01000000
00000000
00100000
00001000
00010000
00001000
,
00000100
00000001
00001000
00000100
,
00000010
00000001
00000100
00001000
,
00010000
00001000
00000010
00000100
00001000
00000001
00000100
00000010
,
00002000
00000000
00000000
00003000
,
00001001
00000000
00000000
00000000
,
00000000
00000000
00000000
00000000
,
00001000
00000000
01000000
00000000
00010000
00000000
10000000
00000000
00010000
00000000
01000000
00000000
,
00200000
00000000
02000000
03300000
,
00010000
00000000
10000000
00000000
01000000
00100000
00010000
00000000
,
01000000
00000000
00010000
00000000
00100000
00001000
00100000
00000000
,
00001000
00000000
00010000
00000000
00001000
00010000
00001000
00000000
,
00000010
00000000
00000100
00000000
00001000
00000100
00000020
00000000
,
00000031
00000000
00000100
00000000
00000010
00001000
00000001
00000000
,
00000100
00000000
00000010
00000000
00000100
00001000
00010000
00000000
,
00100000
00000000
01000000
00000000
00010000
10000000
01000000
00000000
,
00100000
00010000
00100000
00001000
00010000
00000000
00002000
00000000
,
00013000
00000000
00100000
00000000
01000000
00010000
10000000
00000000
,
01000000
00100000
00001000
00010000
,
00001000
00000000
00000100
00000000
00000001
00000010
00000100
00000000
,
00001000
00000000
00000100
00000000
00010000
00001000
00020000
00000000
,
00031000
00000000
00000100
00000000
00000010
00001000
00000001
00000000
,
00000010
00001000
00010000
01000000
,
00100000
00000000
00010000
00000000
10000000
00010000
01000000
00000000
,
00010000
00100000
01000000
00100000
00001000
00010000
00001000
00000000
,
00020000
00000000
00032000
00000000
,
00013000
00001000
00000010
00000001
,
00000200
00000000
00002300
00000000
,
00013000
00000000
00001000
00000000
00010000
00100000
02000000
00000000
,
03010000
00100000
01000000
10000000
,
00100000
00010000
00001000
00010000
,
01000000
00010000
00001000
00010000
,
00100000
00000000
10000000
00000000
00010000
10000000
00020000
00000000
,
10030000
11000000
00010000
01010000
,
00001000
01001000
00010000
00010010
,
00001000
00101000
00010000
00010100
,
00010000
00000110
00001000
00001001
,
00000001
00000100
00000010
00000100
,
00001000
00010000
00100000
10000000
,
01000000
00100000
00010000
00100000
00001000
00010000
00000010
00010000
,
00002000
00000000
00000000
00003000
,
00010000
00001000
00010000
00021000
,
00031000
00000100
00000010
00000012
,
00002003
00003001
00000100
00000210
,
00000310
00010000
00011000
01001000
,
00022000
00033000
00202000
00303000
,
00001000
00010000
00100000
01000000
,
01010000
00010000
10000000
11000000
,
01000000
00100000
00022000
00033000
,
00010000
00001000
00000100
00000010
,
00000100
00000000
00000001
00000000
00001000
00000100
00000020
00000000
,
00000031
00000000
00000000
00000100
00000000
00001000
00000000
00010000
,
00000000
01000000
00000000
00010000
00000000
00001000
00010000
00000000
,
00011000
00001000
00010000
00100000
,
10000000
00010000
00100000
01100000
,
10000000
01000000
00100000
00001000
,
00010000
00000000
00001000
00000000
00000010
00000000
00001000
00000000
00010000
00000000
00001000
00000000
,
00012000
00000000
00023000
00000000
,
00031000
00000100
00000001
00000010
,
00000120
00000000
00020030
00000000
,
00031000
00010000
00100000
01000000
,
00010000
00000000
00010000
00000000
00010000
00000000
10000000
00000000
10000000
00000000
10000000
00000000
,
00100000
00000000
00000000
00000000
00010000
00000000
00000000
00000000
00001000
00000000
00000000
00000000
00010000
00000000
00000000
00001000
00000000
00000000
00000010
00000000
00000000
00000100
00000000
00000000
,
00000010
00000000
00000001
00000010
00000000
00000100
00001000
00000000
,
00000001
00001000
00000010
00000100
00001000
00010000
00001000
00000000
,
00010000
00000000
00001000
00000000
00000100
00000001
00000010
00000000
,
00000100
00001000
00000100
00010000
,
00001000
00000000
01000000
00000000
00010000
00100000
01000000
00000000
,
10000000
00000000
00100000
00000000
00010000
00001000
00010000
00100000
,
01000000
00000000
00010000
00000000
10000000
01000000
00010000
00000000
,
00001000
00000000
00000100
00000000
00000001
00000000
00001000
00000100
,
00000010
00000000
00000001
00000000
00001000
00000010
00000100
00001000
,
00010000
00001000
00011000
00000000
,
00011000
00000000
00000000
00000000
;

//--------------- dance-double - Fred-104 ----------------
#NOTES:
     dance-double:
     Fred-104:
     Medium:
     16:
     :
00000000
00000000
00000000
00000000
,
00000000
00000000
00000000
00000000
,
00000000
00000000
00000000
00000000
,
00000000
00000000
00000000
00000000
,
00000000
00000000
00000000
00000000
,
00000000
00000000
00000000
00000000
,
00002000
00013000
00100000
10000000
,
02000000
03010000
00001000
00010000
,
00002000
00003100
00000001
00000010
,
00000200
00010300
00001000
00010000
,
00001000
00000000
00000000
01000000
00010000
00000000
10000000
00000000
01000000
00100000
00000000
00001000
00010000
00000000
00001000
00000000
,
00000100
00000000
00000000
00000001
00001000
00000000
00000100
00000000
00000010
00000001
00000000
00001000
00000010
00000000
00001000
00000001
,
00000010
00000000
00000000
00000100
00010000
00000000
00001000
00000000
00010000
00100000
00000000
01000000
00010000
00000000
00100000
00000000
,
01000000
00000000
00000000
10000000
00100000
00000000
00010000
00000000
00001000
00010000
00000000
01000000
00100000
00000000
00010000
10000000
,
00010000
10000000
00100000
01000000
00100000
00010000
00001000
00000100
,
00000010
00000001
00000010
00001000
00000001
00000010
00000100
00001000
,
00000010
00010000
00001000
00000000
00010000
00001000
00100000
00000000
00010000
10000000
00010000
10000000
01000000
00100000
00010000
00100000
,
00002000
00000000
00000000
00003000
,
00011000
00000000
00000000
00000000
,
00000000
00000000
00000000
00000000
,
00001000
00000000
00010000
00000000
01000000
00000000
10000000
00000000
01000000
00000000
00100000
00000000
,
00011000
00000000
00000000
00010000
00000000
00001000
00000000
00000000
00001000
00000000
00010000
00000000
,
00010000
00000000
00001000
00000100
00000000
00000010
00001000
00000000
00000001
00000100
00000000
00000010
00001000
00000000
00000001
00000000
,
00000010
00000000
00000100
00001000
00000100
00000000
00010000
00000000
00001000
01000000
00010000
01000000
00001000
00000000
00000000
00000000
,
00010000
00000000
00001000
00100000
00000000
00010000
00100000
00000000
01000000
10000000
00000000
00100000
01000000
00000000
00100000
00000000
,
00010000
00000000
00001000
00000000
00010000
00000000
00000010
00000000
00010000
00000010
00001000
00000010
00000200
00000000
00000000
00000000
,
00000301
00000000
00000100
00001000
00000000
00010000
00001000
00000000
00010000
00000100
00000000
00001000
00000100
00000000
00000010
00000000
,
00000001
00000000
00001000
00000010
00010000
00000000
00001000
01000000
00010000
01000000
00001000
00000000
00010000
00000000
00000000
00000000
,
00001000
00000000
00010000
00001000
00000000
00000100
00000010
00000000
00000100
00000001
00000000
00000010
00000100
00000000
00010000
00000000
,
00001000
00100000
00010000
00000000
00100000
01000000
10000000
00000000
00010000
10000000
00100000
10000000
00020000
00000000
00000000
00000000
,
10030000
00100000
00010000
10000000
01000000
00100000
10000000
01000000
,
00100000
00000000
00001000
00010000
00011000
00000000
00010000
00001000
,
00000100
00000001
00001000
00000100
00000001
00001000
00000010
00000100
,
00001000
00000001
00000000
00000010
00001000
00000000
00000010
00000100
00000000
00001000
00000010
00000000
00020000
00000000
00000000
00000000
,
00031000
00010000
00100000
01000000
10000000
01000000
00010000
10000000
,
01000000
00000000
00100000
00001000
00011000
00000000
00001000
01000000
,
00010000
00100000
01000000
00010000
00001000
00000010
00000100
00000010
,
00000001
00001000
00000000
00000010
00000100
00000000
00000001
00001000
00000000
00000100
00000010
00000000
00000002
00000000
00000000
00000000
,
00002003
00000000
00003001
00001000
00000100
00000010
00001000
00010000
,
01000000
00100000
00010000
10000000
00100000
01000000
00010000
00100000
,
02000000
00000000
13000000
00100000
00010000
00001000
00000100
00000010
,
00000001
00000010
00001000
00000001
00000010
00000100
00020000
00000000
,
00032000
00000000
00003010
00000100
00001000
00000001
00000100
00001000
,
00010000
01000000
00010000
00001000
00010000
00100000
10000000
00010000
,
00200000
00000000
01300000
10000000
00100000
00010000
00001000
00010000
,
00001000
00000000
00000100
00000000
00000001
00000000
00000010
00000000
00000100
00001000
00000100
00001000
00000002
00000000
00000000
00000000
,
00000013
00000000
00000001
00000100
00000110
00000000
00010000
00001000
,
00011000
00000000
00001000
00100000
00110000
00000000
01000000
00100000
,
10100000
00000000
10000000
01000000
01100000
00000000
00001000
00010000
,
00011000
00000000
00010000
00001000
01001000
00000000
00011000
00000000
,
00001000
00010000
00100000
01000000
00010000
00100000
01000000
00010000
,
00001000
00000010
00000100
00001000
00000010
00000100
00001000
00010000
,
00001000
00010000
00001000
00010000
00001000
00010000
00001000
00010000
00001000
00100000
00001000
00100000
00001000
00100000
00001000
00100000
,
00001000
00000000
00010000
00000000
00022000
00033000
00000220
00000330
,
00001000
00000100
00000010
00000001
00001000
00000000
00000110
00000000
,
00011000
00000000
00001000
00010000
01000000
00000000
00110000
00000000
,
00010000
01000000
10000000
01000000
00000000
00000000
00010000
00000000
00000000
20010000
00000000
00000000
,
30010000
10000000
00100000
00010000
00001000
00010000
00000010
00000000
,
00001000
00000000
00000000
00000000
00000100
00000000
00000000
00000000
00000010
00000000
00000000
00000000
00000001
00000000
00000000
00000000
00000000
00000000
00000000
00000000
00000000
00000000
00000000
00000000
00001000
00000000
00000000
00000000
00000000
00000000
00000001
00000000
00000000
00000000
00000000
00000000
00000010
00000000
00000000
00000000
00000000
00000000
00000000
00000000
00000000
00000100
00000000
00000000
,
00010000
00000000
00000000
00000000
00000000
00000000
00001000
00000000
00000000
00010000
00000000
00000000
00011000
00000000
00000000
00000000
00000000
00000000
00010000
00000000
00001000
00000000
00000100
00000000
,
00001000
00011000
01100000
10010000
,
10000000
00000000
00010000
00000000
00200000
02300000
23000000
30200000
,
00310000
00001000
00011000
00000000
00001100
00000000
00000101
00000000
,
00001002
00000000
00000000
00000000
00002003
00000000
00000000
00000000
00003002
00000000
00000000
00000000
00000203
00000320
00000230
00000320
,
00000130
00000110
00000000
00000011
00000000
00001100
00000000
00110000
,
00000000
00000000
11000000
00000000
00000000
00000000
10010000
00000000
00000000
00000000
10000000
00000000
01000000
00000000
00100000
00001000
,
00010000
00011000
00010010
00101000
,
00010100
00000000
00000000
00000000
01001000
00000000
00000000
00000000
00010010
00000000
00000000
00000000
00022000
00000000
00000000
00033000
,
00010000
00001000
00000100
00000001
00001000
00000100
00000010
00000001
,
00001000
00000000
00000100
00000000
00000110
00000000
00000001
00000000
00000100
00000000
00000110
00000000
,
00001001
00000000
00000000
00000000
00000001
00000000
00000000
00000010
00000000
00001000
00000000
00000000
00100000
00000000
01000000
10000000
,
00010000
00000000
01000000
00000000
00100000
00000000
00100000
00000000
00000000
00100000
00000000
00000000
10000000
00000000
01000000
00000000
,
01100000
00000000
00000000
00000000
10000000
00000000
00000000
01000000
00000000
00010000
00000000
00000000
00000100
00000000
00000010
00000001
,
00001000
00000000
00000010
00000000
00000100
00000000
00001000
00000000
00000000
00010000
00000000
00000000
00000010
00000000
00001000
00000000
,
00001001
00000000
00000001
00000000
00000100
00000000
00001000
00000000
00010000
00000000
01000000
00000000
,
10000000
00000000
00000000
00000000
00100000
00000000
00000000
00000000
00010000
00000000
00000000
00000000
00001000
00000000
00000000
00000010
00000000
00000000
00000001
00000000
00000000
00001000
00000000
00000000
,
00000010
00000100
00001000
00010000
00001000
00000100
00000001
00001000
,
00000100
00000010
00000001
00000000
00001000
00000010
00010000
00000000
00001000
00010000
00000010
00001000
00000001
00000010
00000100
00000000
,
00001000
00000000
00000010
00010000
00000000
00001000
00100000
00000000
00001000
00010000
00000000
00100000
01000000
00000000
00010000
00000000
,
20010000
00000000
00000000
00000000
32000000
00000000
00000000
00000000
03010000
00000000
00001000
00000000
00010000
00000000
00000010
00010000
,
00001000
00000000
00010000
00100000
00000000
01000000
10000000
00000000
01000000
00010000
00000000
10000000
01000000
00000000
00100000
00000000
,
00120000
00000000
00000000
00000000
02030000
00000000
00000000
00000000
03001000
00000000
00010000
00000000
00001000
00000000
00000100
00000001
,
00001000
00000000
00000100
00000001
00000000
00000100
00000010
00000000
00000001
00001000
00000000
00000010
00000100
00000000
00000001
00000000
,
00002001
00000000
00000000
00000000
00003200
00000000
00000000
00000000
00010300
00000000
00000010
00000000
00010000
00000000
00001000
00100000
,
00010000
00000000
00100000
01000000
10000000
00000000
00100000
01000000
00010000
10000000
00000000
01000000
00100000
00000000
00001000
00000000
,
00010000
00000000
00001000
00000000
00010000
00000000
00100000
00000000
10000000
00000000
00100000
00000000
02000000
00000000
00000000
00000000
00000000
00000000
03010000
00000000
00000000
10000000
00000000
00000000
,
10010000
00000000
00000000
00000000
;

//--------------- dance-double - Fred-104 ----------------
#NOTES:
     dance-double:
     Fred-104:
     Hard:
     18:
     :
00000000
00000000
00000000
00000000
,
00000000
00000000
00000000
00000000
,
00000000
00000000
00000000
00000000
,
00000000
00000000
00000000
00000000
,
00000000
00000000
00000000
00000000
,
00000000
00000000
00000000
00000000
,
00021000
00031000
00000100
00000001
,
00002100
00003001
00000100
00001000
,
00021000
00031000
00010000
00100000
,
20010000
31000000
00100000
00001000
,
00012000
00000000
00000000
00013000
00100000
00000000
01000000
00000000
00010000
10000000
00000000
01000000
00100000
00000000
00010000
00000000
,
20010000
00000000
00000000
00000000
00000000
00000000
00000000
00000000
00000000
30100000
00000000
00000000
10000000
00000000
00000000
00000000
00000000
00000000
00010000
00000000
00000000
00000000
00000000
00000000
00100000
00000000
00000000
00001000
00000000
00000000
00000000
00000000
00000000
00010000
00000000
00000000
00000010
00000000
00000000
00000000
00000000
00000000
00001000
00000000
00000001
00000000
00001000
00000000
,
00000200
00000000
00000000
00000310
00000001
00000000
00001000
00000000
00000010
00000100
00000000
00001000
00010000
00000000
00001000
00000000
,
00021000
00000000
00000000
00000000
00000000
00000000
00000000
00000000
00000000
00031000
00000000
00000000
01000000
00000000
00000000
00000000
00000000
00000000
00010000
00000000
00000000
00000000
00000000
00000000
10000000
00000000
00000000
01000000
00000000
00000000
00000000
00000000
00000000
00100000
00000000
00000000
00010000
00000000
00000000
00000000
00000000
00000000
10000000
00000000
00100000
00000000
10000000
00000000
,
00020000
10030000
00100000
01000000
00100000
00010000
00001000
00010000
,
00000200
00000310
00000001
00001000
00000010
00000100
00001000
00010000
,
00001000
00010000
00001000
00010000
01000000
00100000
01000000
00100000
00010000
10000000
00100000
01000000
00100000
00010000
00001000
00010000
,
00002000
00000000
00000000
00003000
,
10010000
00000000
00000000
00000000
,
00000000
00000000
00000000
00000000
,
00000011
00000000
00001010
00000000
00000101
00000000
00001100
00000000
00011000
00000000
01010000
00000000
,
11000000
00000000
00000000
00010000
00000000
00010000
00000000
00000000
10000000
00000000
10000000
00000000
,
00010000
00000000
10000000
00100000
01000000
00100000
10000000
00000000
00010000
00100000
01000000
00100000
00010000
00000000
00100000
00000000
,
00001000
00000000
00010000
00000000
00001000
00000000
00000100
00000000
00000010
00001000
00000001
00000000
00000010
00000000
00000100
00000000
,
00001000
00000000
00000001
00000100
00000010
00000100
00000001
00000000
00001000
00000100
00000010
00000100
00000010
00000000
00001000
00000000
,
00010000
00000000
00000100
00000000
00010000
00000000
00001000
00000000
00010000
00000000
01000000
00000000
00100000
00010000
10000000
00100000
,
01000000
00000000
00001000
00010000
00001000
01000000
00010000
00000000
00100000
00001000
00010000
00001000
00000100
00000000
00000010
00000000
,
00001000
00000000
00000100
00000000
00000010
00000000
00001000
00000000
00010000
01000000
00100000
00000000
00010000
01000000
00100000
00000000
,
10000000
00000000
01000000
00100000
00010000
00100000
00001000
00000000
00010000
00001000
00010000
00000010
00001000
00000000
00000010
00000000
,
00010000
00000000
00001000
00000000
00000100
00000000
00000001
00000000
00001000
00000100
00000010
00000001
00001000
00000010
00010000
00001000
,
00010000
00000000
00001000
00010000
00100000
00000000
01000000
00010000
10000000
01000000
10000000
01000000
00100000
00000000
00001000
00000000
,
00020000
00001000
00030020
00001000
00020030
00001000
00030200
00001000
,
00010300
00000000
00001000
00000100
00000010
00000000
00000100
00000010
00001000
00000001
00000010
00000100
00000010
00000000
00000100
00000000
,
00001000
00000000
00000010
00000100
00001000
00000000
00010000
00001000
00100000
00010000
10000000
00010000
02000000
00000000
00000000
00000000
,
03010000
00000000
10000000
00100000
01000000
00000000
00100000
00010000
00001000
00010000
00000100
00001000
00000001
00000000
00001000
00000000
,
00000100
00000010
00000001
00000000
00001000
00000010
00000100
00000000
00000001
00000010
00000100
00000000
00010000
00001000
00100000
00000000
,
00010000
00000000
00100000
01000000
10000000
00000000
00100000
10000000
01000000
10000000
00010000
00000000
01000000
00100000
10000000
00000000
,
01000000
00100000
00010000
00100000
00001000
00010000
00000100
00001000
00000010
00000100
00000010
00001000
00000001
00000000
00000010
00000000
,
00000001
00000100
00000010
00000100
00001000
00010000
00100000
10000000
,
00010000
00100000
00001000
00000010
00010000
00100000
00001000
00010000
,
00001000
00000100
00000001
00001000
00000100
00000010
00000001
00001000
,
00000001
00000100
00000001
00001000
00000100
00010000
00001000
00100000
00010000
00100000
01000000
10000000
00020000
00000000
00000000
00000000
,
01030000
00100000
00010000
00001000
00010000
00001000
00000010
00000100
,
00010000
01000000
00010000
00000100
00010000
01000000
00010000
00001000
,
00010000
00000100
00000010
00000001
00001000
00000010
00000100
00001000
,
00010000
00001000
01000000
00010000
01000000
00001000
00010000
00001000
00000100
00000010
00000001
00000010
00002000
00000000
00000000
00000000
,
00003001
00000010
00000001
00000010
00001000
00010000
00001000
00010000
,
00100000
10000000
00100000
10000000
00010000
10000000
00010000
10000000
,
01000000
00010000
01000000
00010000
00001000
00000100
00001000
00000100
,
00000001
00001000
00000001
00001000
00000010
00000100
00000001
00001000
,
00000001
00000010
00000100
00000010
00001000
00010000
01000000
00100000
,
10000000
00100000
00010000
01000000
00100000
00010000
00001000
00010000
,
00001000
00100000
00010000
10000000
00100000
01000000
00001000
00010000
00000100
00001000
00000100
00000010
00000001
00001000
00000010
00010000
,
00001000
00000000
00010000
00000000
00022000
00033000
02200000
03300000
,
10010000
00000000
00010000
00000000
10000000
00000000
01000000
00000000
00100000
00000000
00000000
00000000
00110000
00000000
00100000
00001000
,
00010000
00000000
00000000
00000000
00000000
00000000
00001000
00000000
00000000
00010000
00000000
00000000
00011000
00000000
00000000
00000000
00000000
00000000
00010000
00000000
00000000
00000000
00001000
00000000
,
00000100
00000010
00001000
00000001
00000000
00000000
00001001
00000000
00000000
00000001
00000000
00000100
,
00000010
00000000
00000100
00000000
00001000
00000000
00010000
00000000
00001000
00000000
00000000
00000000
00011000
00000000
00000000
00001000
,
00010000
00000000
00000000
00000000
00100000
00000000
00000000
00000000
01000000
00000000
00000000
00000000
00010000
00000000
00000000
00000000
00000000
00000000
10000000
00000000
00000000
00000000
00000000
00000000
11000000
00000000
00000000
00000000
00000000
00000000
00000000
00000000
00000000
00000000
00000000
00000000
00011000
00000000
00000000
00000000
00000000
00000000
00010000
00000000
00000000
00001000
00000000
00000000
,
00000100
00000000
00000000
00000000
00000000
00000000
00000001
00000000
00000000
00000010
00000000
00000000
00000110
00000000
00000000
00000000
00000000
00000000
00000001
00000000
00000010
00000000
00001000
00000000
,
00010000
00000000
00000000
00000000
00011000
00000000
00000000
00000000
01100000
00000000
00000000
00000000
10010000
00000000
00000000
10000000
,
01000000
00000000
00100000
00001000
00010000
00000000
00001000
00000000
00010000
00000000
00010000
00000000
00002000
00023000
00032000
00023000
,
00031000
00000000
00010000
00000000
00011000
00000000
00000000
00000000
00010000
00000000
00001000
00000000
00000100
00000000
00000000
00000010
,
00002000
00000000
00000000
00000000
00003002
00000000
00000000
00000000
00000203
00000000
00000000
00000000
00002300
00023000
00032000
00023000
,
00031000
00000000
00010000
00001000
00000000
00000000
00001000
00010000
00000000
00000000
00010000
01000000
00000000
00000000
01000000
10000000
,
00000000
00000000
10000000
00100000
00000000
00000000
00100000
00010000
00000000
00000000
00010000
00001000
00010000
00000010
00001000
00000010
,
00010000
00000000
00001000
00000000
00011000
00000000
00000000
00000000
00000110
00000000
00000000
00000000
00011000
00000000
00000000
01000000
,
00100000
00000000
00000000
00000000
01100000
00000000
00000000
00000000
00011000
00000000
00000000
00000000
00000220
00000000
00000000
00000330
,
00001000
00000000
00000001
00000000
00001000
00000000
00000100
00000000
00000010
00000000
00001000
00010000
00001000
00000000
00010000
00000000
,
00011000
00000000
00101000
00000000
00010010
00000000
01001000
00000000
00010100
00000000
00011000
00000000
,
01100000
00000000
00000000
00000000
10000000
00000000
00000000
01000000
00000000
01100000
00000000
00000000
00001000
00000000
00010000
00001000
,
00000100
00000000
00000001
00000000
00000010
00000000
00000110
00000000
00000000
00000110
00000000
00000000
00010000
00000000
00001000
00000000
,
00011000
00000000
00000000
00000000
00010010
00000000
00000000
00001000
00000000
00101000
00000000
00000000
00001000
00000000
00010000
00100000
,
01000000
00000000
00010000
00000000
10000000
00000000
11000000
00000000
00000000
11000000
00000000
00000000
00100000
00000000
00001000
00000000
,
00011000
00000000
00001010
00000000
00000011
00000000
00001010
00000000
00011000
00000000
01010000
00000000
,
11000000
00000000
00000000
00000000
01010000
00000000
00000000
00000000
01100000
00000000
00000000
00000000
10000000
00000000
00000000
00010000
00000000
00000000
00100000
00000000
00000000
01000000
00000000
00000000
,
10000000
00000000
00010000
00000000
01000000
00001000
00010000
00001000
00100000
00000000
00001000
00010000
00000010
00000000
00001000
00000001
,
00000010
00000000
00001000
00010000
00100000
00000000
01000000
00010000
10000000
01000000
00100000
00010000
01000000
00100000
01000000
00010000
,
20000000
00000000
00000000
31000000
00100000
00000000
01000000
00000000
00010000
00001000
00000000
00000100
00000001
00000000
00000010
00000000
,
00000012
00000000
00000000
00000000
00000000
00000000
00000000
00000000
00000000
00001003
00000000
00000000
00000010
00000000
00000000
00000000
00000000
00000000
00000001
00000000
00000000
00000000
00000000
00000000
00000010
00000000
00000000
00000100
00000000
00000000
00000000
00000000
00000000
00000010
00000000
00000000
00001000
00000000
00000000
00000000
00000000
00000000
00000100
00000000
00001000
00000000
00000100
00000000
,
00002000
00000000
00000000
00003010
00000100
00000000
00001000
00000000
00010000
00001000
00000000
00100000
00010000
00000000
10000000
00000000
,
10020000
00000000
00000000
00000000
00000000
00000000
00000000
00000000
00000000
10030000
00000000
00000000
01000000
00000000
00000000
00000000
00000000
00000000
00100000
00000000
00000000
00000000
00000000
00000000
00001000
00000000
00000000
00010000
00000000
00000000
00000000
00000000
00000000
00000010
00000000
00000000
00010000
00000000
00000000
00000000
00000000
00000000
00000010
00000000
00001000
00000000
00000010
00000000
,
00002000
00000000
00000000
00003100
00000010
00000000
00000001
00000000
00001000
00000010
00000000
00010000
00001000
00000000
00010000
00000000
,
00012000
00000000
00000000
00000000
00000000
00000000
00000000
00000000
00000000
00013000
00000000
00000000
00100000
00000000
00000000
00000000
00000000
00000000
01000000
00000000
00000000
00000000
00000000
00000000
00010000
00000000
00000000
10000000
00000000
00000000
00000000
00000000
00000000
01000000
00000000
00000000
00100000
00000000
00000000
00000000
00000000
00000000
00010000
00000000
10000000
00000000
00010000
00000000
,
10000000
00000000
01000000
00100000
00001000
00010000
00000100
00000000
00001000
00000100
00000010
00000001
00001000
00000000
00000001
00000100
,
00000001
00000000
00000100
00000000
00001000
00000000
00010000
00000000
00001000
00000000
00000100
00000000
00000002
00000000
00000000
00000000
00000000
00000000
00001003
00000000
00000000
00000100
00000000
00000000
,
00000110
00000000
00000000
00000000
;

//--------------- dance-double - Fred-104 ----------------
#NOTES:
     dance-double:
     Fred-104:
     Challenge:
     19:
     :
00000000
00000000
00000000
00000000
,
00000000
00000000
00000000
00000000
,
00000000
00000000
00000000
00000000
,
00000000
00000000
00000000
00000000
,
00000000
00000000
00000000
00000000
,
00000000
00000000
00000000
00000000
,
00021000
00030000
00010010
00000000
00010000
00000000
00001000
00000000
,
00012000
00003000
00101000
00000000
00001000
00000000
00010000
00000000
,
00021000
00030000
00010100
00000000
00001000
00000000
00010000
00000000
,
00012000
00003000
01001000
00000000
00010000
00000000
00001000
00000000
,
01200000
00000000
00000000
10300000
01000000
00100000
00010000
00000000
00100000
00001000
00000000
00010000
00001000
00000000
00010000
00000000
,
00010020
00000000
00000000
00000000
00000000
00000000
00000000
00000000
00000000
00001030
00000000
00000000
00000010
00000000
00000000
00000100
00000000
00000000
00000001
00000000
00000000
00000000
00000000
00000000
00000010
00000000
00000000
00000100
00000000
00000000
00000000
00000000
00000000
00001000
00000000
00000000
00000100
00000000
00000000
00000000
00000000
00000000
00010000
00000000
00001000
00000000
00010000
00000000
,
00002000
00000000
00000000
00013000
00100000
10000000
00010000
00000000
00100000
01000000
00000000
10000000
01000000
00000000
00100000
00000000
,
00120000
00000000
00000000
00000000
00000000
00000000
00000000
00000000
00000000
00130000
00000000
00000000
00001000
00000000
00000000
00010000
00000000
00000000
00001000
00000000
00000000
00000000
00000000
00000000
00000100
00000000
00000000
00000001
00000000
00000000
00000000
00000000
00000000
00001000
00000000
00000000
00000100
00000000
00000000
00000000
00000000
00000000
00000010
00000000
00000001
00000000
00000010
00000000
,
00000002
00001003
00000010
00000100
00001000
00010000
00001000
01000000
,
00200000
00310000
00001000
00000100
00000010
00010000
00001000
00100000
,
00010000
00100000
01000000
10000000
00010000
01000000
00100000
00010000
00001000
00000100
00000010
00000001
00000010
00001000
00000001
00000010
,
00000200
00000000
00000000
00000300
,
00011000
00000000
00000000
00000000
,
00000000
00000000
00000000
00000000
,
00001001
00000000
00000011
00000000
00001010
00000000
00011000
00000000
00110000
00000000
10100000
00000000
,
10010000
00000000
00000000
00010000
00000000
01000000
00000000
00000000
01000000
00000000
01000000
00000000
,
10010000
00000000
10000000
01000000
00100000
01000000
00010000
00001000
00010000
00001000
00000000
00001000
00010000
00000000
00001000
00000000
,
00000100
00000000
00000001
00001000
00000100
00000010
00000001
00001000
00000010
00010000
00001000
00010000
00001000
00000000
00010000
00000000
,
00100000
00000000
01000000
00010000
00100000
01000000
10000000
01000000
00100000
00001000
00000000
00001000
00010000
00000000
00001000
00000000
,
00000100
00000000
00000001
00001000
00000100
00000010
00000001
00001000
00000010
00000100
00001000
00010000
00001000
00010000
00001000
00000000
,
00100000
00000000
00000000
00000000
00000000
00000000
01000000
00000000
00000000
10000000
00000000
00000000
00010000
00000000
00000000
01000000
00000000
00000000
00001000
00000000
00000000
00010000
00000000
00000000
00001000
00000000
00010000
00000000
00001000
00000000
00010000
00000000
00000000
00000010
00000000
00000000
00001000
00000000
00000000
00000000
00000000
00000000
00000001
00000000
00000000
00000000
00000000
00000000
,
00001000
00000000
00000000
00000000
00000000
00000000
00000100
00000000
00000000
00000010
00000000
00000000
00000001
00000000
00000000
00001000
00000000
00000000
00000010
00000000
00000000
00000100
00000000
00000000
00001000
00000000
00010000
00000000
00001000
00000000
00010000
00000000
00000000
00001000
00000000
00000000
01000000
00000000
00000000
00001000
00000000
00000000
00010000
00000000
00000000
00000000
00000000
00000000
,
00001000
00000000
00000000
00000000
00000000
00000000
00010000
00000000
00000000
00001000
00000000
00000000
00100000
00000000
00000000
00001000
00000000
00000000
00010000
00000000
00000000
00001000
00000000
00000000
01000000
00000000
00010000
00000000
01000000
00000000
00010000
00000000
00000000
10000000
00000000
00000000
01000000
00000000
00000000
00000000
00000000
00000000
00100000
00000000
00000000
00000000
00000000
00000000
,
00001000
00010000
00001000
00000000
00010000
00000010
00010000
00000000
00001000
00010000
00001000
00000010
00000100
00000010
00000001
00001000
,
00000001
00000000
00001000
00000010
00000100
00000000
00001000
00000100
00000001
00001000
00000100
00000010
00000001
00001000
00000010
00000000
,
00000100
00000000
00001000
00010000
00002000
00000000
00010000
00000000
00013000
01000000
00010000
01000000
20000000
00000000
00010000
00000000
,
30010000
00000000
10000000
01000000
00100000
00000000
00001000
00010000
00000010
00010000
00001000
00010000
00000100
00001000
00000001
00000000
,
00000100
00000010
00000100
00001000
00010000
00001000
00100000
01000000
10000000
00010000
01000000
00100000
20000000
00000000
00000000
00000000
,
30010000
00000000
00100000
01000000
10000000
00000000
00100000
01000000
00100000
00010000
00001000
00010000
00000010
00010000
00001000
00000000
,
00010000
00000000
00000100
00000010
00000002
00000000
00000100
00000000
00002003
00000000
00000010
00000000
00003001
00000000
00000010
00000100
,
00001000
00000000
00000100
00010000
00001000
00000000
00010000
00100000
10000000
00010000
00100000
01000000
00100000
00010000
00001000
00000000
,
00000100
00000010
00000001
00001000
00000010
00000100
00001000
00010000
00001000
00010000
01000000
00100000
00010000
10000000
00100000
00010000
,
00001000
00010000
00001000
00000010
00000001
00000100
00010000
01000000
,
00002000
00023000
00230000
20300000
30020000
00230000
02300000
23000000
,
30100000
01000000
00100000
00010000
00001000
00010000
00000100
00001000
,
00000001
00000000
00000000
00001000
00000000
00000000
00000010
00000000
00000000
00010000
00000000
00000000
00001000
00000000
00000000
00100000
00000000
00000000
00010000
00000000
00000000
10000000
00000000
00000000
00100000
00000000
00000000
01000000
00000000
00000000
00001000
00000000
00000000
00010000
00000000
00000000
00001000
00000000
00100000
00000000
00010000
00000000
00100000
00000000
00010000
00000000
00100000
00000000
,
01000000
10000000
00010000
01000000
00100000
00010000
00001000
00010000
,
00002000
00023000
02030000
03200000
00320000
00032000
00003200
00000320
,
00000031
00000000
00000100
00000000
00001000
00000000
00010000
00000000
00001000
00100000
00010000
00100000
00001000
00000000
00010000
00000000
,
00100000
00000000
00000000
01000000
00000000
00000000
00010000
00000000
00000000
10000000
00000000
00000000
01000000
00000000
00000000
00100000
00000000
00000000
00001000
00000000
00000000
00010000
00000000
00000000
00001000
00000000
00000000
00000100
00000000
00000000
00000001
00000000
00000000
00001000
00000000
00000000
00000100
00000000
00000010
00000000
00000100
00000000
00000010
00000000
00000100
00000000
00000010
00000000
,
00000001
00000001
00000100
00000100
00001000
00001000
00010000
00010000
,
00100000
00100000
10000000
10000000
01000000
00100000
00011000
00000000
,
00010000
00010000
00001000
00001000
00000100
00000100
00000001
00000001
,
00000010
00000000
00000000
00000010
00000000
00000000
00001000
00000000
00000000
00001000
00000000
00000000
00010000
00000000
00000000
00010000
00000000
00000000
00001000
00010000
00001000
00010000
00000000
00000000
,
00001000
00010000
00100000
10000000
00010000
01000000
00001000
00000100
,
00000010
00010000
00001000
00000010
00000001
00000010
00000100
00010000
,
00001000
00010000
00100000
01000000
00010000
10000000
01000000
00100000
01000000
00010000
00001000
00000010
00000100
00001000
00000001
00001000
,
00000010
00000000
00010000
00000000
00022000
00033000
02200000
03300000
,
10010000
00000000
10000000
00000000
01000000
00000000
00010000
00000000
00001000
00000000
00000000
00000000
00011000
00000000
00010000
00001000
,
00000100
00000000
00000000
00000000
00000000
00000000
00000001
00000000
00000000
00000011
00000000
00000000
00000110
00000000
00000000
00000000
00000000
00000000
00001001
00000000
00000000
00000000
00000001
00000000
,
00000100
00001000
00010000
00001000
00000000
00000000
01100000
00000000
00000000
10010000
00000000
10000000
,
10000000
00000000
01000000
00000000
01100000
00000000
00100000
00000000
00001000
00000000
00010000
00000000
00011000
00000000
00000000
00001000
,
00010000
00000000
00000000
00000000
00010000
00000000
00000000
00000000
00010000
00000000
00000000
00000000
00001000
00000000
00000000
00000000
00000000
00000000
00010000
00000000
00000000
00000000
00000000
00000000
00011000
00000000
00000000
00000000
00000000
00000000
00000000
00000000
00000000
00000000
00000000
00000000
00000110
00000000
00000000
00000000
00000000
00000000
00001000
00000000
00000000
00000100
00000000
00000000
,
00000010
00000000
00000000
00000000
00000000
00000000
00000001
00000000
00000000
00000110
00000000
00000000
00001001
00000000
00000000
00000000
00000000
00000000
00000001
00000000
00000100
00000000
00001000
00000000
,
00011000
00000000
00000000
00000000
01010000
00000000
00000000
00000000
11000000
00000000
00000000
00000000
10010000
00000000
00000000
10000000
,
01000000
00000000
00010000
01000000
10000000
00000000
00100000
00000000
00010000
00000000
00010000
00000000
00002000
00023000
00032000
00023000
,
00031000
00000000
00001000
00000000
00011000
00000000
00000000
00000000
00001001
00000000
00000001
00000000
00000100
00000000
00000000
00001000
,
00020000
00000000
00000000
00000000
00032000
00000000
00000000
00000000
00003020
00000000
00000000
00000000
00000032
00000023
00000230
00020300
,
00032000
00000000
00013000
00000000
00001000
00010000
00200000
00000000
10300000
00100000
00020000
00000000
00031000
00010000
00002000
00000000
,
00003100
00000001
00002000
00000000
00003100
00000010
00002000
00000000
00013000
00001000
00010000
00100000
01000000
00010000
10000000
01000000
,
00100000
00000000
00100000
00000000
00101000
00000000
00000000
00000000
00010010
00000000
00000000
00000000
00011000
00000000
00000000
00000010
,
00001000
00000000
00000000
00000000
00000101
00000000
00000000
00000000
00001100
00000000
00000000
00000000
00022000
00000000
00000000
00033000
,
00001000
00000000
00010000
00000000
00100000
00000000
10000000
00000000
01000000
00000000
00100000
00001000
00010000
00000000
00001000
00000000
,
00011000
00000000
00010010
00000000
00001010
00000000
00000011
00000000
00000101
00000000
00001100
00000000
,
00000220
00000000
00000330
00000000
00001001
00000000
00000000
00000011
00000000
00000011
00000000
00000000
00000001
00000000
00000100
00001000
,
00010000
00000000
00100000
00000000
01000000
00000000
01010000
00000000
00000000
01010000
00000000
00000000
10000000
00000000
01000000
00000000
,
02200000
00000000
03300000
00000000
00011000
00000000
00000000
00010100
00000000
00010100
00000000
00000000
00010000
00000000
00001000
00000100
,
00000010
00000000
00010000
00000000
00000100
00000000
00010100
00000000
00000000
00010100
00000000
00000000
00010000
00000000
00001000
00000000
,
00011000
00000000
00110000
00000000
10100000
00000000
11000000
00000000
01010000
00000000
00011000
00000000
,
00001010
00000000
00000000
00000000
00000011
00000000
00000000
00000000
00001001
00000000
00000000
00000000
00000001
00000000
00000000
00000001
00000000
00000000
00001000
00000000
00000000
00001000
00000000
00000000
,
00000001
00000000
00000100
00000000
00000010
00000100
00001000
00010000
00001000
00100000
01000000
10000000
00010000
00000000
01000000
00100000
,
00010000
00000000
00001000
00010000
01000000
00000000
00100000
00010000
01000000
00100000
10000000
00100000
01000000
00010000
10000000
01000000
,
00100000
00000000
00010000
10000000
01000000
00010000
00001000
00010000
00001000
00000100
00000001
00001000
00000001
00000000
00000010
00000000
,
00000210
00000000
00000000
00000000
00000000
00000000
00000000
00000000
00000000
00001300
00000000
00000000
00000001
00000000
00000000
00000000
00000000
00000000
00000100
00000000
00000000
00000000
00000000
00000000
00000010
00000000
00000000
00000100
00000000
00000000
00000000
00000000
00000000
00001000
00000000
00000000
00010000
00000000
00000000
00000000
00000000
00000000
00001000
00000000
00100000
00000000
00001000
00000000
,
00100000
00000000
00001000
00010000
00100000
01000000
00100000
00010000
00100000
10000000
00010000
00100000
01000000
00010000
00001000
00000000
,
00021000
00000000
00000000
00000000
00000000
00000000
00000000
00000000
00000000
00031000
00000000
00000000
00000100
00000000
00000000
00000000
00000000
00000000
00000001
00000000
00000000
00000000
00000000
00000000
00000010
00000000
00000000
00000100
00000000
00000000
00000000
00000000
00000000
00001000
00000000
00000000
00000100
00000000
00000000
00000000
00000000
00000000
00010000
00000000
00001000
00000000
00010000
00000000
,
00001000
00000000
00000100
00000010
00001000
00000001
00000010
00001000
00010000
00001000
00010000
01000000
00100000
00010000
10000000
00000000
,
10020000
00000000
00000000
00000000
00000000
00000000
00000000
00000000
00000000
01030000
00000000
00000000
10000000
00000000
00000000
00000000
00000000
00000000
01000000
00000000
00000000
00000000
00000000
00000000
00010000
00000000
00000000
10000000
00000000
00000000
00000000
00000000
00000000
01000000
00000000
00000000
00100000
00000000
00000000
00000000
00000000
00000000
00001000
00000000
00010000
00000000
00001000
00000000
,
00010000
00000100
00001000
00000001
00000100
00000010
00000100
00001000
00010000
00100000
01000000
10000000
01000000
00010000
10000000
01000000
,
00100000
00010000
00100000
00010000
00100000
00001000
00010000
00000000
00001000
00000000
00000100
00000000
00000002
00000000
00000000
00000000
00000000
00000000
00000013
00000000
00000000
00000100
00000000
00000000
,
00001001
00000000
00000000
00000000
;
