#TITLE:0\/1 ANGEL;
#ARTIST:V.C.O. featuring Alt;
#TITLETRANSLIT:01 ANGEL;
#GENRE:A.I.TECHNO;
#BANNER:0-1 ANGEL.png;
#BACKGROUND:0-1 ANGEL-bg.png;
#CDTITLE:./CDTitles/pnm 8.png;
#MUSIC:0-1 ANGEL.ogg;
#SAMPLESTART:54.857;
#SAMPLELENGTH:15;
#BPMS:0=140;
#BGSTAGE:16;

//--------------- dance-single - Fred-104 ----------------
#NOTES:
     dance-single:
     Fred-104:
     Beginner:
     1:
     :
0000
0000
0000
0000
,
0000
0000
0000
0000
,
0000
0000
0000
0000
,
0000
0000
0000
0000
,
0000
0000
0000
0000
,
0000
0000
0000
0000
,
1000
0000
0000
0000
,
0000
0000
0000
0000
,
0001
0000
0000
0000
,
0000
0000
0000
0000
,
1000
0000
0000
0000
,
0000
0000
0000
0000
,
0001
0000
0000
0000
,
0000
0000
0000
0000
,
0100
0000
0000
0000
,
0000
0000
0000
0000
,
0001
0000
0000
0000
,
0000
0000
0000
0000
,
1000
0000
0000
0000
,
0000
0000
0000
0000
,
0001
0000
0000
0000
,
0000
0000
0000
0000
,
1000
0000
0000
0000
,
0000
0000
0000
0000
,
0001
0000
0000
0000
,
0000
0000
0000
0000
,
0100
0000
0000
0000
,
0000
0000
0000
0000
,
0001
0000
0000
0000
,
0000
0000
0000
0000
,
1000
0000
0000
0000
,
0000
0000
0000
0000
,
0010
0000
0000
0000
,
0000
0000
0000
0000
,
1000
0000
0000
0000
,
0000
0000
0000
0000
,
0100
0000
0000
0000
,
0000
0000
0000
0000
,
1000
0000
0000
0000
,
0000
0000
0000
0000
,
0001
0000
0000
0000
,
0000
0000
0000
0000
,
1000
0000
0000
0000
,
0000
0000
0000
0000
,
0010
0000
0000
0000
,
0000
0000
0000
0000
,
0100
0000
0000
0000
,
0000
0000
0000
0000
,
0001
0000
0000
0000
,
1000
0000
0000
0000
,
0001
0000
0000
0000
,
0100
0000
0000
0000
,
0001
0000
0000
0000
,
1000
0000
0000
0000
,
0001
0000
0000
0000
,
1000
0000
0000
0000
,
0001
0000
0000
0000
;

//--------------- dance-single - Fred-104 ----------------
#NOTES:
     dance-single:
     Fred-104:
     Easy:
     3:
     :
0000
0000
0000
0000
,
0000
0000
0000
0000
,
0000
0000
0000
0000
,
0000
0000
0000
0000
,
0000
0000
0000
0000
,
0000
0000
0000
0000
,
1000
0000
0001
0000
,
1000
0000
0100
0000
,
1000
0000
0001
0000
,
0100
0000
0010
0100
,
0010
0000
0100
0000
,
0001
0000
1000
0001
,
1000
0000
0010
0000
,
1000
0000
0100
1000
,
0001
0000
1000
0000
,
0001
0000
0100
0001
,
0100
0000
0010
0000
,
0100
0000
0001
1000
,
0001
0000
0010
0000
,
0100
0000
1000
0001
,
1000
0000
0001
0000
,
0100
0000
0010
0100
,
0020
0030
0200
0300
,
0002
0003
2000
3000
,
0002
0000
0000
0003
,
2000
0000
3001
1000
,
0010
0000
1000
0000
,
0002
0000
0000
0003
,
1001
0000
1000
0000
,
0010
1000
0010
0000
,
0100
0000
0001
0000
,
1000
0001
0020
0030
,
1001
0000
0001
0000
,
0001
1000
0001
0000
,
0100
0000
0010
0000
,
1000
0010
1000
0000
,
0001
0000
1000
0000
,
0100
1000
0100
0000
,
1000
0000
0001
0000
,
0100
0010
0100
0000
,
0001
0000
1000
0000
,
0010
1000
0001
0000
,
1000
0000
0100
0000
,
1000
0001
0100
0000
,
0001
0000
0001
0000
,
1000
0000
1000
0000
,
0010
0000
0010
0000
,
0100
0000
0100
0100
,
0100
0000
0001
0000
,
2000
0000
3000
0000
,
0001
0000
1000
0000
,
0020
0000
0030
0000
,
1000
0000
0100
0000
,
0020
0000
0030
0000
,
0001
0000
1000
0000
,
0001
0001
1000
1000
,
1001
0000
0000
0000
;

//--------------- dance-single - Fred-104 ----------------
#NOTES:
     dance-single:
     Fred-104:
     Medium:
     8:
     :
0000
0000
0000
0000
,
0000
0000
0000
0000
,
0000
0000
0000
0000
,
0000
0000
0000
0000
,
0000
0000
0000
0000
,
0000
0000
0000
0000
,
0001
0000
0000
0100
0000
0000
0001
0000
,
1000
0000
0000
0001
0000
0000
0100
0000
,
0010
0000
0000
0100
0000
0000
0001
0000
,
1000
0000
0000
0100
0000
0000
0010
0001
,
0010
0000
0000
0001
0000
0000
1000
0000
,
0001
0000
0100
0010
0100
0000
0001
0000
,
1000
0000
0000
0100
0000
0000
0010
0000
,
0100
0000
0000
1000
0000
0000
0010
0000
,
0110
0000
0000
0001
0000
0000
1000
0000
,
0010
0000
0000
1000
0000
0000
0001
0000
,
0100
0000
0000
0010
0000
0000
0100
0000
,
0001
0000
0000
0010
0000
0000
0100
0000
,
1000
0000
0000
0001
0000
0000
0100
0000
,
0010
0000
1000
0100
1000
0000
0001
0000
,
0100
0000
0000
0001
0000
0000
1000
0000
,
0001
0000
0000
0010
0000
0000
0100
0000
,
2000
3020
0032
0203
,
1300
0001
0000
0100
0000
0010
1000
0100
,
2000
3002
0203
0320
,
2030
3002
0023
0230
,
2300
3200
0302
0023
,
1030
0001
0000
0100
0000
0001
0010
0001
,
1000
0010
0100
0000
,
0010
0000
1000
0000
0100
0010
0001
0000
,
0100
0000
0010
0000
0100
0001
0010
0000
,
0001
0100
0220
0330
,
1001
0000
0001
0010
0001
0000
1000
0010
,
0000
1000
0001
1000
0100
0000
1000
0100
,
0010
0100
1000
0000
0001
0000
0100
0010
,
0100
0001
0100
0000
0010
0000
0100
0000
,
0110
0000
0010
1000
0010
0000
1000
0100
,
0000
1000
0001
0000
0100
0000
0001
0010
,
0001
1000
0001
0000
0100
0000
0010
0100
,
0001
0100
0010
0000
0100
0000
0001
0000
,
1001
0000
1000
0010
0100
0000
0010
1000
,
0000
0001
1000
0000
0100
0000
1000
0001
,
0010
0001
1000
0000
0001
0000
0100
0010
,
1000
0000
0010
0100
0000
0001
1000
0000
,
0002
0000
0000
0023
0000
0000
0230
0000
,
0000
0000
1300
0000
0001
0100
0010
0000
,
0200
0000
0000
0302
0000
0000
2003
0000
,
0000
0000
3100
0000
0010
0001
0010
0000
,
0001
0000
1000
0001
0010
0000
0001
0100
,
0010
0100
0001
0000
0010
0000
0100
0000
,
1000
0000
0010
1000
0001
0000
1000
0100
,
0010
0100
1000
0000
0001
0000
0100
0000
,
0010
0000
1000
0001
0100
0000
0001
1000
,
0100
1000
0001
0000
0010
0000
0100
0000
,
1000
0000
0001
1000
0010
0000
0100
0001
,
1000
0100
0010
0000
0001
1000
0001
2000
,
3000
0000
0000
0000
;

//--------------- dance-single - Fred-104 ----------------
#NOTES:
     dance-single:
     Fred-104:
     Hard:
     11:
     :
0000
0000
0000
0000
,
0000
0000
0000
0000
,
0000
0000
0000
0000
,
0000
0000
0000
0000
,
0000
0000
0000
0000
,
0000
0000
0000
0000
,
2100
0000
3100
2000
0000
3001
1000
0010
,
0200
0000
0301
2000
0000
3100
1000
0001
,
0020
0000
0031
2000
0000
3001
0010
0001
,
2000
0000
3001
0010
0100
1000
0001
0100
,
0002
0000
1003
0200
0000
1300
0001
0010
,
0002
0000
0013
0200
0000
1300
0001
0100
,
0002
0000
1003
0002
0000
0103
0010
0100
,
0002
0000
0013
0100
1000
0001
0100
0001
,
2000
0000
3100
2000
0000
3001
1000
0010
,
0200
0000
0310
2000
0000
3001
0010
0100
,
2000
0000
3001
0200
0000
0301
1000
0100
,
2000
0000
3001
0100
0010
0100
1000
0100
,
0002
0000
1003
0200
0000
0310
0001
1000
,
0020
0000
0000
0000
0130
0000
0001
1000
0001
0000
0010
0000
0100
0000
0010
0000
,
0002
0000
0013
0200
0000
1300
0001
0100
,
0002
0000
0013
1000
0010
0100
0010
0001
,
0200
0010
0001
0310
,
0100
0002
0000
2003
0000
3001
0010
0100
,
2000
0000
3010
1000
0200
0000
0320
0000
,
0032
2003
3020
0230
,
0302
0100
0010
0103
,
0001
0020
0000
0230
0000
1300
0001
0100
,
0010
1000
0010
0100
0010
1000
0001
0200
,
0000
0301
0010
0001
1000
0200
0000
2300
,
0000
3001
0100
0001
0010
0100
1000
0002
,
0000
0000
0103
0000
0010
0000
1000
0100
0000
1000
0100
0000
2000
3000
0002
0003
,
0101
0000
0001
0010
1000
0000
0010
0100
,
0000
1000
0001
0100
0110
0000
1000
0010
,
0100
0001
1000
0000
1100
0000
0100
0010
,
0001
1000
0010
0100
0001
0100
0101
0000
,
1001
0000
1000
0001
0010
0000
0100
0001
,
0000
0100
0010
0001
1001
0000
1000
0010
,
0100
1000
0100
0010
1000
0000
0010
1000
,
0001
0000
0100
0000
0010
0000
0100
0000
0110
0000
0000
0000
0010
0000
1000
0001
,
1000
0100
1000
0001
0100
0010
0001
0010
,
0000
0100
0001
1000
0010
0000
0100
0001
,
0010
0100
1000
0100
0010
0000
0001
1000
,
1100
0000
0001
0100
0010
1000
0001
1000
,
1001
0000
1000
0200
0000
0310
2000
0000
,
3010
0000
0100
1000
0001
0100
0010
0100
,
0002
0000
0103
0020
0000
0031
0010
0000
,
0100
0000
0000
0000
0001
0000
1000
0000
0100
0000
1000
0000
0001
0100
0001
0000
,
1000
0000
0001
0100
0000
0100
0010
0000
0100
0000
0001
0000
1000
0000
0001
0000
,
0010
0000
0001
0000
1000
0000
0010
0000
0100
0001
0100
0000
0010
0000
0100
0000
,
0001
0000
0010
0100
0000
0100
1000
0000
0001
0000
0100
0000
0010
0000
1000
0000
,
0100
0000
0010
0000
0001
0000
0100
0000
0010
1000
0010
0000
1000
0001
1000
0001
,
1000
0000
0001
0010
0000
0010
0100
0000
0010
0000
0001
0000
1000
0000
0010
0000
,
0100
0000
0001
1000
0000
1000
0100
0000
0010
0100
0010
0000
0100
0000
1000
0000
,
0001
0000
0100
0001
0000
0001
1000
0000
0001
0000
0100
0000
0010
0000
1000
0000
,
0002
0000
0203
0000
2300
0000
3200
0000
0301
0010
0001
0000
1000
0001
1000
0002
,
0003
0000
0000
0000
;

//--------------- dance-double - Fred-104 ----------------
#NOTES:
     dance-double:
     Fred-104:
     Easy:
     3:
     :
00000000
00000000
00000000
00000000
,
00000000
00000000
00000000
00000000
,
00000000
00000000
00000000
00000000
,
00000000
00000000
00000000
00000000
,
00000000
00000000
00000000
00000000
,
00000000
00000000
00000000
00000000
,
00001000
00000000
00000001
00000000
,
00001000
00000000
00000010
00000000
,
00001000
00000000
00000001
00000000
,
00000100
00000000
00001000
00010000
,
00001000
00000000
01000000
00000000
,
00100000
00000000
01000000
00100000
,
10000000
00000000
00010000
00000000
,
10000000
00000000
00100000
10000000
,
01000000
00000000
00100000
00000000
,
00001000
00000000
00010000
00001000
,
00010000
00000000
00000100
00000000
,
00010000
00000000
00000100
00001000
,
00000100
00000000
00010000
00000000
,
00000010
00000000
00001000
00000001
,
00001000
00000000
00000010
00000000
,
00010000
00000000
00001000
00010000
,
00002000
00003000
00200000
00300000
,
00020000
00030000
20000000
30000000
,
02000000
00000000
00000000
03000000
,
00200000
00000000
00310000
00100000
,
00001000
00000000
00010000
00000000
,
00002000
00000000
00000000
00003000
,
00011000
00000000
00010000
00000000
,
00001000
00010000
00001000
00000000
,
00010000
00000000
00001000
00000000
,
00000100
00000001
00002000
00003000
,
00001001
00000000
00000001
00000000
,
00000001
00001000
00000001
00000000
,
00000100
00000000
00000010
00000000
,
00010000
00001000
00010000
00000000
,
00001000
00000000
01000000
00000000
,
00100000
01000000
00100000
00000000
,
10000000
00000000
00100000
00000000
,
10000000
01000000
10000000
00000000
,
00100000
00000000
10000000
00000000
,
00010000
10000000
01000000
00000000
,
00100000
00000000
00001000
00000000
,
00010000
00001000
00010000
00000000
,
00000010
00000000
00000010
00000000
,
00001000
00000000
00001000
00000000
,
00000001
00000000
00000001
00000000
,
00000100
00000000
00000100
00000100
,
00000100
00000000
00000010
00000000
,
00020000
00000000
00030000
00000000
,
00001000
00000000
00100000
00000000
,
00020000
00000000
00030000
00000000
,
10000000
00000000
00100000
00000000
,
02000000
00000000
03000000
00000000
,
00010000
00000000
10000000
00000000
,
01000000
00100000
00001000
00010000
,
00011000
00000000
00000000
00000000
;

//--------------- dance-double - Fred-104 ----------------
#NOTES:
     dance-double:
     Fred-104:
     Medium:
     8:
     :
00000000
00000000
00000000
00000000
,
00000000
00000000
00000000
00000000
,
00000000
00000000
00000000
00000000
,
00000000
00000000
00000000
00000000
,
00000000
00000000
00000000
00000000
,
00000000
00000000
00000000
00000000
,
00001000
00000000
00000000
00010000
00000000
00000000
00001000
00000000
,
00100000
00000000
00000000
00010000
00000000
00000000
10000000
00000000
,
00010000
00000000
00000000
01000000
00000000
00000000
00100000
00000000
,
10000000
00000000
00000000
01000000
00000000
00000000
00010000
00001000
,
00010000
00000000
00000000
00000010
00000000
00000000
00000100
00000000
,
00000001
00000000
00000100
00000010
00001000
00000000
00000001
00000000
,
00000010
00000000
00000000
00001000
00000000
00000000
00010000
00000000
,
01000000
00000000
00000000
00100000
00000000
00000000
00010000
00000000
,
10010000
00000000
00000000
00100000
00000000
00000000
10000000
00000000
,
00010000
00000000
00000000
01000000
00000000
00000000
00100000
00000000
,
01000000
00000000
00000000
00001000
00000000
00000000
00010000
00000000
,
00001000
00000000
00000000
00000010
00000000
00000000
00000100
00000000
,
00001000
00000000
00000000
00000100
00000000
00000000
00000010
00000000
,
00000001
00000000
00000100
00000010
00001000
00000000
00000100
00000000
,
00010000
00000000
00000000
00001000
00000000
00000000
01000000
00000000
,
00010000
00000000
00000000
00100000
00000000
00000000
01000000
00000000
,
20000000
30200000
00320000
00032000
,
00003100
00000010
00000000
00001000
00000000
00000100
00000010
00000001
,
00002000
00003002
00000023
00000230
,
00000320
00002030
00023000
02030000
,
03200000
00320000
20030000
30200000
,
01300000
00010000
00000000
00100000
00000000
00001000
00010000
00001000
,
00000100
00000010
00001000
00000000
,
00000100
00000000
00000010
00000000
00000001
00000100
00001000
00000000
,
00010000
00000000
00100000
00000000
01000000
00010000
10000000
00000000
,
00010000
00100000
02200000
03300000
,
10010000
00000000
00010000
01000000
00100000
00000000
10000000
00010000
,
00000000
10000000
00100000
01000000
00001000
00000000
00010000
00001000
,
00100000
00001000
00010000
00000000
00000100
00000000
00001000
00000100
,
00000010
00000100
00001000
00000000
00000001
00000000
00000100
00000000
,
00000110
00000000
00000001
00000100
00001000
00000000
00010000
00100000
,
00000000
01000000
00010000
00000000
10000000
00000000
00100000
01000000
,
00010000
10000000
00010000
00000000
10000000
00000000
01000000
00100000
,
00001000
00010000
00001000
00000000
00010000
00000000
00000010
00000000
,
00001010
00000000
00001000
00000100
00000010
00000000
00000001
00000100
,
00000000
00000010
00000100
00000000
00000001
00000000
00000010
00001000
,
00010000
00001000
00010000
00000000
00001000
00000000
00100000
00010000
,
01000000
00000000
00100000
10000000
00000000
00010000
10000000
00000000
,
02000000
00000000
00000000
03200000
00000000
00000000
00302000
00000000
,
00000000
00000000
00013000
00000000
00001000
00000100
00000010
00000000
,
00002000
00000000
00000000
00003002
00000000
00000000
00000023
00000000
,
00000000
00000000
00000130
00000000
00000010
00000001
00000010
00000000
,
00000001
00000000
00000100
00001000
00010000
00000000
00100000
01000000
,
00010000
01000000
00100000
00000000
10000000
00000000
00010000
00000000
,
00100000
00000000
01000000
10000000
00100000
00000000
00010000
00001000
,
00000100
00000010
00001000
00000000
00000001
00000000
00000100
00000000
,
00000010
00000000
00001000
00000001
00000010
00000000
00001000
00010000
,
01000000
00100000
00010000
00000000
01000000
00000000
00010000
00000000
,
10000000
00000000
00100000
10000000
00010000
00000000
10000000
01000000
,
00010000
00001000
00010000
00000000
00001000
00010000
00001000
00020000
,
00030000
00000000
00000000
00000000
;

//--------------- dance-double - Fred-104 ----------------
#NOTES:
     dance-double:
     Fred-104:
     Hard:
     11:
     :
00000000
00000000
00000000
00000000
,
00000000
00000000
00000000
00000000
,
00000000
00000000
00000000
00000000
,
00000000
00000000
00000000
00000000
,
00000000
00000000
00000000
00000000
,
00000000
00000000
00000000
00000000
,
00012000
00000000
00013000
00000200
00000000
00010300
00000010
00001000
,
00000020
00000000
00001030
00000200
00000000
00000310
00000001
00001000
,
00000002
00000000
00000103
00002000
00000000
00013000
00001000
00100000
,
02000000
00000000
13000000
00010000
01000000
00100000
01000000
00001000
,
00020000
00000000
00031000
00000020
00000000
00000130
00001000
00000010
,
00000200
00000000
00000310
00002000
00000000
00003001
00000010
00001000
,
00020000
00000000
01030000
00200000
00000000
00310000
10000000
00100000
,
02000000
00000000
03010000
10000000
01000000
00010000
00001000
00000010
,
00000200
00000000
00001300
00000020
00000000
00000130
00000001
00001000
,
00000002
00000000
00000013
00000200
00000000
00000310
00000001
00000100
,
00002000
00000000
00013000
00002000
00000000
01003000
00100000
01000000
,
00020000
00000000
10030000
01000000
00100000
01000000
00010000
01000000
,
20000000
00000000
30010000
10000000
00100000
00010000
00001000
00010000
,
00000200
00000000
00000000
00000000
00000310
00000000
00000001
00001000
00000001
00000000
00000100
00000000
00000010
00000000
00001000
00000000
,
00000002
00000000
00001003
00000100
00000010
00001000
00010000
00001000
,
02000000
00000000
03001000
01000000
00010000
00100000
00010000
10000000
,
02000000
10000000
00100000
13000000
,
00010000
00100000
10000000
00010000
01000000
10000000
00010000
10000000
,
00200000
00000000
01300000
00100000
20000000
00000000
32000000
00000000
,
03020000
00032000
00003020
00000230
,
00002300
00000010
00000100
00003010
,
00000100
00000001
00000010
00000100
00000001
00000100
00000010
00000001
,
00001000
00000001
00000010
00000001
00001000
00000010
00000100
00000020
,
00000000
00001030
00000001
00000100
00001000
00010000
00100000
02000000
,
00000000
03010000
10000000
00010000
10000000
01000000
00100000
00020000
,
00000000
00000000
10030000
00000000
01000000
00000000
00100000
00010000
00000000
00100000
00010000
00000000
00200000
00300000
00002000
00003000
,
00011000
00000000
00010000
00001000
00000010
00000001
00001000
00000100
,
00000000
00000010
00000001
00001000
00000100
00000000
00000001
00000100
,
00001000
00000001
00000100
00001000
00010000
00000000
00100000
01000000
,
00010000
10000000
01000000
00100000
00001000
00010000
00001000
00000000
,
00011000
00000000
00010000
00001000
00000010
00000100
00001000
00000001
,
00000000
00000100
00000010
00000100
00001000
00000000
00010000
00100000
,
01000000
00010000
01000000
00100000
10000000
00000000
00010000
10000000
,
01000000
00000000
00010000
00000000
00001000
00000000
00000010
00000000
00000001
00000000
00001000
00000000
00000100
00000000
00000010
00000001
,
00000010
00000001
00001000
00000001
00000100
00001000
00000100
00000010
,
00000000
00001000
00000001
00000010
00000100
00000000
00000010
00001000
,
00010000
01000000
00100000
00010000
10000000
00000000
00010000
01000000
,
00100000
00000000
00010000
00100000
01000000
00010000
10000000
01000000
,
00200000
00000000
00301000
00020000
00000000
00030010
00002000
00000000
,
00003001
00000010
00000001
00001000
00000010
00000100
00000010
00001000
,
00000002
00000000
00000103
00002000
00000000
00003100
00000002
00000000
,
00001003
00000000
00000000
00000000
00000010
00000000
00010000
00000000
00001000
00000000
00100000
00000000
00010000
10000000
00010000
00000000
,
00100000
00000000
01000000
10000000
00000000
01000000
10000000
00000000
00010000
00000000
01000000
00000000
00100000
00000000
01000000
00000000
,
00010000
00000000
10000000
00000000
01000000
00000000
00100000
00000000
00001000
00010000
00001000
00000000
01000000
00000000
00001000
00000000
,
00010000
00000000
00000100
00001000
00000000
00000100
00001000
00000000
00000001
00000000
00000100
00000000
00000001
00000000
00001000
00000000
,
00000100
00000000
00000010
00000000
00000001
00000000
00001000
00000000
00000001
00000100
00000001
00000000
00001000
00000100
00001000
00000100
,
00001000
00000000
00000001
00000010
00000000
00000001
00000010
00000000
00000001
00000000
00000100
00000000
00001000
00000000
00010000
00000000
,
00001000
00000000
01000000
00100000
00000000
00100000
01000000
00000000
00010000
00100000
00010000
00000000
10000000
00000000
00100000
00000000
,
01000000
00000000
00010000
01000000
00000000
00100000
01000000
00000000
00010000
00000000
10000000
00000000
01000000
00000000
00010000
00000000
,
00002000
00000000
00003020
00000000
00000230
00000000
00002300
00000000
00003010
00010000
00001000
00000000
00010000
00001000
00010000
00002000
,
00003000
00000000
00000000
00000000
;
