#TITLE:the clear blue sky;
#SUBTITLE:Artcore;
#ARTIST:Tsukasa;
#TITLETRANSLIT:;
#SUBTITLETRANSLIT:;
#ARTISTTRANSLIT:;
#GENRE:;
#CREDIT:;
#BANNER:the clear blue sky.png;
#BACKGROUND:the clear blue sky-bg.png;
#LYRICSPATH:;
#CDTITLE:;
#MUSIC:the clear blue sky.mp3;
#OFFSET:-0.260;
#SAMPLESTART:56.080;
#SAMPLELENGTH:12.000;
#SELECTABLE:YES;
#DISPLAYBPM:89.000:178.000;
#BPMS:0.000=89.000
,34.000=178.000
;
#STOPS:129.500=1.348
;
#BGCHANGES:;
#KEYSOUNDS:;
#ATTACKS:;

//---------------dance-single - ----------------
#NOTES:
     dance-single:
     :
     Hard:
     10:
     0.448,0.492,0.331,0.486,0.083,224.000,32.000,47.000,0.000,0.000,0.000,0.448,0.492,0.331,0.486,0.083,224.000,32.000,47.000,0.000,0.000,0.000:
0000
0000
0000
0000
0000
0000
0000
0000
0100
0100
0000
2002
0000
0000
0000
0000
,
0000
0000
0000
0000
3003
0000
0000
0000
0100
0100
0000
0010
0000
0000
0001
0000
,
0100
0000
0000
0000
1001
0000
0000
0000
0100
0100
0000
0220
0000
0000
0000
0000
,
0000
0000
0000
0000
0330
0000
0000
0000
0010
0010
0000
0100
0000
1000
0000
2002
,
0000
0000
0000
0000
3003
0000
0000
0000
0200
0000
0000
0020
0000
0000
0000
0000
,
0000
0000
0000
0000
0330
0000
0000
0000
2000
0000
0000
0002
0000
0000
0000
0000
,
0000
0000
0000
0000
3003
0000
0000
0000
0020
0000
0000
0200
0000
0000
0000
0000
,
0000
0000
0000
0000
0330
0000
0000
0000
1001
0000
0000
0202
0000
0000
0000
0000
,
0303
0000
0000
0000
0100
0010
0100
0010
0000
0000
1000
0000
1000
0000
0000
0000
,
0001
0100
0000
0101
0000
1010
0000
2001
,
0000
0000
3100
0000
0000
0010
0010
0000
,
0100
1000
0000
1100
0000
0011
0000
1002
,
0000
0000
0103
0000
0000
0010
1000
0000
,
0001
1000
0000
1100
0000
0110
0000
0201
,
0000
0000
1300
0000
0000
0010
1000
0000
,
0001
1000
0000
0101
0000
0110
0000
1200
,
0000
0000
0301
0000
1000
0010
0200
0000
,
0000
0000
0000
0001
0000
1000
0000
0002
,
0000
0000
0303
0000
0001
1000
0020
0000
,
0000
0000
0000
1000
0000
0100
0000
0002
,
0000
0000
0033
0000
0010
1000
0002
0000
,
0000
0000
0000
0010
0000
1000
0000
0200
,
0000
0000
0303
0000
1010
0000
0000
1200
,
0000
0000
0010
0000
0000
0001
0000
0000
,
0310
0000
0110
0000
1000
0100
0010
0000
,
0010
0100
1000
0000
0010
0100
0001
0000
,
0001
0100
0010
0000
1000
0001
0100
0000
,
0100
0001
1000
0000
0001
1000
0010
0000
,
0010
1000
0001
0000
0100
0001
0100
0001
,
0100
0010
0100
0010
1000
0010
1000
0010
,
1000
0100
1000
0100
0010
0001
1000
0100
,
0010
0001
1000
0100
0010
0001
0100
0010
,
0100
0000
0000
0010
0000
0000
1000
0000
0000
2002
3003
0000
0000
0000
0000
1000
0000
0000
1000
0000
0000
0000
0000
0000
,
0001
0100
0000
1020
0000
0100
0000
0002
,
0000
0000
0033
0000
0000
0001
0001
0000
,
0010
1000
0000
0201
0000
0010
0000
2000
,
0000
0000
3300
0000
0000
0001
0010
0000
,
1000
0001
0000
0021
0000
0100
0000
2000
,
0000
0000
3030
0000
0000
0001
0100
0000
,
1000
0001
0000
1010
0000
1001
0000
1100
,
0000
0010
0001
1000
0000
0100
0001
0000
,
1000
0100
0010
0012
0000
1000
0000
0200
,
0000
0000
0303
0000
0000
0010
1000
0000
,
0001
0010
0100
2100
0000
0001
0000
0020
,
0000
0000
3030
0000
0000
0100
0001
0000
,
0010
0001
0100
2010
0000
0100
0000
0002
,
0000
0000
3003
0000
0000
0001
0010
0000
,
0001
1000
0100
0021
0000
0100
0000
1030
,
0000
0100
1000
0001
0020
0000
0000
0000
,
0000
0000
0001
0002
0000
0000
0033
0100
,
0000
0010
1000
0000
0002
0000
0000
0000
,
0000
0000
1000
2000
0000
0003
0000
0000
,
3100
0010
0001
0200
0000
0000
0000
0000
,
0000
0000
0000
0000
,
0310
1000
0002
2000
0000
0000
0000
0000
,
0000
0000
0000
0000
,
3003
0000
0000
0000
;

//---------------dance-single - ----------------
#NOTES:
     dance-single:
     :
     Medium:
     8:
     0.363,0.463,0.248,0.341,0.052,189.000,24.000,33.000,0.000,0.000,0.000,0.363,0.463,0.248,0.341,0.052,189.000,24.000,33.000,0.000,0.000,0.000:
0000
0000
0000
0000
0000
0000
0000
0000
2000
0000
0000
0002
0000
0000
0000
0000
,
0000
0000
0000
0000
3003
0000
0000
0000
0001
0000
0000
0100
0000
0000
0010
0000
,
0010
0000
0000
0000
1000
0000
0000
0000
0002
0000
0000
2000
0000
0000
0000
0000
,
0000
0000
0000
0000
3003
0000
0000
0000
1000
0000
0000
0001
0000
1000
0000
0001
,
0000
0000
0000
0000
0000
0000
0000
0000
0010
0000
0000
0220
0000
0000
0000
0000
,
0000
0000
0000
0000
0330
0000
0000
0000
0100
0000
0000
2002
0000
0000
0000
0000
,
0000
0000
0000
0000
3003
0000
0000
0000
0010
0000
0000
0202
0000
0000
0000
0000
,
0000
0000
0000
0000
0303
0000
0000
0000
0001
0000
0000
1100
0000
0000
0000
0000
,
0000
0000
0100
0100
0000
1000
0001
0000
,
0001
1000
0000
0100
0000
0100
0000
0020
,
0000
0000
0000
0030
0000
0001
1000
0000
,
1000
0001
0000
0100
0000
0100
0000
0020
,
0000
0000
0000
0030
0000
0100
0001
0000
,
0001
0010
0000
0100
0000
0100
0000
2000
,
0000
0000
0000
3000
0000
0100
1000
0000
,
1000
0010
0000
0100
0000
0100
0000
0002
,
0000
0000
0003
0000
2000
0000
0000
0002
,
0000
0000
0000
0000
,
0000
0000
0000
0000
,
0000
0000
3003
0000
,
0000
0000
0000
0100
0210
0000
0000
2000
,
0000
0000
0000
0000
,
3300
0000
0000
0000
0001
0000
0000
0001
,
0000
0000
0001
0000
0000
0001
0000
0000
,
0001
0001
1001
1000
,
1100
1000
1001
1000
,
1010
1000
1001
0001
,
0101
0001
0011
0001
,
1001
0000
0001
0000
0100
0010
0100
0010
,
0100
0010
0100
0010
1000
0001
1000
0001
,
1000
0001
1000
0001
1000
0100
1000
0100
,
1000
0100
1000
0100
0010
0001
0010
0001
,
0010
0000
0000
0000
0001
0000
0000
0000
0010
0000
0000
0000
0200
0300
0000
0000
0000
0000
0000
0000
1000
0000
0000
0000
0100
0000
0000
0000
0000
0000
0000
0000
,
1000
0010
0000
0100
0000
0001
0000
2002
,
0000
0000
0000
3003
0000
0001
0100
0000
,
0001
0010
0000
0100
0000
1000
0000
2002
,
0000
0000
0000
3003
0000
0100
1000
0000
,
0010
0100
0000
0001
0000
0010
0000
2200
,
0000
0000
0000
3300
0000
0001
0010
0000
,
0100
1000
0000
0001
0000
0100
0000
0110
,
0000
1000
1000
1000
0000
0100
0010
0000
,
0100
1000
0000
0001
0000
0100
0000
0120
,
0000
0000
1030
0000
0000
0010
0100
0000
,
0001
0100
0000
0010
0000
1000
0000
2100
,
0000
0000
3001
0000
0000
0001
1000
0000
,
1000
0100
0000
1000
0000
0010
0000
0102
,
0000
0000
1003
0000
0000
1000
0001
0000
,
0001
0100
0000
0001
0000
0010
0000
1100
,
0000
1000
0100
0000
0210
0000
0000
0000
,
0000
0000
1000
1300
0000
0000
0000
0100
,
0000
0010
0010
0000
1002
0000
0000
0000
,
0000
0000
0100
0103
0000
0000
0000
0000
,
1000
0001
1000
0002
0000
0000
0000
0000
,
0000
0000
0003
0000
,
0100
0000
0000
2002
0000
0000
0000
0000
,
0000
0000
0000
0000
,
3003
0000
0000
0000
;

//---------------dance-single - ----------------
#NOTES:
     dance-single:
     :
     Easy:
     6:
     0.247,0.290,0.072,0.331,0.021,128.000,7.000,32.000,0.000,0.000,0.000,0.247,0.290,0.072,0.331,0.021,128.000,7.000,32.000,0.000,0.000,0.000:
0000
0000
2000
0000
,
0000
3000
0002
0000
,
0000
0003
2000
0000
,
0000
3000
0002
0000
,
0000
0000
0000
0000
0003
0000
0000
0000
0100
0000
0000
0200
0000
0000
0000
0000
,
0000
0000
0000
0000
0300
0000
0000
0000
0010
0000
0000
0020
0000
0000
0000
0000
,
0000
0000
0000
0000
0030
0000
0000
0000
1000
0000
0000
2000
0000
0000
0000
0000
,
0000
0000
0000
0000
3000
0000
0000
0000
0001
0000
0000
0002
0000
0000
0000
0000
,
0000
0003
0000
0100
,
0100
0000
0000
0010
0000
0010
0000
2002
,
0000
3003
0000
0010
,
0010
0000
0000
0100
0000
0100
0000
2002
,
0000
3003
0000
0010
,
0100
0000
0000
0001
0000
0001
0000
2002
,
0000
3003
0000
0010
,
0100
0000
0000
1000
0000
1000
0000
2002
,
0000
3003
0200
0000
,
0000
0000
0000
0000
,
0000
0000
0310
0000
,
0000
0000
0000
0000
,
0000
0000
1001
0000
,
0000
0000
0000
0000
,
0000
0000
0000
0000
0001
0000
0000
0001
,
0000
0000
0001
0000
0000
0001
0000
0000
,
0001
0001
0100
0001
,
0100
0001
1000
0010
,
1000
0010
1000
0100
,
1000
0100
0010
0001
,
0010
0001
1000
0100
,
0010
0001
1000
0100
,
0010
0001
0001
0100
,
0010
1000
0001
0100
,
0010
0000
0000
0000
2000
0000
0000
3000
0100
0000
0000
0000
0100
0000
0000
0000
,
0100
0000
0000
0001
0000
0001
0000
0002
,
0000
0003
0010
0010
,
0010
0000
0000
1000
0000
1000
0000
2000
,
0000
3000
0001
0001
,
0001
0000
0000
0100
0000
0100
0000
0200
,
0000
0300
0010
0010
,
0010
0000
0000
1000
0000
1000
0000
1000
,
0000
1001
0000
0000
1000
0000
0100
0000
,
1000
0000
0000
0001
0000
0010
0000
0002
,
0000
0003
0001
0100
,
0001
0000
0000
1000
0000
0010
0000
2000
,
0000
3000
0001
0100
,
0010
0000
0000
1000
0000
0001
0000
0020
,
0000
0030
0100
1000
,
0001
0000
0000
0010
0000
0100
0000
2000
,
0000
3000
0002
0000
,
0000
0000
0000
2000
0000
0000
0000
0000
,
3003
0000
2000
0000
,
0000
0000
0000
0002
0000
0000
0000
0000
,
3003
0000
0200
0000
,
0000
0000
0000
0000
,
0300
0000
2002
0000
,
0000
0000
0000
0000
,
3003
0000
0000
0000
;

//---------------dance-single - ----------------
#NOTES:
     dance-single:
     :
     Beginner:
     2:
     0.129,0.116,0.021,0.124,0.000,73.000,2.000,12.000,0.000,0.000,0.000,0.129,0.116,0.021,0.124,0.000,73.000,2.000,12.000,0.000,0.000,0.000:
0000
0000
0010
0000
,
0000
0000
0010
0000
,
0000
0000
0010
0000
,
0000
0000
0010
0000
,
0000
0000
2000
0000
,
0000
3000
0002
0000
,
0000
0003
2000
0000
,
0000
3000
0002
0000
,
0000
0003
0100
0000
,
0100
0000
0100
0000
,
0100
0000
0010
0000
,
0010
0000
0010
0000
,
0010
0000
1000
0000
,
1000
0000
1000
0000
,
1000
0000
0001
0000
,
0001
0000
0001
0000
,
0001
0000
0200
0000
,
0000
0000
0000
0000
,
0000
0000
0000
0000
,
0000
0000
0000
0000
,
0300
0000
1001
0000
,
0000
0000
0000
0000
,
0000
0000
0010
0000
,
0000
0000
0000
0000
,
0000
0000
0001
0000
,
0001
0000
1000
0000
,
1000
0000
0010
0000
,
0010
0000
0100
0000
,
0100
0000
0002
0000
,
0000
0000
0000
0000
,
0000
0000
2000
0000
,
0000
0000
0000
0000
,
0000
0000
0000
3003
0100
0000
0000
0000
,
0100
0000
0010
0000
,
0010
0000
1000
0000
,
1000
0000
0001
0000
,
0001
0000
0100
0000
,
0100
0000
0010
0000
,
0010
0000
1000
0000
,
1000
0000
0001
0000
,
0001
0000
1000
0000
,
0100
0000
1000
0000
,
0100
0000
0010
0000
,
0001
0000
0010
0000
,
0001
0000
0100
0000
,
0001
0000
0100
0000
,
0001
0000
1000
0000
,
0010
0000
1000
0000
,
0010
0000
0200
0000
,
0000
0000
0000
0000
,
0300
0000
0020
0000
,
0000
0000
0000
0000
,
0030
0000
0002
0000
,
0000
0000
0000
0000
,
0003
0000
2002
0000
,
0000
0000
0000
0000
,
3003
0000
0000
0000
;

//---------------dance-double - ----------------
#NOTES:
     dance-double:
     :
     Easy:
     7:
     0.247,0.290,0.062,0.331,0.021,129.000,6.000,32.000,0.000,0.000,0.000,0.247,0.290,0.062,0.331,0.021,129.000,6.000,32.000,0.000,0.000,0.000:
00000000
00000000
20000000
00000000
,
00000000
30000000
00020000
00000000
,
00000000
00030000
00002000
00000000
,
00000000
00003000
00000002
00000000
,
00000000
00000000
00000000
00000000
00000003
00000000
00000000
00000000
00000010
00000000
00000000
00000020
00000000
00000000
00000000
00000000
,
00000000
00000000
00000000
00000000
00000030
00000000
00000000
00000000
00001000
00000000
00000000
00002000
00000000
00000000
00000000
00000000
,
00000000
00000000
00000000
00000000
00003000
00000000
00000000
00000000
00010000
00000000
00000000
00020000
00000000
00000000
00000000
00000000
,
00000000
00000000
00000000
00000000
00030000
00000000
00000000
00000000
01000000
00000000
00000000
02000000
00000000
00000000
00000000
00000000
,
00000000
03000000
00000000
01000000
,
01000000
00000000
00000000
00100000
00000000
00100000
00000000
20020000
,
00000000
30030000
00000000
00100000
,
00010000
00000000
00000000
00001000
00000000
00001000
00000000
00022000
,
00000000
00033000
00000000
00001000
,
00000010
00000000
00000000
00000100
00000000
00000100
00000000
00002002
,
00000000
00003003
00000000
00000100
,
00001000
00000000
00000000
00010000
00000000
00010000
00000000
00022000
,
00000000
00033000
02000000
00000000
,
00000000
00000000
00000000
00000000
,
00000000
00000000
03010000
00000000
,
00000000
00000000
00000000
00000000
,
00000000
00000000
00000000
00001000
00001000
00000000
00000000
00000000
,
00000000
00000000
00000000
00000000
,
00000000
00000000
00000000
00000000
00010000
00000000
00000000
00001000
,
00000000
00000000
00010000
00000000
00000000
00001000
00000000
00000000
,
00010000
00001000
00000100
00000001
,
00000100
00000001
00001000
00000010
,
00001000
00000010
00010000
00000100
,
00010000
00000100
00100000
00010000
,
00100000
00010000
10000000
01000000
,
00100000
00001000
00010000
00000100
,
00000010
00000001
00000001
00000100
,
00000010
00010000
00001000
01000000
,
00100000
00000000
00000000
00000000
20000000
00000000
00000000
30000000
01000000
00000000
00000000
00000000
01000000
00000000
00000000
00000000
,
01000000
00000000
00000000
00010000
00000000
00010000
00000000
00020000
,
00000000
00030000
00001000
00001000
,
00001000
00000000
00000000
00000010
00000000
00000010
00000000
00000020
,
00000000
00000030
00000001
00000001
,
00000001
00000000
00000000
00000100
00000000
00000100
00000000
00000200
,
00000000
00000300
00001000
00001000
,
00001000
00000000
00000000
00010000
00000000
00010000
00000000
00010000
,
00000000
00011000
00000000
00000000
00010000
00000000
01000000
00000000
,
00100000
00000000
00000000
00010000
00000000
10000000
00000000
00020000
,
00000000
00030000
10000000
00100000
,
01000000
00000000
00000000
00001000
00000000
00010000
00000000
00002000
,
00000000
00003000
00000100
00000001
,
00001000
00000000
00000000
00000001
00000000
00000010
00000000
00000200
,
00000000
00000300
00000010
00001000
,
00010000
00000000
00000000
01000000
00000000
00010000
00000000
00002000
,
00000000
00003000
00020000
00000000
,
00000000
00000000
00000000
00002000
00000000
00000000
00000000
00000000
,
00033000
00000000
00000200
00000000
,
00000000
00000000
00000000
00020000
00000000
00000000
00000000
00000000
,
00030300
00000000
02000000
00000000
,
00000000
00000000
00000000
00000000
,
03000000
00000000
20020000
00000000
,
00000000
00000000
00000000
00000000
,
30030000
00000000
00000000
00000000
;

//---------------dance-double - ----------------
#NOTES:
     dance-double:
     :
     Hard:
     13:
     0.560,0.579,0.279,0.331,0.140,320.000,27.000,32.000,0.000,0.000,0.000,0.560,0.579,0.279,0.331,0.140,320.000,27.000,32.000,0.000,0.000,0.000: // measure 0
00000000
00000000
00000000
00000000
00000000
00000000
00000000
00000000
00100000
00010000
00000000
20020000
00000000
00000000
00000000
00000000
,  // measure 1
00000000
00000000
00000000
00000000
30030000
00000000
00000000
00000000
01000000
00010000
00000000
00000100
00000000
00000000
00001000
00000000
,  // measure 2
00010000
00000000
00000000
00000000
00011000
00000000
00000000
00000000
00001000
00000010
00000000
00000220
00000000
00000000
00000000
00000000
,  // measure 3
00000000
00000000
00000000
00000000
00000330
00000000
00000000
00000000
00000010
00000010
00000000
00000001
00000000
00000100
00000000
00002002
,  // measure 4
00000000
00000000
00000000
00000000
00003003
00000000
00000000
00000000
00000100
00000001
00000010
00002000
00000000
00000000
00010000
00000000
,  // measure 5
00010000
00000000
00000000
00000000
00013000
00000000
00000000
00000000
00010000
01000000
00100000
00020000
00000000
00000000
10000000
00000000
,  // measure 6
10000000
00000000
00000000
00000000
10030000
00000000
00000000
00000000
00100000
10000000
00010000
02000000
00000000
00000000
00100000
00000000
,  // measure 7
00100000
00000000
00000000
00000000
03100000
00000000
00000000
00000000
00010000
00001000
00000100
00000020
00000000
00000000
00000000
00000000
,  // measure 8
00000030
00000000
00001000
00000100
00000010
00000001
00010000
00000100
00000000
00000000
00010000
00000000
00001000
00000000
00000000
00000000
,  // measure 9
00011000
00010000
00000000
01000000
10000000
00100000
00010000
00002000
,  // measure 10
00000000
00000000
00013000
00000000
00000000
00001000
00000100
00000000
,  // measure 11
00000110
00000100
00000000
00000001
00000010
00001000
00010000
02000000
,  // measure 12
00000000
00000000
03100000
00000000
00000000
00010000
01000000
00000000
,  // measure 13
10100000
00100000
00000000
10000000
01000000
00010000
00001000
00000020
,  // measure 14
00000000
00000000
00000130
00000000
00000000
00001000
00000100
00000000
,  // measure 15
00000011
00000001
00000000
00000001
00000100
00001000
00010000
00200000
,  // measure 16
00000000
00000000
01300000
00000000
10000000
01000000
00200000
00000000
,  // measure 17
00010000
00010000
00300000
01000000
00001000
00010000
00000010
00000100
,  // measure 18
00000000
00000000
00000110
00000000
00000001
00000010
00000200
00000000
,  // measure 19
00001000
00001000
00000300
00000010
00010000
00001000
01000000
00100000
,  // measure 20
00000000
00000000
01100000
00000000
10000000
00100000
01000000
00000000
,  // measure 21
00100000
00010000
00001000
00000000
00000100
00000001
00000010
00000000
,  // measure 22
00001000
00010000
01000000
00000000
11000000
01000000
01000000
01100000
,  // measure 23
00100000
00100000
00110000
00010000
00010000
00001000
00001000
00000010
,  // measure 24
00000010
00000010
00000110
00000000
00000010
00000001
00000100
00000001
,  // measure 25
00001000
00000001
00001000
00000100
00010000
00001000
00100000
00001000
,  // measure 26
00010000
00000100
00000010
00001000
00010000
01000000
00100000
01000000
,  // measure 27
10000000
00100000
00010000
00100000
01000000
00001000
00010000
00000010
,  // measure 28
00000100
00010000
00001000
00100000
10000000
00010000
10000000
01000000
,  // measure 29
10000000
00010000
10000000
00100000
00010000
00001000
00000100
00001000
,  // measure 30
00010000
01000000
00010000
00001000
00000010
00000001
00001000
00000100
,  // measure 31
00000010
00000100
00001000
00000001
00000100
00001000
00010000
00001000
,  // measure 32
00100000
00000000
01000000
00100000
01000000
00100000
02000000
03000000
10000000
00000000
01000000
00000000
01100000
00000000
00000000
00000000
,  // measure 33
00010000
01000000
01100000
00000000
10000000
00100000
00010000
00002000
,  // measure 34
00000000
00000000
00003100
00000000
00000001
00000010
00000110
00000000
,  // measure 35
00001000
00000100
00000110
00000000
00000001
00000010
00001000
00020000
,  // measure 36
00000000
00000000
01030000
00000000
10000000
01000000
11000000
00000000
,  // measure 37
00100000
00010000
00110000
00000000
01000000
00100000
00010000
00000020
,  // measure 38
00000000
00000000
00001030
00000000
00000010
00000001
00000011
00000000
,  // measure 39
00001000
00000100
00001100
00000000
00000010
00000001
00000100
00001000
,  // measure 40
00010000
00000000
10000000
00000000
00010000
00000000
00110000
00000000
00000000
00000000
01000000
00000000
00100000
00000000
00010000
10000000
,  // measure 41
00010000
01000000
00100000
20100000
00000000
00010000
00000000
31000000
,  // measure 42
00100000
00000000
00001000
00000000
00010000
00000000
00000000
00000000
00000000
00000000
00000100
00000000
00000010
00000000
00000001
00001000
,  // measure 43
00000001
00000010
00000100
00002100
00000000
00000001
00000000
00003010
,  // measure 44
00000100
00000000
00001000
00000000
00010000
00000000
00000000
00000000
00000000
00000000
00100000
00000000
01000000
00000000
00001000
00010000
,  // measure 45
00001000
00000100
00000010
00020010
00000000
00000100
00000000
00031000
,  // measure 46
00010000
00000000
00000100
00000000
00000010
00000000
00000000
00000000
00000000
00000000
00000100
00000000
00000010
00000000
00001000
00010000
,  // measure 47
00001000
00100000
01000000
00102000
00000000
01000000
00000000
00013000
,  // measure 48
00001000
01000000
00100000
01000000
00200000
00000000
00000000
00000000
,  // measure 49
00000000
00000000
10000000
20000000
00000000
00000000
30300000
01000000
,  // measure 50
00000000
00100000
10000000
00000000
00020000
00000000
00000000
00000000
,  // measure 51
00000000
00000000
00001000
00002000
00000000
00000000
00033000
00000000
,  // measure 52
00000010
00000001
00000200
00002000
00000000
00000000
00000000
00000000
,  // measure 53
00000000
00000000
00000300
00003000
,  // measure 54
00010000
00100000
20000000
02000000
00000000
00000000
00000000
00000000
,  // measure 55
00000000
00000000
00000000
00000000
,  // measure 56
33000000
00000000
00000000
00000000
;

//---------------dance-double - ----------------
#NOTES:
     dance-double:
     :
     Medium:
     9:
     0.356,0.463,0.072,0.290,0.052,206.000,7.000,28.000,0.000,0.000,0.000,0.356,0.463,0.072,0.290,0.052,206.000,7.000,28.000,0.000,0.000,0.000:
00000000
00000000
00000000
00000000
00000000
00000000
00000000
00000000
00020000
00000000
00000000
00002000
00000000
00000000
00000000
00000000
,
00000000
00000000
00000000
00000000
00033000
00000000
00000000
00000000
00001000
00000000
00000000
00010000
00000000
00000000
01000000
00000000
,
01000000
00000000
00000000
00000000
00100000
00000000
00000000
00000000
00002000
00000000
00000000
00020000
00000000
00000000
00000000
00000000
,
00000000
00000000
00000000
00000000
00033000
00000000
00000000
00000000
00010000
00000000
00000000
00001000
00000000
00000100
00000000
00000010
,
00000000
00000000
00000000
00000000
00000000
00000000
00000000
00000000
00001000
00000000
00000000
00002002
00000000
00000000
00000000
00000000
,
00000000
00000000
00000000
00000000
00003003
00000000
00000000
00000000
00000100
00000000
00000000
00002000
00000000
00000000
00000000
00000000
,
00000000
00000000
00000000
00000000
00003000
00000000
00000000
00000000
00010000
00000000
00000000
20020000
00000000
00000000
00000000
00000000
,
00000000
00000000
00000000
00000000
30030000
00000000
00000000
00000000
01000000
00000000
00000000
00010000
00000000
00000000
00000000
00000000
,
00000000
00000000
00010000
00001000
00000000
00010000
00000100
00000000
,
00000100
00000010
00000000
00000001
00000000
00001000
00000000
00000002
,
00000000
00000000
00000003
00000000
00000000
00000001
00000100
00000000
,
00000100
00000010
00000000
00010000
00000000
00001000
00000000
02000000
,
00000000
00000000
03000000
00000000
00000000
00010000
01000000
00000000
,
01000000
00100000
00000000
10000000
00000000
00010000
00000000
20000000
,
00000000
00000000
30000000
00000000
00000000
01000000
00100000
00000000
,
00100000
00001000
00000000
00010000
00000000
00000100
00000000
00000020
,
00000000
00000000
00000030
00000000
00000002
00000000
00000000
00002000
,
00000000
00000000
00000000
00000000
,
00000000
00000000
00003003
00000000
,
00000000
00000000
00000000
00000000
,
00000000
00000000
00000000
00000000
00002000
00000000
00000000
00020000
,
00000000
00000000
00000000
00000000
,
00033000
00000000
00000000
00000000
00010000
00000000
00000000
00010000
,
00000000
00000000
00010000
00000000
00000000
00010000
00000000
00000000
,
00010000
00001000
00010000
00011000
,
00001000
00010000
00001000
00000000
00000100
00000000
00000101
00000000
,
00000001
00000100
00000001
00000000
00001000
00000000
00001010
00000000
,
00001000
00000010
00001000
00000000
00010000
00000000
00011000
00000000
,
00001000
00010000
00001000
00000000
00010000
01000000
00010000
01000000
,
10000000
01000000
10000000
01000000
10000000
00100000
10000000
00100000
,
00010000
00100000
00010000
00100000
10000000
01000000
00010000
00001000
,
00010000
01000000
10000000
00100000
00010000
00001000
00000100
00000001
,
00000010
00000000
00000000
00000000
00000001
00000000
00000000
00000000
00000100
00000000
00000000
00000000
00000020
00000030
00000000
00000000
00000000
00000000
00000000
00000000
00000001
00000000
00000000
00000000
00001000
00000000
00000000
00000000
00000000
00000000
00000000
00000000
,
00001000
00000100
00000000
00010000
00000000
00001000
00000000
00200000
,
00000000
00000000
00310000
00000000
00000000
10000000
00010000
00000000
,
00010000
01000000
00000000
00001000
00000000
00010000
00000000
00000020
,
00000000
00000000
00001030
00000000
00000000
00000001
00000100
00000000
,
00000100
00000010
00000000
00000100
00000000
00001000
00000000
00020000
,
00000000
00000000
00130000
00000000
00000000
10000000
01000000
00000000
,
01000000
00100000
00000000
01000000
00000000
00010000
00000000
00001000
,
00000000
00000100
00000010
00000100
00000000
00000010
00001000
00000000
,
00000001
00000100
00000000
00000010
00010000
00001000
01000000
00020000
,
00000000
00000000
10030000
00000000
00000000
00100000
00010000
00000000
,
10000000
01000000
00000000
00100000
00001000
00010000
00000100
00002000
,
00000000
00000000
00003001
00000000
00000000
00000100
00000010
00000000
,
00001000
00000010
00000000
00010000
00001000
00100000
00010000
20000000
,
00000000
00000000
31000000
00000000
00000000
01000000
00100000
00000000
,
00010000
00100000
00000000
00001000
00010000
00000010
00001000
00000001
,
00000000
00000010
00001000
00000001
00002000
00000000
00000000
00000000
,
00000000
00000000
00000100
00000100
00000000
00003000
00000000
00000010
,
00000000
00010000
00001000
00000000
00012000
00000000
00000000
00000000
,
00000000
00000000
01000000
01003000
00000000
00000000
00000000
00000000
,
00010000
01000000
00010000
02000000
00000000
00000000
00000000
00000000
,
00000000
00000000
00000000
03000000
,
00001000
00010000
00001000
00020000
00000000
00000000
00000000
00000000
,
00000000
00000000
00000000
00000000
,
00030000
00000000
00000000
00000000
;
