#TITLE:coastal tempo;
#SUBTITLE:UP tempo;
#ARTIST:3rd coast;
#TITLETRANSLIT:;
#SUBTITLETRANSLIT:;
#ARTISTTRANSLIT:;
#GENRE:;
#CREDIT:;
#BANNER:coastal tempo.png;
#BACKGROUND:coastal tempo-bg.png;
#LYRICSPATH:;
#CDTITLE:;
#MUSIC:coastal tempo.mp3;
#OFFSET:-0.612;
#SAMPLESTART:71.750;
#SAMPLELENGTH:12.000;
#SELECTABLE:YES;
#DISPLAYBPM:135.000;
#BPMS:0.000=135.000
;
#STOPS:
;
#BGCHANGES:;
#KEYSOUNDS:;
#ATTACKS:;

//---------------dance-single - ----------------
#NOTES:
     dance-single:
     :
     Beginner:
     2:
     0.152,0.206,0.042,0.137,0.000,84.000,4.000,13.000,0.000,0.000,0.000,0.152,0.206,0.042,0.137,0.000,84.000,4.000,13.000,0.000,0.000,0.000:
0000
0000
0000
0000
,
0000
0000
0000
0000
,
0000
0000
0000
0000
,
0000
0000
0000
0000
,
0001
0000
0000
0000
,
1000
0000
0000
0000
,
0001
0000
0000
0000
,
1000
0000
0000
0000
,
0200
0000
0000
0000
,
0000
0000
0300
0000
,
0020
0000
0000
0000
,
0000
0000
0030
0000
,
2000
0000
0000
0000
,
0000
0000
3000
0000
,
0002
0000
0000
0000
,
0000
0000
0003
0000
,
0100
0000
0100
0000
,
0100
0000
0100
0000
,
0010
0000
0010
0000
,
0010
0000
0010
0000
,
1000
0000
1000
0000
,
1000
0000
1000
0000
,
0001
0000
0001
0000
,
0001
0000
0001
0000
,
0100
0000
1000
0000
,
0100
0000
1000
0000
,
0001
0000
0010
0000
,
0001
0000
0010
0000
,
0001
0000
0100
0000
,
0001
0000
0100
0000
,
0010
0000
1000
0000
,
0010
0000
1000
0000
,
0002
0000
0103
0000
,
2000
0000
3010
0000
,
0200
0000
0000
0000
,
0310
0000
0000
0000
,
0002
0000
1003
0000
,
2000
0000
3001
0000
,
0020
0000
0130
0000
,
0200
0000
0310
0000
,
1000
1000
1000
1000
,
0001
0001
1001
0000
,
0010
0010
0010
0010
,
0100
0100
0110
0000
,
1000
1000
0001
0001
,
1000
0001
1001
0000
,
0010
0010
0100
0100
,
0010
0010
0010
0010
,
2002
0000
0000
0000
,
3003
0000
0000
0000
;

//---------------dance-single - ----------------
#NOTES:
     dance-single:
     :
     Challenge:
     12:
     0.413,0.438,0.137,0.042,0.210,258.000,13.000,4.000,112.000,0.000,0.000,0.413,0.438,0.137,0.042,0.210,258.000,13.000,4.000,112.000,0.000,0.000:
0000
0000
0000
0000
,
0000
0000
0000
0000
,
0000
0000
0000
0000
,
0000
0000
0000
0000
,
0001
0000
0000
0000
1000
0000
0001
0100
0000
0001
0100
0000
MMMM
0000
0000
0000
,
0010
0000
1000
0000
0100
0000
1000
0001
0000
1000
0001
0000
MMMM
0000
0000
0000
,
0100
0000
0000
0000
1000
0000
0001
0010
0000
0001
0010
0000
MMMM
0000
0000
0000
,
0100
0010
0100
0010
0100
0000
MMMM
0000
,
2000
0100
0000
0100
,
0000
0000
3100
0000
0010
0001
0010
0001
,
0200
0010
0000
0010
,
0000
0310
0010
MMMM
,
1000
0000
0100
0000
1000
0000
0000
0000
0001
0000
0000
MMMM
0000
0000
0001
0000
,
0000
0000
0100
0000
0100
0000
0000
0000
0010
0000
0000
MMMM
0000
0000
0001
0000
,
0100
0000
0001
0000
1000
0000
0000
0000
0100
0000
0000
MMMM
0000
0000
0100
0000
,
0011
1001
1100
0101
,
MMMM
0000
0100
0001
0100
0000
0001
1000
,
0001
0000
0010
0001
0010
0000
0110
0000
,
MMMM
0000
0100
1000
0100
0000
1000
0001
,
1000
0000
0010
1000
0010
0000
0110
0000
,
MMMM
0000
0010
1000
0100
0000
0100
1000
,
0001
0000
0001
0010
0100
0000
0110
0000
,
MMMM
0000
0010
0001
0100
0000
0100
0001
,
1000
0000
1000
0100
0010
0000
0110
0000
,
MMMM
0001
0100
0001
0000
1000
0100
0000
,
MMMM
0000
0000
0000
0100
0000
1000
0000
0001
1000
0001
0000
1000
0000
0100
0010
,
0000
1000
0100
1000
0000
0001
0100
0000
,
MMMM
0000
0000
0000
0100
0000
0001
0000
1000
0001
1000
0000
0001
0000
0100
0010
,
0000
0100
0001
0010
0000
0010
1000
0000
,
MMMM
0000
0000
0000
0001
0000
1000
0000
0100
1000
0100
0000
0010
0000
0001
1000
,
0000
0100
1000
0010
0000
0010
0001
0000
,
MMMM
0000
0000
0000
1000
0000
0001
0000
0100
0001
0100
0000
0010
0000
1000
0001
,
0100
0000
0000
0000
0001
0100
0001
0000
0010
0100
0010
0100
0010
0000
0000
0000
,
MMMM
0000
0000
0000
0100
1000
0100
0000
1000
0001
1000
0001
1000
0000
0000
0000
,
MMMM
0000
0000
0000
0110
0000
0000
1000
0010
0000
0000
0100
0001
0000
0000
0000
,
MMMM
0000
0000
0000
1000
0100
1000
0100
1000
0100
1000
0100
1000
0000
0000
0000
,
MMMM
0000
0000
0000
0100
0010
0100
0000
0010
0000
0000
0010
0000
0000
0000
0000
,
MMMM
0000
0000
0000
0001
0100
0001
0100
0001
0100
0001
0100
0001
0000
0000
0000
,
MMMM
0000
0000
0000
0001
0100
0001
0000
0100
0000
0010
0000
1000
0000
0000
0000
,
MMMM
0000
0000
0000
0010
0001
0010
0001
1000
0100
1000
0100
0010
0000
0000
0000
,
0001
1000
0100
1000
0010
1000
0001
0100
,
0010
0100
0001
1000
0100
0000
MMMM
0000
,
0010
0001
1000
0001
0100
0010
0100
0001
,
1000
0100
1000
0001
0010
0000
MMMM
0000
,
0100
0010
0100
1000
0010
0100
0001
0010
,
0001
1000
0100
1000
0010
0000
MMMM
0000
,
0010
1000
0001
0100
0001
1000
0100
0010
,
0011
0011
1100
MMMM
,
2002
0000
0000
0000
,
3003
0000
0000
0000
;

//---------------dance-single - ----------------
#NOTES:
     dance-single:
     :
     Hard:
     13:
     0.533,0.619,0.200,0.042,0.310,332.000,19.000,4.000,0.000,0.000,0.000,0.533,0.619,0.200,0.042,0.310,332.000,19.000,4.000,0.000,0.000,0.000:
0000
0000
0000
0000
,
0000
0000
0000
0000
,
0000
0000
0000
0000
,
0000
0000
0000
0000
,
0001
0000
0000
0000
1000
0000
0001
0100
0000
0001
0100
0000
1001
0000
1000
0000
,
0010
0000
1000
0000
0100
0000
1000
0001
0000
1000
0001
0000
1001
0000
0001
0000
,
0100
0000
0000
0000
1000
0000
0001
0010
0000
0001
0010
0000
0110
0000
0010
0000
,
0100
0000
0010
0000
0100
0000
0010
0000
0100
0000
1000
0001
1000
0001
1000
0001
,
2000
0100
0000
0100
,
0000
0000
3100
0000
0010
0001
0010
0001
,
0200
0010
0000
0010
,
0000
0310
0010
0010
,
1000
0000
0100
0000
1000
0000
0000
0000
0001
0000
0000
1000
0000
0000
0001
0000
,
0000
0000
0100
0000
0100
0000
0000
0000
0010
0000
0000
1000
0000
0000
0001
0000
,
0100
0000
0001
0000
1000
0000
0000
0000
0100
0000
0000
0010
0000
0000
0100
0000
,
0011
1001
1100
0101
,
0010
0000
0100
0001
0100
0000
0001
1000
,
0001
0000
0010
0001
0010
0000
0110
0000
,
0001
0000
0100
1000
0100
0000
1000
0001
,
1000
0000
0010
1000
0010
0000
0110
0000
,
1000
0000
0010
1000
0100
0000
0100
1000
,
0001
0000
0001
0010
0100
0000
0110
0000
,
0001
0000
0010
0001
0100
0000
0100
0001
,
1000
0000
1000
0100
0010
0000
0110
0000
,
1000
0001
0100
0001
0000
1000
0100
1000
,
0000
0000
0001
0000
0100
0000
1000
0000
0001
1000
0001
0000
1000
0000
0100
0010
,
0000
1000
0100
1000
0000
0001
0100
0001
,
0000
0000
1000
0000
0100
0000
0001
0000
1000
0001
1000
0000
0001
0000
0100
0010
,
0000
0100
0001
0010
0000
0010
1000
0100
,
0000
0000
0010
0000
0001
0000
1000
0000
0100
1000
0100
0000
0010
0000
0001
1000
,
0000
0100
1000
0010
0000
0010
0001
0100
,
0000
0000
0010
0000
1000
0000
0001
0000
0100
0001
0100
0000
0010
0000
1000
0001
,
0100
0000
0000
0000
0001
0100
0001
0000
0010
0100
0010
0100
0010
0001
1000
0001
,
1000
0000
0010
1000
0100
1000
0100
0000
1000
0001
1000
0001
1000
0000
0010
0000
,
0110
0000
0100
0000
0110
0000
0000
1000
0010
0000
0000
0100
0001
0000
0010
0100
,
0010
0100
1000
0000
1000
0100
1000
0100
1000
0100
1000
0100
1000
0000
0000
0000
,
1001
0000
0001
0000
0100
0010
0100
0000
0010
0000
0000
0010
1000
0010
1000
0001
,
1000
0001
1000
0000
0001
0100
0001
0100
0001
0100
0001
0100
0001
0000
0000
0000
,
1000
0001
1000
0000
0001
0100
0001
0000
0100
0000
0010
0000
1000
0000
0001
1000
,
0100
0000
0000
0000
0010
0001
0010
0001
1000
0100
1000
0100
0010
0000
0000
0000
,
0001
1000
0100
1000
0010
1000
0001
0100
,
0010
0000
0100
0000
0001
0000
1000
0000
0100
0010
0100
0000
1000
0000
0001
1000
,
0010
0001
1000
0001
0100
0010
0100
0001
,
1000
0000
0100
0000
1000
0000
0001
0000
0010
0001
0010
0000
0100
0000
1000
0001
,
0100
0010
0100
1000
0010
0100
0001
0010
,
0001
0000
1000
0000
0100
0000
1000
0000
0010
0001
0010
0000
0100
0000
1000
0001
,
0010
1000
0001
0100
0001
1000
0100
0010
,
0011
0011
1100
0101
,
2002
0000
0000
0000
,
3003
0000
0000
0000
;

//---------------dance-single - ----------------
#NOTES:
     dance-single:
     :
     Easy:
     6:
     0.246,0.232,0.084,0.168,0.000,140.000,8.000,16.000,0.000,0.000,0.000,0.246,0.232,0.084,0.168,0.000,140.000,8.000,16.000,0.000,0.000,0.000:
0000
0000
0000
0000
,
0000
0000
0000
0000
,
0000
0000
0000
0000
,
0000
0000
0000
0000
,
1000
0100
0000
0100
,
0001
0010
0000
0010
,
1000
0001
0000
0001
,
0100
1000
0010
0010
,
2001
0000
0000
0000
,
0000
0000
3000
0000
0002
0003
0200
0300
,
0020
0000
0000
0000
,
0000
0000
0030
0000
2000
3000
0002
0003
,
0200
0000
0010
0000
,
0010
0000
0300
0000
0020
0030
2000
3000
,
0002
0000
0100
0000
,
0103
0010
0100
0010
,
1000
0100
1000
0001
,
0100
0001
0010
0001
,
0100
0010
1000
0001
,
0010
0100
1000
0001
,
0100
0100
0010
1000
,
0001
0001
1000
0100
,
0010
0010
0100
1000
,
0001
0001
0100
0010
,
1000
1000
0000
1000
,
0000
1000
0001
1000
,
0001
0010
0000
0010
,
0000
0010
1000
0001
,
0100
0001
0000
0001
,
0000
0001
0100
0010
,
1000
0100
0000
0100
,
0000
0100
0001
1000
,
1001
0001
0000
0100
,
0110
0010
0000
1000
,
1100
1000
0000
0001
,
0011
0001
0001
0001
,
1000
0000
0000
0000
,
0100
0100
0010
0010
,
0110
0000
0110
0000
,
0010
0001
0100
1000
,
0020
1000
1000
1000
,
0000
1000
1000
1030
,
0200
0001
0001
0001
,
0000
0001
0001
0301
,
2000
0010
0010
0010
,
0000
0010
0010
3010
,
0002
0100
0100
0100
,
0010
0010
0010
0013
,
2002
0000
0000
0000
,
3003
0000
0000
0000
;

//---------------dance-single - ----------------
#NOTES:
     dance-single:
     :
     Medium:
     10:
     0.394,0.387,0.168,0.231,0.000,224.000,16.000,22.000,0.000,0.000,0.000,0.394,0.387,0.168,0.231,0.000,224.000,16.000,22.000,0.000,0.000,0.000: // measure 0
0000
0000
0000
0000
,  // measure 1
0000
0000
0000
0000
,  // measure 2
0000
0000
0000
0000
,  // measure 3
0000
0000
0000
0000
,  // measure 4
0001
0001
0001
0000
0000
0000
0000
0000
,  // measure 5
1000
1000
1000
0000
0000
0000
0000
0000
,  // measure 6
0001
0001
0100
0000
0000
0000
0000
0000
,  // measure 7
1000
1000
0010
0000
0010
0000
0010
0000
,  // measure 8
0120
1000
0000
1000
,  // measure 9
0000
1000
0000
1030
,  // measure 10
0210
0001
0000
0001
,  // measure 11
0000
0001
0000
0301
,  // measure 12
0102
1000
0010
1000
,  // measure 13
0100
1000
0010
1003
,  // measure 14
2100
0001
0010
3001
,  // measure 15
1001
0110
1001
0110
,  // measure 16
1000
0000
0100
1000
0100
0000
1000
0001
,  // measure 17
1000
0000
0001
0010
0001
0000
1000
0000
,  // measure 18
0001
0000
0100
0001
0100
0000
0001
1000
,  // measure 19
0001
0000
1000
0010
1000
0000
0001
0000
,  // measure 20
0100
0000
0010
1000
0010
0000
1000
0001
,  // measure 21
1000
0000
0001
0010
0001
0000
1100
0000
,  // measure 22
0010
0001
0010
0000
0001
1000
0001
0000
,  // measure 23
1000
0010
1000
0010
1000
0001
1000
0000
,  // measure 24
0000
0010
0001
0010
0000
0001
0010
0001
,  // measure 25
0000
1000
0001
1000
0002
0000
0103
0000
,  // measure 26
0000
0010
1000
0010
0000
1000
0010
1000
,  // measure 27
0000
0001
1000
0001
2000
0000
3100
0000
,  // measure 28
0000
0010
0001
0100
0000
0010
1000
0100
,  // measure 29
0000
1000
0001
1000
0020
0000
0130
0000
,  // measure 30
0000
0001
1000
0010
0000
1000
0001
0100
,  // measure 31
0000
0001
1000
0001
0020
0000
0130
0000
,  // measure 32
1000
0100
1000
0100
1000
0100
1000
0000
,  // measure 33
0001
1000
0001
1000
0001
1000
0001
0000
,  // measure 34
0010
0001
0010
0001
0010
0001
0010
0001
,  // measure 35
0100
0001
0100
0001
0100
0001
0100
0000
,  // measure 36
0010
0110
1000
1001
,  // measure 37
0001
0100
0001
0100
0001
1000
0001
1000
,  // measure 38
0100
1000
0100
0010
0100
0001
0100
0010
,  // measure 39
0001
1000
0001
1000
0001
1000
0001
0000
,  // measure 40
0100
0000
0010
0000
1000
0001
1000
0000
,  // measure 41
0002
0003
2000
3000
0020
0030
0200
0300
,  // measure 42
0001
0000
1000
0000
0100
0010
0100
0000
,  // measure 43
0020
0030
0200
0300
2000
3000
0002
0003
,  // measure 44
0100
0000
0001
0000
1000
0010
1000
0000
,  // measure 45
0002
0003
0020
0030
2000
3000
0200
0300
,  // measure 46
0001
0000
1000
0000
0001
0100
0001
0100
,  // measure 47
0101
0101
1010
1010
,  // measure 48
2002
0000
0000
0000
,  // measure 49
3003
0000
0000
0000
;

//---------------dance-double - ----------------
#NOTES:
     dance-double:
     :
     Hard:
     12:
     0.472,0.567,0.221,0.105,0.174,283.000,21.000,10.000,0.000,0.000,0.000,0.472,0.567,0.221,0.105,0.174,283.000,21.000,10.000,0.000,0.000,0.000:
00000000
00000000
00000000
00000000
,
00000000
00000000
00000000
00000000
,
00000000
00000000
00000000
00000000
,
00000000
00000000
00000000
00000000
,
01000000
00000000
00000000
00000000
00100000
00000000
00001000
00010000
00000000
00001000
00010000
00000000
00011000
00000000
00001000
00000000
,
00000100
00000000
00000001
00000000
00001000
00000000
00000010
00001000
00000000
00000010
00001000
00000000
00000110
00000000
00000100
00000000
,
00001000
00000000
00000000
00000000
00010000
00000000
00100000
01000000
00000000
00100000
01000000
00000000
01100000
00000000
00100000
00000000
,
10000000
00000000
00000000
00000000
10010000
00000000
00000000
00000000
10000000
00000000
00000000
00000000
10000000
00010000
10000000
00010000
,
20000000
01000000
00010000
30010000
,
00200000
00010000
00001000
00301000
,
00000020
00000001
00000100
00000130
,
00000002
00000100
00001000
00001003
,
00000010
00000000
00001000
00000000
00000100
00000000
00000000
00000000
00000001
00000000
00000000
00000001
00000000
00000000
00000001
00000000
,
00000000
00000000
00000100
00000000
00000100
00000000
00000000
00000000
00001000
00000000
00000000
00010000
00000000
00000000
00001000
00000000
,
00010000
00000000
00100000
00000000
01000000
00000000
00000000
00000000
00010000
00000000
00000000
00010000
00000000
00000000
00010000
00000000
,
10000000
11000000
00110000
00011000
,
00002000
00010000
00100000
01003000
,
00020000
00001000
00000100
00030010
,
00002000
00000001
00000010
00003100
,
00020000
00100000
01000000
10030000
,
00100000
00000000
01000000
00010000
01000000
00000000
00010000
00000000
,
10010000
00000000
10000000
01000000
10000000
00000000
00010000
00000000
,
00110000
00000000
00001000
00010000
00001000
00000000
00000100
00000000
,
00000110
00000000
00000100
00000001
00000100
00000000
00000010
00000000
,
00000100
00000001
00000100
00001000
00000000
00010000
00001000
00010000
,
00000000
00100000
10000000
00010000
10000000
10000000
01000000
01000000
,
00000000
10000000
01000000
00010000
00000000
00001000
00010000
00001000
,
00000000
00000010
00000001
00001000
00000001
00000001
00000100
00000100
,
00000000
00000010
00001000
00000001
00000000
00000100
00001000
00010000
,
00000000
00000000
00100000
00000000
01000000
00000000
00001000
00000000
00010000
00000000
00100000
00000000
10000000
00000000
00010000
00100000
,
00000000
00100000
00010000
10000000
00000000
01000000
00010000
00001000
,
00000000
00000000
00000010
00000000
00000100
00000000
00010000
00000000
00001000
00000000
00000010
00000000
00000001
00000000
00001000
00000010
,
00000100
00000000
00000000
00000000
00000010
00000100
00000010
00000000
00000100
00000001
00000100
00000001
00000100
00000001
00001000
00000001
,
00001000
00000000
00000100
00000000
00010000
00000000
00001000
00000000
00100000
00010000
00100000
00010000
00100000
00000000
01000000
00000000
,
10000000
00000000
10000000
00000000
10000000
00000000
00000000
00000000
10100000
00000000
00000000
01010000
00000000
00000000
00001000
00010000
,
00001000
00010000
00001000
00000000
00010000
00000000
00001000
00000000
00000010
00000001
00000010
00000001
00000010
00000000
00000000
00000000
,
00001001
00000000
00000001
00000000
00000100
00000010
00000100
00000000
00000010
00000000
00000000
00000100
00000001
00000100
00000001
00000100
,
00000010
00000100
00000010
00000000
00000100
00000000
00001000
00000000
00010000
00000000
00100000
00000000
01000000
00000000
00000000
00000000
,
10000000
00010000
10000000
00000000
00010000
01000000
00010000
00000000
01000000
00000000
00100000
00000000
10000000
00000000
00010000
01000000
,
00010000
00000000
00100000
00001000
00010000
00000100
00011000
00000000
,
00001000
00010000
00000100
00000000
00010000
00001000
01000000
00000000
,
00010000
01000000
00100000
10000000
00010000
00000000
00110000
00000000
,
00100000
00001000
00010000
00000000
00000010
00010000
00001000
00000000
,
00000100
00000001
00000010
00000100
00001000
00000000
00001010
00000000
,
00000100
00001000
00010000
00000000
00100000
00010000
00001000
00000000
,
00010000
00100000
10000000
00010000
00100000
00000000
11000000
00000000
,
01000000
00010000
00001000
00000000
00000010
00001000
00010000
00000000
,
00001000
00000100
00000110
00000000
00001010
00000000
00000101
00000000
,
00002002
00000000
00000000
00000000
,
00003003
00000000
00000000
00000000
;

//---------------dance-double - ----------------
#NOTES:
     dance-double:
     :
     Challenge:
     11:
     0.392,0.515,0.126,0.105,0.158,239.000,12.000,10.000,208.000,0.000,0.000,0.392,0.515,0.126,0.105,0.158,239.000,12.000,10.000,208.000,0.000,0.000:
00000000
00000000
00000000
00000000
,
00000000
00000000
00000000
00000000
,
00000000
00000000
00000000
00000000
,
00000000
00000000
00000000
00000000
,
01000000
00000000
00000000
00000000
00100000
00000000
00001000
00010000
00000000
00001000
00010000
00000000
MMMMMMMM
00000000
00001000
00000000
,
00000100
00000000
00000001
00000000
00001000
00000000
00000010
00001000
00000000
00000010
00001000
00000000
MMMMMMMM
00000000
00000100
00000000
,
00001000
00000000
00000000
00000000
00010000
00000000
00100000
01000000
00000000
00100000
01000000
00000000
MMMMMMMM
00000000
00100000
00000000
,
10000000
00000000
00000000
00000000
10010000
00000000
00000000
00000000
MMMMMMMM
00000000
00000000
00000000
10000000
00010000
10000000
00010000
,
20000000
01000000
00010000
30010000
,
00200000
00010000
00001000
00301000
,
00000020
00000001
00000100
00000130
,
00000002
00000100
00001000
00001003
,
00000010
00000000
00001000
00000000
00000100
00000000
00000000
00000000
00000001
00000000
00000000
MMMMMMMM
00000000
00000000
00000001
00000000
,
00000000
00000000
00000100
00000000
00000100
00000000
00000000
00000000
00001000
00000000
00000000
MMMMMMMM
00000000
00000000
00001000
00000000
,
00010000
00000000
00100000
00000000
01000000
00000000
00000000
00000000
00010000
00000000
00000000
MMMMMMMM
00000000
00000000
00010000
00000000
,
10000000
11000000
00110000
00011000
,
00002000
00010000
00100000
01003000
,
00020000
00001000
00000100
00030010
,
00002000
00000001
00000010
00003100
,
00020000
00100000
01000000
10030000
,
00100000
00000000
01000000
00010000
01000000
00000000
MMMMMMMM
00000000
,
10010000
00000000
10000000
01000000
10000000
00000000
MMMMMMMM
00000000
,
00110000
00000000
00001000
00010000
00001000
00000000
MMMMMMMM
00000000
,
00000110
00000000
00000100
00000001
00000100
00000000
MMMMMMMM
00000000
,
00000100
00000001
00000100
00001000
00000000
00010000
00001000
00010000
,
00000000
00100000
10000000
00010000
10000000
00000000
MMMMMMMM
00000000
,
00000000
10000000
01000000
00010000
00000000
00001000
00010000
00001000
,
00000000
00000010
00000001
00001000
00000001
00000000
MMMMMMMM
00000000
,
00000000
00000010
00001000
00000001
00000000
00000100
00001000
00010000
,
00000000
00100000
01000000
00001000
00010000
00000000
MMMMMMMM
00000000
,
00000000
00100000
00010000
10000000
00000000
01000000
00010000
00001000
,
00000000
00000010
00000100
00010000
00001000
00000010
MMMMMMMM
00000000
,
00000100
00000000
00000000
00000000
00000010
00000100
00000010
00000000
00000100
00000001
00000100
00000001
00000100
00000001
00001000
00000000
,
MMMMMMMM
00000000
00000100
00000000
00010000
00000000
00001000
00000000
00100000
00010000
00100000
00010000
00100000
00000000
01000000
00000000
,
10000000
00000000
00000000
00000000
MMMMMMMM
00000000
00000000
00000000
10100000
00000000
00000000
01010000
00000000
00000000
00001000
00010000
,
00001000
00010000
00001000
00000000
00010000
00000000
00001000
00000000
00000010
00000001
00000010
00000001
00000010
00000000
00000000
00000000
,
MMMMMMMM
00000000
00000000
00000000
00000100
00000010
00000100
00000000
00000010
00000000
00000000
00000100
00000001
00000100
00000001
00000100
,
00000010
00000100
00000010
00000000
00000100
00000000
00001000
00000000
00010000
00000000
00000000
00000000
MMMMMMMM
00000000
00000000
00000000
,
10000000
00010000
10000000
00000000
00010000
01000000
00010000
00000000
01000000
00000000
00100000
00000000
10000000
00000000
00010000
01000000
,
00010000
00000000
00100000
00001000
00010000
00000000
MMMMMMMM
00000000
,
00001000
00010000
00000100
00000000
00010000
00001000
01000000
00000000
,
00010000
MMMMMMMM
00010000
MMMMMMMM
,
00100000
00001000
00010000
00000000
00000010
00010000
00001000
00000000
,
00000100
MMMMMMMM
00001000
MMMMMMMM
,
00000100
00001000
00010000
00000000
00100000
00010000
00001000
00000000
,
00010000
00100000
10000000
00010000
00100000
00000000
MMMMMMMM
00000000
,
01000000
00010000
00001000
00000000
00000010
00001000
00010000
00000000
,
00001000
00000100
00000110
00000000
00001010
00000000
MMMMMMMM
00000000
,
00002002
00000000
00000000
00000000
,
00003003
00000000
00000000
00000000
;

//---------------dance-double - ----------------
#NOTES:
     dance-double:
     :
     Medium:
     9:
     0.385,0.361,0.168,0.053,0.000,235.000,16.000,5.000,0.000,0.000,0.000,0.385,0.361,0.168,0.053,0.000,235.000,16.000,5.000,0.000,0.000,0.000:
00000000
00000000
00000000
00000000
,
00000000
00000000
00000000
00000000
,
00000000
00000000
00000000
00000000
,
00000000
00000000
00000000
00000000
,
00100000
01100000
00010000
10010000
,
01000000
01001000
00001000
00011000
,
00000100
00000110
00001000
00001001
,
00001000
00000100
00001000
00000100
00010000
00001000
00010000
00001000
,
02000000
00010000
00000000
00010000
,
00000000
00100000
03010000
00001000
,
00000200
00001000
00000000
00001000
,
00000010
00001000
00010300
01000000
,
00100000
00000000
00100000
00001000
00100000
00000000
10010000
00000000
,
00010000
00000000
00100000
00000000
00001000
00010000
00000010
00000000
,
00000100
00000000
00000100
00010000
00000100
00000000
00001001
00000000
,
00000001
00001000
00010000
10000000
,
01000000
00000000
10000000
01000000
10000000
00000000
00010000
00100000
,
00010000
00000000
01000000
00001000
00010000
00000000
00001010
00000000
,
00000100
00000000
00000001
00000100
00000001
00000000
00001000
00000010
,
00001000
00000000
00000100
00010000
00001000
00000000
00110000
00000000
,
01000000
10000000
00010000
00000000
01000000
00100000
00010000
00000000
,
00001000
00010000
00001000
00000000
00000100
00000010
00001000
00000000
,
00000001
00000010
00000100
00000000
00000010
00000001
00000100
00000000
,
00001000
00010000
00001000
00000000
00010000
00100000
01000000
00000000
,
00000000
10000000
00010000
10000000
00000000
00010000
10000000
00010000
,
00000000
00100000
01000000
00010000
00001000
00000010
00000001
00000000
,
00000000
00000001
00001000
00000001
00000000
00001000
00000001
00001000
,
00000000
00000010
00000100
00001000
00010000
00100000
10000000
00000000
,
00000000
00010000
01000000
00010000
00000000
01000000
00001000
01000000
,
00000000
00010000
01000000
00100000
00010000
00001000
00000100
00000000
,
00000000
00000010
00001000
00000010
00000000
00010000
00000010
00010000
,
00000000
00001000
00000100
00000010
00010000
00001000
01000000
00000000
,
00100000
20100000
00010000
00010000
,
31000000
00010000
00001000
00000010
00000001
00000000
00001001
00000000
,
00000001
00000100
00000001
00000000
00000100
00001000
00000100
00000000
,
00002000
00010000
01000000
00103000
,
00010000
01000000
10000000
01000000
00010000
01000000
10000000
00000000
,
00010000
00100000
10000000
01000000
,
00010000
00001000
00010000
00001000
00010000
00000000
00011000
00000000
,
00001000
00000000
00000100
00000000
00000001
00000010
00000100
00000000
,
00000010
00000001
00000010
00000001
00000100
00000001
00000100
00000000
,
00000010
00001000
00000010
00001000
00000100
00010000
00001000
00000000
,
00010000
01000000
10000000
00100000
,
01000000
00010000
00100000
00000000
00001000
00010000
00001000
00000000
,
00010000
01000000
00010000
01000000
10000000
00100000
10000000
00000000
,
00010000
01000000
00100000
01000000
00001000
00010000
00001000
00000000
,
00000100
00000001
00000010
00000100
,
00000100
00000011
00001001
00000101
,
00000020
00000000
00000000
00000000
,
00000030
00000000
00000000
00000000
;

//---------------dance-double - ----------------
#NOTES:
     dance-double:
     :
     Easy:
     6:
     0.267,0.335,0.210,0.147,0.000,144.000,20.000,14.000,0.000,0.000,0.000,0.267,0.335,0.210,0.147,0.000,144.000,20.000,14.000,0.000,0.000,0.000:
00000000
00000000
00000000
00000000
,
00000000
00000000
00000000
00000000
,
00000000
00000000
00000000
00000000
,
00000000
00000000
00000000
00000000
,
00000010
00000100
00000000
00000110
,
00000100
00001000
00000000
00011000
,
00010000
01000000
00000000
01100000
,
01000000
00100000
00010000
00010000
,
20000000
00000000
00000000
00000000
,
00000000
30000000
01000000
00010000
,
00002000
00000000
00000000
00000000
,
00000000
00003000
00000010
00000001
,
00000200
00000000
00000000
00000000
,
00000000
00000300
00001000
00010000
,
00200000
00000000
00000000
00000000
,
10300000
10000000
10000000
10000000
,
01000000
00100000
01000000
10000000
,
00100000
01000000
00100000
01000000
,
00010000
01000000
00001000
00010000
,
00001000
00000100
00000010
00000100
,
00000001
00000010
00000001
00000010
,
00000100
00001000
00000100
00001000
,
00000001
00000100
00010000
00001000
,
00100000
10000000
00010000
00000000
,
11000000
10000000
00010000
00010000
,
01010000
00010000
00010000
00000000
,
00011000
00010000
00010000
00001000
,
00011000
00001000
00001000
00000000
,
00000101
00000001
00001000
00001000
,
00001100
00000100
00000100
00000000
,
00011000
00001000
00001000
00010000
,
00011000
00010000
00010000
00000000
,
02000000
10000000
10000000
13000000
,
00020000
00100000
00100000
00130000
,
01100000
00000000
10010000
00000000
,
01000000
00010000
01000000
00010000
,
00002000
00000001
00000001
00003001
,
00000020
00000100
00000100
00000130
,
00001001
00000000
00000110
00000000
,
00000001
00000100
00001000
00010000
,
00200000
10000000
01000000
01000000
,
00010000
01000000
01300000
00000000
,
00002000
00010000
01000000
01000000
,
00100000
00100000
00013000
00000000
,
00000200
00000001
00000010
00000010
,
00001000
00000010
00000310
00000000
,
00020000
00001000
00000100
00030100
,
00010100
00010100
01001000
01001000
,
00022000
00000000
00000000
00000000
,
00033000
00000000
00000000
00000000
;
