#VERSION:0.81;
#TITLE:airwave;
#SUBTITLE:MELODIC TRANCE;
#ARTIST:ReX;
#TITLETRANSLIT:;
#SUBTITLETRANSLIT:;
#ARTISTTRANSLIT:;
#GENRE:;
#ORIGIN:;
#CREDIT:;
#BANNER:airwave.png;
#BACKGROUND:airwave-bg.png;
#PREVIEWVID:;
#JACKET:;
#CDIMAGE:;
#DISCIMAGE:;
#LYRICSPATH:;
#CDTITLE:;
#MUSIC:airwave.mp3;
#OFFSET:-0.053;
#SAMPLESTART:65.791;
#SAMPLELENGTH:12.000;
#SELECTABLE:YES;
#DISPLAYBPM:19.000:150.000;
#BPMS:0.000=150.000;
#STOPS:;
#DELAYS:;
#WARPS:;
#TIMESIGNATURES:0.000=4=4;
#TICKCOUNTS:0.000=4;
#COMBOS:0.000=1;
#SPEEDS:0.000=1.000=0.000=0;
#SCROLLS:0.000=1.000;
#FAKES:;
#LABELS:0.000=Song Start;
#BGCHANGES:;
#KEYSOUNDS:;
#ATTACKS:
;

//---------------dance-single - ----------------
#NOTEDATA:;
#CHARTNAME:;
#STEPSTYPE:dance-single;
#DESCRIPTION:;
#CHARTSTYLE:;
#DIFFICULTY:Hard;
#METER:11;
#RADARVALUES:0.379,0.345,0.029,0.029,0.342,273.000,3.000,3.000,0.000,0.000,0.000,0.000,0.000,0.379,0.345,0.029,0.029,0.342,273.000,3.000,3.000,0.000,0.000,0.000,0.000,0.000;
#CREDIT:;
#OFFSET:-0.273;
#BPMS:0.000=150.000
,96.000=18.750
,100.000=150.000
,132.000=149.750
,136.000=150.000
;
#STOPS:;
#DELAYS:;
#WARPS:;
#TIMESIGNATURES:0.000=4=4
;
#TICKCOUNTS:0.000=4
;
#COMBOS:0.000=1
;
#SPEEDS:0.000=1.000=0.000=0
;
#SCROLLS:0.000=1.000
;
#FAKES:;
#LABELS:0.000=Song Start
;
#DISPLAYBPM:19.000:150.000;
#NOTES:
0000
0000
0000
0000
,
0000
0000
0000
0000
,
0000
0000
0000
0000
,
0000
0000
0000
0000
,
0001
0100
1000
0100
,
0001
0010
1000
0010
,
0100
1000
0010
1000
,
0010
0100
0001
0100
,
0010
0000
1000
0000
0100
0000
0000
1000
0000
0001
0000
0000
1000
0000
0001
0000
,
0010
0000
0001
0000
0100
0000
0000
0001
0000
1000
0000
0000
0001
0000
1000
0000
,
0100
0000
1000
0000
0010
0000
0000
0100
0000
0001
0000
0000
0100
0000
0001
0000
,
0100
0000
0001
0000
0010
0000
0000
0100
0000
1000
0000
0000
0100
0000
1000
0000
,
0100
0000
0010
0000
0001
0000
0000
1000
0000
0100
0000
0000
0010
0000
0001
0000
,
0100
0000
0010
0000
1000
0000
0000
0001
0000
0100
0000
0000
0010
0000
0100
0000
,
0001
0000
1000
0000
0001
0000
0000
1000
0000
0010
0000
0000
0100
0000
0001
0000
,
1000
0000
0001
0000
1000
0000
0000
0001
0000
0010
0000
0000
0100
0000
1000
0000
,
0100
0000
0010
0000
0001
0000
0000
0001
0000
0001
0000
0000
0001
0000
0100
0000
,
0100
0000
0010
0000
1000
0000
0000
1000
0000
1000
0000
0000
1000
0000
0100
0000
,
0100
0000
1000
0000
0001
0000
0000
1000
0000
1000
0000
0000
0001
0000
0010
0000
,
0010
0000
0001
0000
1000
0000
0000
0001
0000
0001
0000
0000
1000
0000
0010
0000
,
0100
0000
0100
0000
0010
0000
0000
1000
0000
1000
0000
0000
0001
0000
1000
0000
,
0100
0000
0100
0000
0010
0000
0000
0001
0000
0001
0000
0000
1000
0000
0010
0000
,
0100
0000
0001
0000
0010
0000
0000
0100
0000
0100
0000
0000
1000
0000
0010
0000
,
1000
0000
0100
0000
0010
0000
0000
0001
0000
0001
0000
0000
0100
0000
0010
0000
,
2002
0000
0000
0000
0000
0000
0000
0000
0000
0000
0000
0000
0000
0000
0000
3003
,
1000
0000
0100
0000
1000
0010
1000
0000
,
0001
0000
0100
0000
0001
0010
0001
0000
,
1000
0000
0001
0000
0100
0010
1000
0000
,
0001
0000
1000
0000
0100
0010
0001
0000
,
0001
0000
0000
0001
0000
0000
0100
0000
0000
0100
0000
0000
0010
0000
1000
0000
,
0010
0000
0000
0010
0000
0000
1000
0000
0000
1000
0000
0000
0001
0000
0001
0000
,
0010
0000
0000
0010
0000
0000
0100
0000
0000
0100
0000
0000
1000
0000
1000
0000
,
0001
0000
0000
0001
0000
0000
1000
0000
0000
1000
0000
0000
0001
0000
1000
0000
,
0001
1001
0100
0110
,
0010
0000
0000
0010
0000
0000
0010
0000
0100
0000
0000
0001
0000
0000
0001
0000
,
1000
0000
0000
1000
0000
0000
1000
0000
0001
0000
0000
0010
0000
0000
0010
0000
,
0100
0000
0000
0100
0000
0000
0100
0000
1000
0000
0000
0001
0000
0000
0001
0000
,
0100
0000
0000
0100
0000
0000
0010
0000
1000
0000
0000
0001
0000
0000
0001
0000
,
0010
0000
0000
0010
0000
0000
0100
0000
1000
0000
0000
0001
0000
0000
0001
0000
,
1000
0000
0000
0010
0000
0000
0010
0000
0100
0000
0000
0001
0000
0000
0001
0000
,
1000
0000
0000
0100
0000
0000
0001
0000
0001
0000
0000
0100
0000
0000
1000
0000
,
0001
0000
0000
0100
0000
0000
1000
0000
1000
0000
0000
0100
0000
0000
0001
0000
,
0100
0000
0000
0010
0000
0000
1000
0000
0010
0000
0000
0100
0000
0000
0001
0000
,
0001
0000
0000
0010
0000
0000
0100
0000
1000
0000
0000
0100
0000
0000
0010
0000
,
0001
0000
0000
0100
0000
0000
1000
0000
0100
0000
0000
0001
0000
0000
0010
0000
,
1000
0000
0000
0001
0000
0000
0100
0000
1000
0000
0000
0010
0000
0000
0001
0000
,
1000
0000
0000
0100
0000
0000
1000
0000
1000
0000
0000
0001
0000
0000
0010
0000
,
1000
0000
0000
0001
0000
0000
0010
0000
1000
0000
0000
1000
0000
0000
0010
0000
,
0100
0000
0000
1000
0000
0000
0010
0000
0001
0000
0000
0100
0000
0000
1000
0000
,
0100
0000
0000
0001
0000
0000
0010
0000
1000
0000
0000
0001
0000
0000
0200
0000
,
0000
0000
0000
0000
,
0000
0000
0000
0000
0000
0000
0000
0300
;

//---------------dance-single - ----------------
#NOTEDATA:;
#CHARTNAME:;
#STEPSTYPE:dance-single;
#DESCRIPTION:;
#CHARTSTYLE:;
#DIFFICULTY:Medium;
#METER:9;
#RADARVALUES:0.317,0.345,0.095,0.019,0.000,221.000,10.000,2.000,0.000,0.000,0.000,0.000,0.000,0.317,0.345,0.095,0.019,0.000,221.000,10.000,2.000,0.000,0.000,0.000,0.000,0.000;
#CREDIT:;
#OFFSET:-0.273;
#BPMS:0.000=150.000
,96.000=18.750
,100.000=150.000
,132.000=149.750
,136.000=150.000
;
#STOPS:;
#DELAYS:;
#WARPS:;
#TIMESIGNATURES:0.000=4=4
;
#TICKCOUNTS:0.000=4
;
#COMBOS:0.000=1
;
#SPEEDS:0.000=1.000=0.000=0
;
#SCROLLS:0.000=1.000
;
#FAKES:;
#LABELS:0.000=Song Start
;
#DISPLAYBPM:19.000:150.000;
#NOTES:
0000
0000
0000
0000
,
0000
0000
0000
0000
,
0000
0000
0000
0000
,
0000
0000
0000
0000
,
0001
0100
0001
0100
,
0010
0001
0010
0001
,
1000
0100
1000
0100
,
0010
1000
0010
1000
,
0001
0100
0001
0000
1000
0000
1010
0000
,
1000
0100
1000
0000
0001
0000
0011
0000
,
0010
0100
1000
0000
0001
0000
1001
0000
,
0100
0010
0001
0000
1000
0000
1001
0000
,
1000
0100
0001
0000
0010
0000
0110
0000
,
0001
0010
1000
0000
0100
0000
0110
0000
,
0100
0001
1000
0000
0001
0000
1001
0000
,
1000
0100
0010
0000
0100
0000
1001
0000
,
1000
0100
1000
0000
0100
0001
0100
0000
,
0001
0010
0001
0000
0010
1000
0010
0000
,
0100
0001
0100
0000
0001
0010
0001
0000
,
0010
1000
0010
0000
1000
0100
1000
0000
,
0001
0010
0001
0000
0100
0001
0100
0000
,
1000
0100
1000
0000
0010
1000
0010
0000
,
0100
0001
0100
0000
0010
0001
0010
0000
,
1000
0010
1000
0000
0001
0100
0001
0000
,
0020
0000
0000
0000
0000
0000
0000
0030
,
0100
0100
1000
0001
,
0010
0010
0001
1000
,
0010
0100
0010
0100
,
0001
1000
0100
1000
,
0001
0001
1000
1000
,
0010
1000
0100
0100
,
1000
0001
0100
0100
,
0010
1000
0001
0100
,
0010
0110
0000
1001
,
1000
0100
0010
0000
0100
0000
1000
0000
,
0001
1000
0010
0010
,
0100
0001
1000
0000
0001
0000
0010
0000
,
0001
1000
0100
0010
,
0001
0010
0100
0000
1000
0000
0100
0000
,
1000
0010
0100
0001
,
1000
0010
0100
0000
0010
0000
0100
0000
,
0001
1000
0010
0100
,
0001
0100
1000
0000
0100
0000
0010
0000
,
1000
0010
0001
0000
0010
0000
0100
0000
,
0001
1000
0100
0000
1000
0000
0010
0000
,
0100
0001
0010
0000
0100
0000
1000
0000
,
0010
1000
0100
0000
1000
0100
0001
0000
,
0100
0001
0010
0000
0001
0010
1000
0000
,
1000
0010
0001
0000
0010
0001
0100
0000
,
0001
0100
1000
0000
0100
1000
0100
0200
,
0000
0000
0000
0000
,
0000
0000
0000
0000
0000
0000
0000
0300
;

//---------------dance-single - ----------------
#NOTEDATA:;
#CHARTNAME:;
#STEPSTYPE:dance-single;
#DESCRIPTION:;
#CHARTSTYLE:;
#DIFFICULTY:Easy;
#METER:5;
#RADARVALUES:0.204,0.190,0.019,0.010,0.000,147.000,2.000,1.000,0.000,0.000,0.000,0.000,0.000,0.204,0.190,0.019,0.010,0.000,147.000,2.000,1.000,0.000,0.000,0.000,0.000,0.000;
#CREDIT:;
#OFFSET:-0.273;
#BPMS:0.000=150.000
,96.000=18.750
,100.000=150.000
,132.000=149.750
,136.000=150.000
;
#STOPS:;
#DELAYS:;
#WARPS:;
#TIMESIGNATURES:0.000=4=4
;
#TICKCOUNTS:0.000=4
;
#COMBOS:0.000=1
;
#SPEEDS:0.000=1.000=0.000=0
;
#SCROLLS:0.000=1.000
;
#FAKES:;
#LABELS:0.000=Song Start
;
#DISPLAYBPM:19.000:150.000;
#NOTES:
0000
0000
0000
0000
,
0000
0000
0000
0000
,
0000
0000
0000
0000
,
0000
0000
0000
0000
,
0000
0010
0000
0010
,
0000
0010
0000
0010
,
0000
0100
0000
0100
,
0000
0100
0000
0100
,
1000
1000
0001
0000
,
0001
0001
1000
0000
,
1000
1000
0010
0000
,
0010
0010
1000
0000
,
0100
0100
0001
0000
,
0001
0001
0100
0000
,
0100
0100
1000
0000
,
1000
1000
0100
0000
,
0010
0001
1000
0000
,
1000
0001
0100
0000
,
0100
0010
1000
0000
,
1000
0001
0100
0000
,
0100
0001
0010
0000
,
0010
0100
1000
0000
,
1000
0001
0010
0000
,
0010
0100
1000
0000
,
1001
0000
0000
0000
,
0010
0000
0001
0000
,
0100
0000
0010
0000
,
0100
0000
1000
0000
,
0001
0000
0010
0000
,
0001
0100
0001
1000
,
1000
0100
1000
0001
,
0010
0010
0100
0100
,
1000
0001
0100
0010
,
0200
0000
0000
0300
,
0010
0010
1000
1000
,
0001
0001
0100
0100
,
0001
0001
1000
1000
,
0100
0100
0010
0010
,
0100
0100
1000
1000
,
0001
0001
0010
0010
,
0001
0001
1000
1000
,
0010
0010
0100
0100
,
0001
0100
0001
0100
,
0010
1000
0010
1000
,
0100
1000
0100
1000
,
0001
0010
0001
0010
,
0001
0100
1000
0010
,
1000
0100
0001
0010
,
0001
1000
0100
0001
,
1000
0010
0001
0100
,
1001
0000
0000
0000
;

//---------------dance-single - ----------------
#NOTEDATA:;
#CHARTNAME:;
#STEPSTYPE:dance-single;
#DESCRIPTION:;
#CHARTSTYLE:;
#DIFFICULTY:Beginner;
#METER:2;
#RADARVALUES:0.101,0.095,0.019,0.010,0.000,71.000,2.000,1.000,0.000,0.000,0.000,0.000,0.000,0.101,0.095,0.019,0.010,0.000,71.000,2.000,1.000,0.000,0.000,0.000,0.000,0.000;
#CREDIT:;
#OFFSET:-0.273;
#BPMS:0.000=150.000
,96.000=18.750
,100.000=150.000
,132.000=149.750
,136.000=150.000
;
#STOPS:;
#DELAYS:;
#WARPS:;
#TIMESIGNATURES:0.000=4=4
;
#TICKCOUNTS:0.000=4
;
#COMBOS:0.000=1
;
#SPEEDS:0.000=1.000=0.000=0
;
#SCROLLS:0.000=1.000
;
#FAKES:;
#LABELS:0.000=Song Start
;
#DISPLAYBPM:19.000:150.000;
#NOTES:
0000
0000
0000
0000
,
0000
0000
0000
0000
,
0000
0000
0000
0000
,
0000
0000
0000
0000
,
0010
0000
0000
0000
,
0010
0000
0000
0000
,
0010
0000
0000
0000
,
0010
0000
0000
0000
,
0001
0000
0000
0000
,
0100
0000
0000
0000
,
0001
0000
0000
0000
,
0100
0000
0000
0000
,
0010
0000
0000
0000
,
1000
0000
0000
0000
,
0010
0000
0000
0000
,
1000
0000
0000
0000
,
0001
0000
0001
0000
,
0100
0000
0100
0000
,
1000
0000
1000
0000
,
0010
0000
0010
0000
,
1000
0000
1000
0000
,
0100
0000
0100
0000
,
0001
0000
0001
0000
,
1000
0000
1000
0000
,
1001
0000
0000
0000
,
0001
0000
0000
0000
,
0100
0000
0000
0000
,
0010
0000
0000
0000
,
1000
0000
0000
0000
,
1000
0000
0000
0000
,
0100
0000
0000
0000
,
0010
0000
0000
0000
,
0001
0000
0000
0000
,
0200
0000
0300
0000
,
0010
0000
0010
0000
,
1000
0000
1000
0000
,
0001
0000
0001
0000
,
0100
0000
0100
0000
,
0001
0000
0001
0000
,
1000
0000
1000
0000
,
0100
0000
0100
0000
,
0010
0000
0010
0000
,
0001
0000
0100
0000
,
0001
0000
1000
0000
,
1000
0000
0100
0000
,
1000
0000
0001
0000
,
0010
0000
0001
0000
,
1000
0000
0100
0000
,
0100
0000
1000
0000
,
0001
0000
0010
0000
,
1001
0000
0000
0000
;

//---------------dance-double - ----------------
#NOTEDATA:;
#CHARTNAME:;
#STEPSTYPE:dance-double;
#DESCRIPTION:;
#CHARTSTYLE:;
#DIFFICULTY:Hard;
#METER:13;
#RADARVALUES:0.414,0.444,0.076,0.038,0.385,293.000,8.000,4.000,0.000,0.000,0.000,0.000,0.000,0.414,0.444,0.076,0.038,0.385,293.000,8.000,4.000,0.000,0.000,0.000,0.000,0.000;
#CREDIT:;
#OFFSET:-0.273;
#BPMS:0.000=150.000
,96.000=18.750
,100.000=150.000
,132.000=149.750
,136.000=150.000
;
#STOPS:;
#DELAYS:;
#WARPS:;
#TIMESIGNATURES:0.000=4=4
;
#TICKCOUNTS:0.000=4
;
#COMBOS:0.000=1
;
#SPEEDS:0.000=1.000=0.000=0
;
#SCROLLS:0.000=1.000
;
#FAKES:;
#LABELS:0.000=Song Start
;
#DISPLAYBPM:19.000:150.000;
#NOTES:
00000000
00000000
00000000
00000000
,
00000000
00000000
00000000
00000000
,
00000000
00000000
00000000
00000000
,
00000000
00000000
00000000
00000000
,
00000100
00001000
00000010
00000001
,
00001000
00000100
00000010
00000001
,
00000010
00001000
00000100
00000010
,
00000100
00001000
00000001
00001000
,
00000100
00000000
00001000
00000000
00000100
00000000
00000100
00001000
00000000
00001000
00000000
00000100
00001000
00000000
00000010
00000000
,
00000100
00000000
00000001
00000000
00000100
00000000
00000100
00000001
00000000
00000001
00000000
00000100
00000001
00000000
00001000
00000000
,
00000100
00000000
00010000
00000000
00000100
00000000
00000100
00010000
00000000
00010000
00000000
00000100
00010000
00000000
00001000
00000000
,
00100000
00000000
00010000
00000000
00100000
00000000
00100000
00010000
00000000
00010000
00000000
00100000
00010000
00000000
01000000
00000000
,
00010000
00000000
10000000
00000000
00010000
00000000
00010000
10000000
00000000
10000000
00000000
00010000
10000000
00000000
00100000
00000000
,
01000000
00000000
00010000
00000000
01000000
00000000
01000000
00010000
00000000
00010000
00000000
01000000
00010000
00000000
00100000
00000000
,
00010000
00000000
00100000
00000000
00010000
00000000
00010000
00100000
00000000
00100000
00000000
00010000
00100000
00000000
00001000
00000000
,
00010000
00000000
00000100
00000000
00010000
00000000
00010000
00000100
00000000
00000100
00000000
00010000
00000100
00000000
00001000
00000000
,
00000010
00000000
00000100
00000000
00000001
00000000
00000100
00000001
00000000
00000001
00000000
00000100
00000010
00000000
00001000
00000000
,
00000100
00000000
00010000
00000000
00001000
00000000
00010000
00001000
00000000
00100000
00000000
00010000
00100000
00000000
00010000
00000000
,
01000000
00000000
00100000
00000000
10000000
00000000
00100000
10000000
00000000
00100000
00000000
01000000
00010000
00000000
00100000
00000000
,
00001000
00000000
00010000
00000000
00001000
00000000
00010000
00000100
00000000
00001000
00000000
00000100
00000010
00000000
00000100
00000000
,
00001000
00000000
00000001
00000000
00000100
00000000
00000001
00000100
00000000
00000010
00000000
00000100
00000001
00000000
00001000
00000000
,
00000100
00000000
00010000
00000000
00001000
00000000
00100000
00001000
00000000
00010000
00000000
00001000
01000000
00000000
00100000
00000000
,
00010000
00000000
00001000
00000000
00000100
00000000
00000010
00001000
00000000
00000001
00000000
00000100
00000001
00000000
00001000
00000000
,
00000001
00000000
00000100
00000000
00001000
00000000
00010000
00100000
00000000
10000000
00000000
00010000
01000000
00000000
00100000
00000000
,
20020000
00000000
00000000
00000000
00000000
00000000
00000000
00000000
00000000
00000000
00000000
00000000
00000000
00000000
00000000
30030000
,
10000000
01000000
00100000
01000000
,
10000000
00010000
01000000
00100000
,
00010000
00001000
00010000
00000100
,
00000010
00000001
00000100
00001000
,
00000100
00000001
00001000
00000010
,
00000100
00001000
00010000
00100000
,
00010000
00001000
01000000
00100000
,
10000000
00010000
00100000
00010000
,
00200000
00000000
00000000
00300000
,
00010000
00000000
00000000
01000000
00000000
00000000
00010000
00000000
00100000
00000000
00000000
01000000
00000000
00000000
00100000
00000000
,
10000000
00000000
00000000
00010000
00000000
00000000
01000000
00000000
10000000
00000000
00000000
00100000
00000000
00000000
01000000
00000000
,
00100000
00000000
00000000
00010000
00000000
00000000
00001000
00000000
00010000
00000000
00000000
00000100
00000000
00000000
00001000
00000000
,
00000010
00000000
00000000
00000100
00000000
00000000
00000010
00000000
00001000
00000000
00000000
00000001
00000000
00000000
00001000
00000000
,
00001100
00000000
00000000
00010000
00000000
00000000
00001000
00000000
00100000
00000000
00000000
00001000
00000000
00000000
00010000
00000000
,
00011000
00000000
00000000
01000000
00000000
00000000
00010000
00000000
00100000
00000000
00000000
00001000
00000000
00000000
00010000
00000000
,
00011000
00000000
00000000
00000010
00000000
00000000
00001000
00000000
00000100
00000000
00000000
00010000
00000000
00000000
00001000
00000000
,
01001000
00000000
00000000
00100000
00000000
00000000
10000000
00000000
00010000
00000000
00000000
00100000
00000000
00000000
01000000
00000000
,
10000000
00000000
00000000
00100000
00000000
00000000
00010000
00000000
00100000
00000000
00000000
10000000
00000000
00000000
00010000
00000000
,
00100000
00000000
00000000
00001000
00000000
00000000
00010000
00000000
00000100
00000000
00000000
00000010
00000000
00000000
00000001
00000000
,
00001000
00000000
00000000
00000100
00000000
00000000
00000001
00000000
00000100
00000000
00000000
00001000
00000000
00000000
00000001
00000000
,
00000100
00000000
00000000
00001000
00000000
00000000
00010000
00000000
00100000
00000000
00000000
10000000
00000000
00000000
00010000
00000000
,
01010000
00000000
00000000
00100000
00000000
00000000
10000000
00000000
01000000
00000000
00000000
00100000
00000000
00000000
00010000
00000000
,
00011000
00000000
00000000
00010000
00000000
00000000
00000100
00000000
00000010
00000000
00000000
00000001
00000000
00000000
00000100
00000000
,
00001100
00000000
00000000
00010000
00000000
00000000
00001000
00000000
01000000
00000000
00000000
00100000
00000000
00000000
10000000
00000000
,
00010000
00000000
01000000
00000000
10000000
00000000
01000000
00010000
00000000
00010000
00000000
10000000
00010000
00000000
02000000
00000000
,
00000000
00000000
00000000
00000000
,
00000000
00000000
00000000
00000000
00000000
00000000
00000000
03000000
;

//---------------dance-double - ----------------
#NOTEDATA:;
#CHARTNAME:;
#STEPSTYPE:dance-double;
#DESCRIPTION:;
#CHARTSTYLE:;
#DIFFICULTY:Medium;
#METER:11;
#RADARVALUES:0.366,0.419,0.029,0.029,0.000,263.000,3.000,3.000,0.000,0.000,0.000,0.000,0.000,0.366,0.419,0.029,0.029,0.000,263.000,3.000,3.000,0.000,0.000,0.000,0.000,0.000;
#CREDIT:;
#OFFSET:-0.273;
#BPMS:0.000=150.000
,96.000=18.750
,100.000=150.000
,132.000=149.750
,136.000=150.000
;
#STOPS:;
#DELAYS:;
#WARPS:;
#TIMESIGNATURES:0.000=4=4
;
#TICKCOUNTS:0.000=4
;
#COMBOS:0.000=1
;
#SPEEDS:0.000=1.000=0.000=0
;
#SCROLLS:0.000=1.000
;
#FAKES:;
#LABELS:0.000=Song Start
;
#DISPLAYBPM:19.000:150.000;
#NOTES:
00000000
00000000
00000000
00000000
,
00000000
00000000
00000000
00000000
,
00000000
00000000
00000000
00000000
,
00000000
00000000
00000000
00000000
,
00001000
00000100
00000010
00000000
00000100
00000000
00001000
00000000
,
00000001
00000100
00000010
00000000
00000100
00000000
00000001
00000000
,
00001000
00000100
00010000
00000000
00000100
00000000
00010000
00000000
,
00001000
01000000
00010000
00000000
01000000
00000000
00010000
00000000
,
00100000
00010000
01000000
00000000
00100000
00100000
00100000
00000000
,
10000000
01000000
00100000
00000000
00010000
00010000
00010000
00000000
,
00100000
00001000
00010000
00000000
00000010
00000010
00000010
00000000
,
00001000
00000100
00010000
00000000
00001000
00001000
00001000
00000000
,
00100000
00010000
01000000
00000000
00100000
10000000
00100000
00000000
,
01000000
00010000
00100000
00000000
00001000
00010000
00001000
00000000
,
00010000
00000100
00000010
00000000
00000001
00000100
00000001
00000000
,
00000100
00000001
00001000
00000000
00000100
00001000
00000100
00000000
,
00000010
00000001
00000100
00000001
00000010
00000001
00000100
00000000
,
00000010
00001000
00000100
00001000
00000010
00001000
00000100
00000000
,
00010000
00001000
00000100
00001000
00010000
00001000
00000100
00000000
,
00001000
00010000
00100000
00010000
00001000
00010000
00100000
00000000
,
01000000
00010000
10000000
00010000
01000000
00010000
10000000
00000000
,
01000000
00100000
00010000
00100000
00010000
01000000
00100000
00000000
,
00010000
00001000
00000100
00001000
00000100
00000010
00001000
00000000
,
00000001
00000100
00001000
00000100
00000001
00001000
00000100
00000000
,
00000220
00000000
00000000
00000000
00000000
00000000
00000000
00000330
,
00000100
00000010
00000001
00001000
,
00000001
00000100
00001000
00000100
,
00000010
00001000
00000100
00010000
,
00001000
01000000
00100000
00010000
,
00100000
10000000
00010000
00100000
,
00001000
00100000
00010000
01000000
,
00100000
10000000
00010000
10000000
,
01000000
00100000
00010000
00001000
,
00011000
00000000
00000000
00011000
,
00001000
00000100
00001000
00000000
00000100
00000000
00000001
00000000
,
00001000
00000001
00001000
00000000
00000100
00000000
00010000
00000000
,
00001000
00100000
00001000
00000000
00100000
00000000
00010000
00000000
,
10000000
00100000
10000000
00000000
00100000
00000000
01000000
00000000
,
00010000
01000000
00010000
00000000
00100000
00000000
00001000
00000000
,
00010000
00000100
00010000
00000000
00000100
00000000
00000010
00000000
,
00000001
00001000
00000001
00000000
00000100
00000000
00000010
00000000
,
00010000
00001000
00010000
00000000
00000100
00000000
00010000
00000000
,
00001000
00010000
00001000
00010000
00100000
00010000
00100000
00010000
,
10000000
01000000
10000000
01000000
00010000
00100000
00010000
00100000
,
00001000
00000100
00001000
00000100
00000010
00001000
00000010
00001000
,
00000001
00000010
00000001
00000010
00000100
00010000
00000100
00010000
,
00001000
00010000
00100000
00010000
00001000
00000100
00000010
00001000
,
00000001
00000100
00001000
00000100
00000001
00001000
00000100
00000010
,
00001000
00010000
01000000
00010000
00001000
00010000
01000000
00100000
,
00010000
10000000
00100000
00010000
00001000
00010000
00000100
00000020
,
00000000
00000000
00000000
00000000
,
00000000
00000000
00000000
00000000
00000000
00000000
00000000
00000030
;

//---------------dance-double - ----------------
#NOTEDATA:;
#CHARTNAME:;
#STEPSTYPE:dance-double;
#DESCRIPTION:;
#CHARTSTYLE:;
#DIFFICULTY:Easy;
#METER:5;
#RADARVALUES:0.198,0.213,0.019,0.000,0.000,144.000,2.000,0.000,0.000,0.000,0.000,0.000,0.000,0.198,0.213,0.019,0.000,0.000,144.000,2.000,0.000,0.000,0.000,0.000,0.000,0.000;
#CREDIT:;
#OFFSET:-0.273;
#BPMS:0.000=150.000
,96.000=18.750
,100.000=150.000
,132.000=149.750
,136.000=150.000
;
#STOPS:;
#DELAYS:;
#WARPS:;
#TIMESIGNATURES:0.000=4=4
;
#TICKCOUNTS:0.000=4
;
#COMBOS:0.000=1
;
#SPEEDS:0.000=1.000=0.000=0
;
#SCROLLS:0.000=1.000
;
#FAKES:;
#LABELS:0.000=Song Start
;
#DISPLAYBPM:19.000:150.000;
#NOTES:
// measure 0
00000000
00000000
00000000
00000000
,  // measure 1
00000000
00000000
00000000
00000000
,  // measure 2
00000000
00000000
00000000
00000000
,  // measure 3
00000000
00000000
00000000
00000000
,  // measure 4
00000000
00010000
00000000
00010000
,  // measure 5
00000000
00010000
00000000
00010000
,  // measure 6
00000000
00001000
00000000
00001000
,  // measure 7
00000000
00001000
00000000
00001000
,  // measure 8
00010000
00010000
00001000
00000000
,  // measure 9
00000100
00000100
00000010
00000000
,  // measure 10
00001000
00001000
00000001
00000000
,  // measure 11
00000100
00000100
00000010
00000000
,  // measure 12
00000100
00000100
00001000
00000000
,  // measure 13
00010000
00010000
01000000
00000000
,  // measure 14
00100000
00100000
00010000
00000000
,  // measure 15
10000000
10000000
00100000
00000000
,  // measure 16
10000000
01000000
00100000
01000000
,  // measure 17
00100000
00010000
10000000
00000000
,  // measure 18
00010000
01000000
00100000
01000000
,  // measure 19
00010000
00100000
00001000
00000000
,  // measure 20
00010000
00000010
00000100
00000010
,  // measure 21
00000100
00000001
00001000
00000000
,  // measure 22
00000001
00001000
00000001
00001000
,  // measure 23
00000100
00000010
00000001
00001000
,  // measure 24
00000010
00000000
00000000
00000000
,  // measure 25
00000100
00000000
00000100
00000000
,  // measure 26
00000010
00000000
00000010
00000000
,  // measure 27
00001000
00000000
00001000
00000000
,  // measure 28
00000001
00000000
00000001
00000100
,  // measure 29
00001000
00000000
00001000
00000000
,  // measure 30
00010000
00000000
00010000
00000000
,  // measure 31
00100000
00000000
00100000
00000000
,  // measure 32
01000000
00000000
01000000
00000000
,  // measure 33
10010000
00000000
00000000
00000000
,  // measure 34
10000000
01000000
00100000
00010000
,  // measure 35
00010000
00100000
00001000
00010000
,  // measure 36
00001000
01000000
00100000
10000000
,  // measure 37
10000000
01000000
00100000
01000000
,  // measure 38
10000000
00100000
00010000
00001000
,  // measure 39
00100000
00001000
00010000
00000100
,  // measure 40
00001000
00000100
00000010
00000001
,  // measure 41
00000001
00000100
00000010
00001000
,  // measure 42
00000001
00000100
00000010
00000100
,  // measure 43
00000010
00001000
00000100
00010000
,  // measure 44
00001000
00000100
00000010
00001000
,  // measure 45
00000001
00000100
00001000
00010000
,  // measure 46
00000100
00010000
00001000
00100000
,  // measure 47
00010000
10000000
00100000
10000000
,  // measure 48
00010000
01000000
00100000
10000000
,  // measure 49
01000000
00100000
00010000
00011000
;
