#VERSION:0.81;
#TITLE:Xeus;
#SUBTITLE:MELODIC TRANCE;
#ARTIST:XeoN;
#TITLETRANSLIT:;
#SUBTITLETRANSLIT:;
#ARTISTTRANSLIT:;
#GENRE:;
#ORIGIN:;
#CREDIT:;
#BANNER:Xeus.png;
#BACKGROUND:Xeus-bg.png;
#PREVIEWVID:;
#JACKET:;
#CDIMAGE:;
#DISCIMAGE:;
#LYRICSPATH:;
#CDTITLE:;
#MUSIC:Xeus.mp3;
#OFFSET:-0.080;
#SAMPLESTART:16.717;
#SAMPLELENGTH:12.000;
#SELECTABLE:YES;
#DISPLAYBPM:148.000;
#BPMS:0.000=148.000,
8.000=1184.000,
36.000=148.000;
#STOPS:8.000=0.355,
9.000=0.355,
10.000=0.355,
11.000=0.355,
12.000=0.355,
13.000=0.355,
14.000=0.355,
15.000=0.355,
16.000=0.355,
17.000=0.355,
18.000=0.355,
19.000=0.355,
20.000=0.355,
21.000=0.355,
22.000=0.355,
23.000=0.355,
24.000=0.355,
25.000=0.355,
26.000=0.355,
27.000=0.355,
28.000=0.355,
29.000=0.355,
30.000=0.355,
31.000=0.355,
32.000=0.355,
33.000=0.355,
34.000=0.355,
35.000=0.355;
#DELAYS:;
#WARPS:;
#TIMESIGNATURES:0.000=4=4;
#TICKCOUNTS:0.000=4;
#COMBOS:0.000=1;
#SPEEDS:0.000=1.000=0.000=0;
#SCROLLS:0.000=1.000;
#FAKES:;
#LABELS:0.000=Song Start;
#BGCHANGES:;
#KEYSOUNDS:;
#ATTACKS:
;

//---------------dance-single - ----------------
#NOTEDATA:;
#CHARTNAME:;
#STEPSTYPE:dance-single;
#DESCRIPTION:;
#CHARTSTYLE:;
#DIFFICULTY:Hard;
#METER:13;
#RADARVALUES:0.478,0.524,0.161,0.069,0.227,406.000,21.000,9.000,0.000,0.000,0.000,0.000,0.000,0.478,0.524,0.161,0.069,0.227,406.000,21.000,9.000,0.000,0.000,0.000,0.000,0.000;
#CREDIT:;
#OFFSET:-0.083;
#BPMS:0.000=148.000
;
#STOPS:;
#DELAYS:;
#WARPS:;
#TIMESIGNATURES:0.000=4=4
;
#TICKCOUNTS:0.000=4
;
#COMBOS:0.000=1
;
#SPEEDS:0.000=1.000=0.000=0
;
#SCROLLS:0.000=1.000
;
#FAKES:;
#LABELS:0.000=Song Start
;
#DISPLAYBPM:148.000;
#NOTES:
0000
0000
0000
0000
,
0000
0000
0000
0000
,
0000
0000
0000
0000
,
0000
0000
0000
0000
,
0000
0000
0000
0000
,
0000
0000
0000
0000
,
0100
0011
0001
1100
,
0010
0101
1000
1010
,
0001
0101
1000
1100
,
0220
0000
0000
0330
,
0010
0000
0000
0001
0000
0000
1000
0000
0100
0000
0000
1000
0000
0000
0010
0000
,
0000
0001
0000
0000
0010
0000
1000
0000
0001
0000
0000
0100
0000
0000
0001
0000
,
1000
0000
0000
0001
0000
0000
0010
0000
0001
0000
0000
1000
0000
0000
0100
0000
,
0000
0001
0000
0000
0100
0000
1000
0000
0001
0000
0000
1000
0000
0000
0010
0000
,
0100
0000
0000
0001
0000
0000
1000
0000
0010
0000
0000
0001
0000
0000
1000
0000
,
0000
0100
0000
0000
0010
0000
1000
0000
0001
0000
0000
1000
0000
0000
0100
0000
,
0010
0000
0000
0001
0000
0000
0001
0000
0100
0000
0000
1000
0000
0000
0100
0000
,
0000
0010
0000
0000
0100
0000
0001
0000
0010
0000
0000
0100
0000
0000
1000
0000
,
0110
0000
0000
1000
0100
0000
1000
0000
0001
0000
0000
0010
0001
0000
0100
0000
,
0010
0000
0000
1000
0001
0000
1000
0000
0100
0000
0010
0000
0100
0000
0010
0000
,
0001
0000
0000
0010
0100
0000
0010
0000
0001
0000
0000
1000
0010
0000
0100
0000
,
0001
0000
0000
1000
0100
0000
1000
0000
0010
0000
0100
0000
0001
0000
0100
0000
,
0010
0000
0000
1000
0001
0000
0010
0000
0100
0000
0000
0010
0001
0000
0100
0000
,
0001
0000
0000
0010
0100
0000
1000
0000
0001
0000
0100
0000
0001
0000
1000
0000
,
0010
0000
0000
0100
0001
0000
1000
0000
0001
0000
0000
0010
0001
0000
0100
0000
,
0010
1000
0010
0000
0100
0000
0001
0000
0100
0001
0100
0000
0010
0000
1000
0000
,
0001
0000
0101
0000
1000
0010
0100
0000
,
0010
1000
0100
0000
0011
0000
0001
0000
,
1000
0100
0001
0100
1000
0100
0001
0100
,
0010
0001
0010
1000
0010
0001
0010
0000
,
0110
0000
0100
0000
1000
0100
1000
0001
,
0010
0000
0100
0000
1000
0010
0100
0001
,
0100
1010
0100
0100
,
0010
1000
0001
0010
0001
1000
0100
0010
,
0001
0000
1001
0000
0001
0010
0100
0000
,
0010
0001
0100
0000
1010
0000
0100
0000
,
0001
0010
1000
0010
0001
0100
0001
0100
,
0010
0001
0010
1000
0010
0100
0010
0000
,
0110
0000
0001
0000
1000
0001
1000
0010
,
0100
0000
0110
0000
1000
0010
0100
0001
,
1000
0000
1010
0000
0100
0001
0100
0000
,
0010
1000
0001
0010
0001
1000
0001
0100
,
0020
0000
0000
0000
,
0000
0000
0000
0000
0000
0000
0030
0200
,
0000
0000
0000
0000
,
0000
0000
0000
0300
,
2000
0000
0000
0000
,
0000
0000
0000
0000
,
3001
0000
0000
0000
,
1000
0000
0000
0001
0000
0000
0101
0000
,
0001
1000
0000
0010
0000
0000
0100
0000
0000
0000
0001
0000
1000
0000
0001
0000
,
1000
0001
0000
0010
0000
0000
0100
0000
0000
0000
1000
0000
0001
0000
1000
0000
,
0010
0100
0000
0001
0000
0000
1000
0000
0000
0000
0010
0000
0100
0000
0001
0000
,
0010
0100
0000
1000
0000
0000
0001
0000
0000
0000
0010
0000
0100
0000
1000
0000
,
0001
0100
0201
0001
0001
0301
0000
0000
,
1000
0100
1200
1000
1000
1300
0000
0000
,
0010
1000
2001
0001
0001
3001
0000
0000
,
0010
0001
0010
0000
0100
0000
1000
0000
0001
0100
0001
0000
1000
0000
0010
0000
,
0100
0000
0000
0001
0000
0000
1000
0000
0001
0000
0000
0010
0000
0000
0100
0000
,
1000
0000
0000
0001
0000
0000
0100
0000
0010
0000
0000
1000
0000
0000
0001
1000
,
0001
0000
0000
1000
0000
0000
0010
0000
0100
0000
0000
0001
0000
0000
1000
0000
,
0100
0000
0000
0010
0000
0000
0100
0000
1000
0000
0000
0001
0000
0000
0100
0010
,
0100
0000
0000
0001
0000
0000
0010
0000
1000
0000
0000
0010
0000
0000
0100
0000
,
0001
0000
0000
1000
0000
0000
0010
0000
0001
0000
0000
1000
0000
0000
0010
1000
,
0010
0000
0000
0100
0000
0000
1000
0000
0100
0000
0000
0010
0000
0000
0001
0000
,
0010
0000
0000
1000
0000
0000
0001
0000
0100
0000
0000
1000
0000
0000
0001
1000
,
0001
0100
0010
0100
0001
1000
0001
1000
,
0100
0010
1000
0010
0100
1000
0001
1000
,
0010
0100
0001
1000
0001
0100
0010
1000
,
0100
0010
0001
0010
0001
0100
0010
1000
,
0001
0100
1000
0100
0010
1000
0001
1000
,
0100
0001
0010
0001
1000
0010
0001
0100
,
0010
1000
0001
1000
0100
0010
0100
1000
,
0001
0100
0010
0001
1000
0100
0001
1000
,
0200
0000
0000
0000
,
0000
0000
0000
0300
;

//---------------dance-single - ----------------
#NOTEDATA:;
#CHARTNAME:;
#STEPSTYPE:dance-single;
#DESCRIPTION:;
#CHARTSTYLE:;
#DIFFICULTY:Medium;
#METER:10;
#RADARVALUES:0.369,0.407,0.154,0.131,0.061,299.000,20.000,17.000,0.000,0.000,0.000,0.000,0.000,0.369,0.407,0.154,0.131,0.061,299.000,20.000,17.000,0.000,0.000,0.000,0.000,0.000;
#CREDIT:;
#OFFSET:-0.083;
#BPMS:0.000=148.000
;
#STOPS:;
#DELAYS:;
#WARPS:;
#TIMESIGNATURES:0.000=4=4
;
#TICKCOUNTS:0.000=4
;
#COMBOS:0.000=1
;
#SPEEDS:0.000=1.000=0.000=0
;
#SCROLLS:0.000=1.000
;
#FAKES:;
#LABELS:0.000=Song Start
;
#DISPLAYBPM:148.000;
#NOTES:
0000
0000
0000
0000
,
0000
0000
0000
0000
,
0000
0000
0000
0000
,
0000
0000
0000
0000
,
0000
0000
0000
0000
,
0000
0000
0000
0000
,
0100
0011
0001
1000
,
0010
0100
1000
0010
,
0001
0100
1000
0100
,
0220
0000
0000
0330
,
0100
1100
1000
1001
,
0002
0100
1000
0013
,
0001
0011
1000
1001
,
2000
0010
0001
3100
,
0010
0100
1000
1001
,
0200
1000
0010
0301
,
0010
0001
0100
0110
,
0020
1000
0100
0031
,
0010
1000
0010
0000
0100
0000
0001
0000
,
1000
1100
0001
0011
,
0010
0001
0010
0000
0100
0000
1000
0000
,
0001
0011
1000
1100
,
1000
0001
1000
0000
0010
0100
0010
0000
,
2000
3010
0002
0103
,
1000
0001
1000
0000
0001
1000
0001
0000
,
1000
0010
0100
0010
0100
0001
0010
0100
,
0010
1000
0100
0001
,
0010
0001
0100
0000
0100
1000
0010
0000
,
0010
0001
0100
1000
,
0010
1000
0100
0000
0100
0001
0010
0000
,
0100
0100
0010
0010
,
0100
1000
0100
0000
0010
0001
0010
0000
,
0001
0001
1000
1000
,
0001
0100
0001
0100
0010
1000
0010
1000
,
0100
0010
0001
1000
,
0010
1000
0001
0000
0001
1000
0010
0000
,
0010
0100
0001
1000
,
0010
1000
0001
0000
0001
1000
0010
0000
,
0100
0110
1000
1001
,
1000
1000
0100
0000
0010
0010
0001
0000
,
0001
0101
1000
1010
,
1000
0010
1000
0100
0010
0001
1000
0001
,
0020
0000
0000
0000
,
0000
0000
0000
0000
0000
0000
0030
0200
,
0000
0000
0000
0000
,
0000
0000
0000
0300
,
2000
0000
0000
0000
,
0000
0000
0000
0000
,
3001
0000
0000
0000
,
1000
0000
0000
0001
0000
0000
0101
0000
,
0001
0000
0000
1000
0000
0000
0001
0000
0000
0000
0100
0000
0010
0000
0000
0000
,
1000
0000
0000
0001
0000
0000
1000
0000
0000
0000
0100
0000
0010
0000
0000
0000
,
0001
0000
0000
0001
0000
0000
0100
0000
0000
0000
0010
0000
1000
0000
0000
0000
,
1000
0000
0000
1000
0000
0000
0100
0000
0000
0000
0010
0000
0001
0000
0000
0000
,
2000
0000
0001
3001
0000
0000
1001
0000
,
0002
0000
1000
1003
0000
0000
1001
0000
,
0200
0000
0010
0310
0000
0000
0110
0000
,
0100
0001
0100
0001
1000
0010
1000
0010
,
0100
0000
0000
0001
0000
0000
0100
0000
0100
0000
0000
0000
0010
0000
0000
0000
,
1000
0000
0000
0100
0000
0000
1000
0000
1000
0000
0000
0000
0001
0000
0000
0000
,
0100
0000
0000
0001
0000
0000
1000
0000
1000
0000
0000
0000
0001
0000
0000
0000
,
0010
0000
0000
0001
0000
0000
0100
0000
0100
0000
0000
0000
0010
0000
0000
0000
,
1000
0000
0000
0100
0000
0000
0010
0000
0010
0000
0000
0000
0001
0000
0000
0000
,
1000
0000
0000
0010
0000
0000
0100
0000
0100
0000
0000
0000
0001
0000
0000
0000
,
1000
0001
1000
0001
,
0100
0010
0100
0010
,
1000
0000
0000
0100
0000
0000
1000
0000
0001
0000
0000
0000
0010
0000
0000
0000
,
0001
0000
0000
0100
0000
0000
0001
0000
1000
0000
0000
0000
0010
0000
0000
0000
,
0100
0000
0000
0010
0000
0000
1000
0000
0001
0000
0000
0000
1000
0000
0000
0000
,
0100
0000
0000
0010
0000
0000
0001
0000
1000
0000
0000
0000
0001
0000
0000
0000
,
0100
0000
0000
0010
0000
0000
0100
0000
0001
0000
0000
0000
1000
0000
0000
0000
,
0100
0000
0000
0010
0000
0000
0100
0000
1000
0000
0000
0000
0001
0000
0000
0000
,
2000
3010
0002
0103
,
0001
1000
0001
1000
0001
1000
0001
1000
,
0200
0000
0000
0000
,
0000
0000
0000
0300
;

//---------------dance-single - ----------------
#NOTEDATA:;
#CHARTNAME:;
#STEPSTYPE:dance-single;
#DESCRIPTION:;
#CHARTSTYLE:;
#DIFFICULTY:Easy;
#METER:6;
#RADARVALUES:0.328,0.349,0.353,0.084,0.000,242.000,46.000,11.000,0.000,0.000,0.000,0.000,0.000,0.328,0.349,0.353,0.084,0.000,242.000,46.000,11.000,0.000,0.000,0.000,0.000,0.000;
#CREDIT:;
#OFFSET:-0.080;
#BPMS:0.000=148.000
;
#STOPS:;
#DELAYS:;
#WARPS:;
#TIMESIGNATURES:0.000=4=4
;
#TICKCOUNTS:0.000=4
;
#COMBOS:0.000=1
;
#SPEEDS:0.000=1.000=0.000=0
;
#SCROLLS:0.000=1.000
;
#FAKES:;
#LABELS:0.000=Song Start
;
#DISPLAYBPM:148.000;
#NOTES:
0000
0000
0000
0000
,
0000
0000
0000
0000
,
0000
0000
0000
0000
,
0000
0000
0000
0000
,
0000
0000
0000
0000
,
0000
0000
0000
0000
,
1000
0100
1000
1001
,
0001
0100
0001
1001
,
1000
0010
0001
0100
,
0020
0000
0000
0030
,
0100
0100
0001
0001
,
1000
1000
0100
0100
,
0010
0010
0001
0001
,
1000
1000
0010
0010
,
0100
0100
0001
0001
,
0010
0010
1000
1000
,
0010
0010
0100
0100
,
1000
1000
0001
0001
,
0100
0110
0010
0110
,
1000
1001
0001
1001
,
1000
1010
0010
1010
,
0100
0101
0001
0101
,
0010
0011
0001
0011
,
0100
1100
1000
1100
,
1000
1010
0001
0101
,
0010
0011
1000
1100
,
2000
0010
0010
3010
,
0002
0100
0100
0103
,
0020
0001
0001
0031
,
0200
1000
1000
1300
,
0002
0100
1000
1003
,
2000
0010
0001
3001
,
0200
1000
0010
0310
,
0020
0001
0100
0130
,
1000
0100
0010
0011
,
0001
0100
0010
1010
,
1000
0001
0100
0101
,
0001
1000
0100
1100
,
0010
0001
0100
1010
,
0010
1000
0100
0011
,
0001
1000
0100
0110
,
0010
0001
1000
1001
,
0100
0000
0000
0000
,
0000
0000
0000
0000
,
0110
0000
0000
0000
,
0000
0000
0000
0000
,
1000
0000
0000
0000
,
0000
0000
0000
0000
,
0001
0000
0000
0000
,
0000
0000
0000
0000
,
0001
0100
0001
1001
,
1000
0100
1000
1001
,
0001
0010
0001
1001
,
1000
0010
1000
1001
,
0100
0110
0100
0110
,
0010
0110
0010
0110
,
1000
1001
0001
1001
,
1000
0010
0001
0100
,
0010
0010
1000
1000
,
0001
0100
1000
0100
,
0001
0001
0010
0010
,
0100
1000
0010
1000
,
0010
0010
1000
1000
,
0001
0010
1000
0010
,
0100
0100
1000
1000
,
0010
0100
0001
0100
,
0010
0010
0100
0100
,
0001
0011
0001
0011
,
0100
0100
0010
0010
,
1000
1100
1000
1100
,
1000
1000
0001
0001
,
0100
0101
0100
0101
,
1000
1000
0001
0001
,
0010
1010
0010
1010
,
2002
0000
0000
0000
,
0000
0000
0000
3003
;

//---------------dance-single - ----------------
#NOTEDATA:;
#CHARTNAME:;
#STEPSTYPE:dance-single;
#DESCRIPTION:;
#CHARTSTYLE:;
#DIFFICULTY:Beginner;
#METER:4;
#RADARVALUES:0.169,0.175,0.015,0.054,0.000,145.000,2.000,7.000,0.000,0.000,0.000,0.000,0.000,0.169,0.175,0.015,0.054,0.000,145.000,2.000,7.000,0.000,0.000,0.000,0.000,0.000;
#CREDIT:;
#OFFSET:-0.080;
#BPMS:0.000=148.000
;
#STOPS:;
#DELAYS:;
#WARPS:;
#TIMESIGNATURES:0.000=4=4
;
#TICKCOUNTS:0.000=4
;
#COMBOS:0.000=1
;
#SPEEDS:0.000=1.000=0.000=0
;
#SCROLLS:0.000=1.000
;
#FAKES:;
#LABELS:0.000=Song Start
;
#DISPLAYBPM:148.000;
#NOTES:
// measure 0
0000
0000
0000
0000
,  // measure 1
0000
0000
0000
0000
,  // measure 2
0000
0000
0000
0000
,  // measure 3
0000
0000
0000
0000
,  // measure 4
0000
0000
0000
0000
,  // measure 5
0000
0000
0000
0000
,  // measure 6
1000
0000
1000
0000
,  // measure 7
0001
0000
0001
0000
,  // measure 8
1000
0000
1000
0000
,  // measure 9
0020
0000
0000
0030
,  // measure 10
0001
0000
0001
0000
,  // measure 11
0001
0000
0001
0000
,  // measure 12
1000
0000
1000
0000
,  // measure 13
1000
0000
1000
0000
,  // measure 14
0010
0000
0010
0000
,  // measure 15
0010
0000
0010
0000
,  // measure 16
0100
0000
0100
0000
,  // measure 17
0100
0000
0100
0000
,  // measure 18
0001
0000
1000
0000
,  // measure 19
0001
0000
1000
0000
,  // measure 20
0010
0000
0100
0000
,  // measure 21
0010
0000
0100
0000
,  // measure 22
0001
0000
0100
0000
,  // measure 23
0001
0000
0100
0000
,  // measure 24
0010
0000
1000
0000
,  // measure 25
0010
0000
1000
0000
,  // measure 26
0001
0001
0001
0000
,  // measure 27
0100
0100
0100
0000
,  // measure 28
1000
1000
1000
0000
,  // measure 29
0010
0010
0010
0000
,  // measure 30
1000
1000
1000
0000
,  // measure 31
0100
0100
0100
0000
,  // measure 32
0001
0001
0001
0000
,  // measure 33
0010
0010
0010
0000
,  // measure 34
0001
0100
0100
0000
,  // measure 35
0100
1000
1000
0000
,  // measure 36
1000
0010
0010
0000
,  // measure 37
0010
0001
0001
0000
,  // measure 38
0001
0010
0010
0000
,  // measure 39
0010
1000
1000
0000
,  // measure 40
1000
0100
0100
0000
,  // measure 41
0100
0001
0001
0000
,  // measure 42
1001
0000
0000
0000
,  // measure 43
0000
0000
0000
0000
,  // measure 44
0000
0000
0000
0000
,  // measure 45
0000
0000
0000
0000
,  // measure 46
0000
0000
0000
0000
,  // measure 47
0000
0000
0000
0000
,  // measure 48
0000
0000
0000
0000
,  // measure 49
0000
0000
0000
0000
,  // measure 50
1000
0100
1000
0000
,  // measure 51
1000
0100
1000
0000
,  // measure 52
0001
0010
0001
0000
,  // measure 53
0001
0010
0001
0000
,  // measure 54
2000
0000
0000
3000
,  // measure 55
0002
0000
0000
0003
,  // measure 56
2000
0000
0000
3000
,  // measure 57
0002
0000
0000
0003
,  // measure 58
0100
0000
0010
0000
,  // measure 59
0100
0000
0001
0000
,  // measure 60
1000
0000
0100
0000
,  // measure 61
0010
0000
0100
0000
,  // measure 62
1000
0000
0001
0000
,  // measure 63
0100
0000
0010
0000
,  // measure 64
0001
0000
0010
0000
,  // measure 65
1000
0000
0100
0000
,  // measure 66
0010
0010
0010
0000
,  // measure 67
0001
0001
0001
0000
,  // measure 68
1000
1000
1000
0000
,  // measure 69
0100
0100
0100
0000
,  // measure 70
1000
0001
0001
0000
,  // measure 71
0001
1000
1000
0000
,  // measure 72
0010
0100
0100
0000
,  // measure 73
0100
0010
0010
0000
,  // measure 74
2002
0000
0000
0000
,  // measure 75
0000
0000
0000
3003
;

//---------------dance-double - ----------------
#NOTEDATA:;
#CHARTNAME:;
#STEPSTYPE:dance-double;
#DESCRIPTION:;
#CHARTSTYLE:;
#DIFFICULTY:Easy;
#METER:7;
#RADARVALUES:0.294,0.320,0.092,0.069,0.000,247.000,12.000,9.000,0.000,0.000,0.000,0.000,0.000,0.294,0.320,0.092,0.069,0.000,247.000,12.000,9.000,0.000,0.000,0.000,0.000,0.000;
#CREDIT:;
#OFFSET:-0.080;
#BPMS:0.000=148.000
;
#STOPS:;
#DELAYS:;
#WARPS:;
#TIMESIGNATURES:0.000=4=4
;
#TICKCOUNTS:0.000=4
;
#COMBOS:0.000=1
;
#SPEEDS:0.000=1.000=0.000=0
;
#SCROLLS:0.000=1.000
;
#FAKES:;
#LABELS:0.000=Song Start
;
#DISPLAYBPM:148.000;
#NOTES:
00000000
00000000
00000000
00000000
,
00000000
00000000
00000000
00000000
,
00000000
00000000
00000000
00000000
,
00000000
00000000
00000000
00000000
,
00000000
00000000
00000000
00000000
,
00000000
00000000
00000000
00000000
,
00010000
00010000
00001000
00001000
,
00010000
00010000
00000100
00000100
,
00001000
00001000
00000010
00000010
,
00000220
00000000
00000000
00000330
,
00000001
00000100
00000001
00000100
,
00000010
00001000
00000010
00001000
,
00000100
00010000
00000100
00010000
,
00001000
00100000
00001000
00100000
,
00010000
01000000
00010000
01000000
,
00100000
10000000
00100000
10000000
,
01000000
00010000
01000000
00010000
,
00001000
00000010
00001000
00000010
,
00001000
00010000
01000000
00100000
,
00010000
00001000
00000010
00000100
,
00001000
00010000
00100000
10000000
,
00010000
00001000
00000100
00000001
,
00000100
00010000
00001000
00100000
,
01000000
00001000
00010000
00000010
,
00000100
00000001
00000010
00001000
,
00010000
01000000
10000000
00100000
,
01000000
01010000
00100000
00100000
,
00010000
00011000
00001000
00000100
,
00000010
00001000
00001010
00000001
,
00001000
00010000
00100000
01100000
,
10000000
01000000
00100000
01100000
,
00010000
00001000
00000100
00011000
,
00001000
00000010
00000001
00000011
,
00000001
00000100
00000010
00000110
,
00000001
00000000
00001000
00000000
00000001
00001000
00000001
00000000
,
00000100
00001000
00010000
00100000
,
10000000
00000000
00010000
00000000
10000000
00010000
10000000
00000000
,
01000000
00010000
00001000
00000010
,
00000100
00000000
00010000
00000000
00001000
00010000
00001000
00000000
,
00010000
01000000
10000000
00100000
,
00010000
00000000
00001000
00000000
00010000
00001000
00010000
00000000
,
00001000
00000100
00000001
00000010
,
00002000
00000000
00000000
00000000
,
00000000
00000000
00000000
00000000
00000000
00000000
00003000
00020000
,
00000000
00000000
00000000
00000000
,
00000000
00000000
00000000
00030000
,
00200000
00000000
00000000
00000000
,
00000000
00000000
00000000
00000000
,
01300000
00000000
00000000
00000000
,
01100000
00000000
00000000
00000000
,
10000000
00100000
00010000
00100000
,
10000000
00100000
00010000
00010000
,
00001000
00000100
00000001
00000100
,
00001000
00000100
00000001
00000001
,
00001000
00000100
00002000
00000001
00000000
00000000
00003000
00000000
,
00000001
00000100
00000002
00001000
00000000
00000000
00000003
00000000
,
00000100
00010000
00002000
00100000
00000000
00000000
00003000
00000000
,
00010000
01000000
01100000
01100000
,
10000000
00100000
01000000
00100000
,
00010000
00001000
00010000
00000100
,
00001000
00000010
00000100
00000010
,
00000001
00000010
00000100
00001000
,
00010000
00001000
00010000
00000100
,
00010000
00001000
00100000
00010000
,
10000000
01000000
00100000
00010000
,
00000100
00001000
00000010
00000001
,
00000010
00000010
00000001
00000001
,
00000100
00000100
00001000
00001000
,
00010000
00010000
00100000
00100000
,
10000000
10000000
01000000
01000000
,
00100000
00010000
00100000
00010000
,
10000000
01000000
10000000
01000000
,
00010000
00001000
00010000
00001000
,
00000010
00000001
00001000
00000001
,
00000200
00000000
00000000
00000000
,
00000000
00000000
00000000
00000300
;

//---------------dance-double - ----------------
#NOTEDATA:;
#CHARTNAME:;
#STEPSTYPE:dance-double;
#DESCRIPTION:;
#CHARTSTYLE:;
#DIFFICULTY:Medium;
#METER:11;
#RADARVALUES:0.386,0.407,0.261,0.077,0.081,308.000,34.000,10.000,0.000,0.000,0.000,0.000,0.000,0.386,0.407,0.261,0.077,0.081,308.000,34.000,10.000,0.000,0.000,0.000,0.000,0.000;
#CREDIT:;
#OFFSET:-0.083;
#BPMS:0.000=148.000
;
#STOPS:;
#DELAYS:;
#WARPS:;
#TIMESIGNATURES:0.000=4=4
;
#TICKCOUNTS:0.000=4
;
#COMBOS:0.000=1
;
#SPEEDS:0.000=1.000=0.000=0
;
#SCROLLS:0.000=1.000
;
#FAKES:;
#LABELS:0.000=Song Start
;
#DISPLAYBPM:148.000;
#NOTES:
00000000
00000000
00000000
00000000
,
00000000
00000000
00000000
00000000
,
00000000
00000000
00000000
00000000
,
00000000
00000000
00000000
00000000
,
00000000
00000000
00000000
00000000
,
00000000
00000000
00000000
00000000
,
00100000
00011000
00000100
00011000
,
00110000
00101000
00010100
00001100
,
00010000
00000100
01000000
00001000
,
00022000
00000000
00000000
00033000
,
00010000
01000000
10000000
10010000
,
20000000
00100000
00010000
30010000
,
01000000
01010000
00001000
00101000
,
00020000
00001000
00000100
00030100
,
00001000
00000100
00000001
00001001
,
00000002
00000010
00001000
00001003
,
00000100
00010100
00001000
00101000
,
00020000
10000000
01000000
01030000
,
00100000
10000000
00100000
00000000
00100000
10000000
00100000
00000000
,
01000000
00001000
00010000
00000100
,
00000010
00000001
00000010
00000000
00000010
00000001
00000010
00000000
,
00000100
00010000
00001000
01000000
,
00100000
01000000
00100000
00000000
00100000
00010000
00100000
00000000
,
01000000
00001000
00010000
00000100
,
00000010
00000100
00000010
00000000
00000100
00000000
00000110
00000000
,
00000001
00000100
00000010
00000100
00000001
00001000
00000001
00001000
,
00000100
00001000
00000001
00000100
,
00000010
00010000
00001000
00000000
00010000
00001000
01000000
00000000
,
00010000
01000000
00100000
01000000
,
00100000
10100000
10000000
11000000
,
01000000
00100000
00010000
10000000
,
01000000
00010000
00001000
00000000
00010000
00001000
00000010
00000000
,
00000001
00000101
00000100
00000110
,
00000010
00001000
00000001
00000100
00000010
00010000
00001000
00010000
,
01000000
01000000
00100000
00100000
,
01000000
10000000
01000000
00000000
01000000
00100000
01000000
00000000
,
00100000
00010000
01000000
00100000
,
00010000
00001000
00010000
00000000
00001000
00010000
00001000
00000000
,
00000100
00000001
00000010
00000100
,
00001000
00000001
00001000
00000000
00000001
00001000
00000001
00000000
,
00000100
00001000
00010000
00100000
,
10000000
01000000
00100000
00010000
10000000
00010000
01000000
00010000
,
00200000
00000000
00000000
00000000
,
00000000
00000000
00000000
00000000
00000000
00000000
00300000
02000000
,
00000000
00000000
00000000
00000000
,
00000000
00000000
00000000
03000000
,
20000000
00000000
00000000
00000000
,
00000000
00000000
00000000
00000000
,
30010000
00000000
00000000
00000000
,
10000000
00000000
00000000
00010000
00000000
00000000
00110000
00000000
,
01000000
00000000
00000000
00100000
00000000
00000000
01000000
00000000
00000000
00000000
10000000
00000000
00010000
00000000
00000000
00000000
,
01000000
00000000
00000000
00001000
00000000
00000000
00010000
00000000
00000000
00000000
00001000
00000000
00010000
00000000
00000000
00000000
,
00001000
00000000
00000000
00000100
00000000
00000000
00000001
00000000
00000000
00000000
00000010
00000000
00000001
00000000
00000000
00000000
,
00001000
00000000
00000000
00000100
00000000
00000000
00010000
00000000
00000000
00000000
00001000
00000000
00010000
00000000
00000000
00000000
,
01000000
01000000
00000000
00100000
00100000
00000000
00110000
00000000
,
00001000
00001000
00000000
00010000
00010000
00000000
00011000
00000000
,
00000100
00000100
00000000
00000010
00000010
00000000
00001010
00000000
,
00001000
00000100
00010000
00000100
00001000
00000100
00010000
00001000
,
01000000
00000000
00000000
00010000
00000000
00000000
01000000
00000000
01000000
00000000
00000000
00000000
01100000
00000000
00000000
00000000
,
00100000
00000000
00000000
10000000
00000000
00000000
00010000
00000000
00010000
00000000
00000000
00000000
10010000
00000000
00000000
00000000
,
00100000
00000000
00000000
00001000
00000000
00000000
00010000
00000000
00010000
00000000
00000000
00000000
00011000
00000000
00000000
00000000
,
00001000
00000000
00000000
00000100
00000000
00000000
00000010
00000000
00000010
00000000
00000000
00000000
00000110
00000000
00000000
00000000
,
00000100
00000000
00000000
00000001
00000000
00000000
00000010
00000000
00000010
00000000
00000000
00000000
00001001
00000000
00000000
00000000
,
00000001
00000000
00000000
00000010
00000000
00000000
00001000
00000000
00001000
00000000
00000000
00000000
00011000
00000000
00000000
00000000
,
00010000
00000000
00000000
00010000
00000000
00000000
00001000
00000000
00010000
00000000
00000000
00001000
00000000
00000000
00010000
00000000
,
00010000
00000000
00000000
01000000
00000000
00000000
00100000
00000000
00010000
00000000
10000000
00000000
01000000
00000000
00100000
00000000
,
00010000
00000000
00000000
01000000
00000000
00000000
00100000
00000000
10000000
00000000
00000000
00000000
10100000
00000000
00000000
00000000
,
01000000
00000000
00000000
00010000
00000000
00000000
00100000
00000000
00010000
00000000
00000000
00000000
00110000
00000000
00000000
00000000
,
00100000
00000000
00000000
00001000
00000000
00000000
00010000
00000000
00001000
00000000
00000000
00000000
00011000
00000000
00000000
00000000
,
00001000
00000000
00000000
00000100
00000000
00000000
00000010
00000000
00001000
00000000
00000000
00000000
00001010
00000000
00000000
00000000
,
00000001
00000000
00000000
00000100
00000000
00000000
00001000
00000000
00010000
00000000
00000000
00001000
00000000
00000000
00010000
00000000
,
00100000
00000000
00000000
10000000
00000000
00000000
00010000
00000000
10000000
00000000
00000000
01000000
00000000
00000000
00100000
00000000
,
01000000
00110000
10000000
11000000
,
00100000
00010000
10000000
01000000
10000000
00010000
00100000
00010000
,
02000000
00000000
00000000
00000000
,
00000000
00000000
00000000
03000000
;

//---------------dance-double - ----------------
#NOTEDATA:;
#CHARTNAME:;
#STEPSTYPE:dance-double;
#DESCRIPTION:;
#CHARTSTYLE:;
#DIFFICULTY:Hard;
#METER:13;
#RADARVALUES:0.473,0.465,0.154,0.069,0.211,402.000,20.000,9.000,0.000,0.000,0.000,0.000,0.000,0.473,0.465,0.154,0.069,0.211,402.000,20.000,9.000,0.000,0.000,0.000,0.000,0.000;
#CREDIT:;
#OFFSET:-0.083;
#BPMS:0.000=148.000
;
#STOPS:;
#DELAYS:;
#WARPS:;
#TIMESIGNATURES:0.000=4=4
;
#TICKCOUNTS:0.000=4
;
#COMBOS:0.000=1
;
#SPEEDS:0.000=1.000=0.000=0
;
#SCROLLS:0.000=1.000
;
#FAKES:;
#LABELS:0.000=Song Start
;
#DISPLAYBPM:148.000;
#NOTES:
00000000
00000000
00000000
00000000
,
00000000
00000000
00000000
00000000
,
00000000
00000000
00000000
00000000
,
00000000
00000000
00000000
00000000
,
00000000
00000000
00000000
00000000
,
00000000
00000000
00000000
00000000
,
00100000
00011000
00000100
00011000
,
00110000
00101000
00010100
00001100
,
00010000
00000100
01000000
00001000
,
00022000
00000000
00000000
00033000
,
00001000
00000000
00000000
00000100
00000000
00000000
00000010
00000000
00001000
00000000
00000000
00000001
00000000
00000000
00000100
00000000
,
00000000
00000010
00000000
00000000
00001000
00000000
00000001
00000000
00000100
00000000
00000000
00001000
00000000
00000000
00010000
00000000
,
00100000
00000000
00000000
10000000
00000000
00000000
00010000
00000000
00100000
00000000
00000000
01000000
00000000
00000000
10000000
00000000
,
00000000
00100000
00000000
00000000
10000000
00000000
01000000
00000000
00010000
00000000
00000000
00001000
00000000
00000000
00010000
00000000
,
00001000
00000000
00000000
00000100
00000000
00000000
00000001
00000000
00000010
00000000
00000000
00001000
00000000
00000000
00010000
00000000
,
00000000
00001000
00000000
00000000
00010000
00000000
00100000
00000000
01000000
00000000
00000000
10000000
00000000
00000000
00010000
00000000
,
01000000
00000000
00000000
00100000
00000000
00000000
10000000
00000000
01000000
00000000
00000000
00010000
00000000
00000000
00001000
00000000
,
00000000
01000000
00000000
00000000
00001000
00000000
00000100
00000000
00000010
00000000
00000000
00001000
00000000
00000000
00000001
00000000
,
00000100
00000000
00000000
00000010
00001000
00000000
00000001
00000000
00001000
00000000
00000000
00000100
00001000
00000000
00000001
00000000
,
00000010
00000000
00000000
00000001
00000100
00000000
00000010
00000000
00001000
00000000
00000100
00000000
00001000
00000000
00000100
00000000
,
00010000
00000000
00000000
00001000
00010000
00000000
00001000
00000000
00100000
00000000
00000000
00010000
00100000
00000000
00001000
00000000
,
00010000
00000000
00000000
00001000
00000100
00000000
00001000
00000000
00010000
00000000
00000100
00000000
00001000
00000000
00000100
00000000
,
00010000
00000000
00000000
01000000
00100000
00000000
00010000
00000000
00100000
00000000
00000000
01000000
10000000
00000000
00100000
00000000
,
10000000
00000000
00000000
00100000
01000000
00000000
00010000
00000000
00100000
00000000
00010000
00000000
00100000
00000000
00001000
00000000
,
00010000
00000000
00000000
00001000
00010000
00000000
00001000
00000000
00000100
00000000
00000000
00001000
00010000
00000000
00001000
00000000
,
00010000
00000100
00001000
00000100
00000010
00000001
00001000
00000100
,
00001000
00000000
00001001
00000000
00000001
00000100
00000010
00000000
,
00001000
00000000
00001010
00000000
00000010
00001000
00000100
00000000
,
00000010
00000001
00001000
00000100
00010000
00001000
00100000
00010000
,
10000000
00100000
00010000
00001000
00000100
00000001
00001000
00000001
,
00000010
00000000
00000110
00000000
00000100
00000000
00001000
00000100
,
00000010
00000001
00000100
00000010
00000100
00000000
00000101
00000000
,
00000001
00000100
00000010
00000000
00000010
00001000
00000100
00000000
,
00001000
00000100
00000010
00000001
00000100
00001000
00010000
00100000
,
10000000
00000000
10100000
00000000
01000000
00010000
01000000
00000000
,
00100000
00000000
01000000
00000000
00010000
00100000
01000000
10000000
,
00010000
00110000
00010000
10000000
,
01000000
00100000
00010000
00100000
00001000
00010000
00001000
00000100
,
00000010
00000000
00001010
00000000
00000100
00000001
00001000
00000000
,
00000100
00000010
00000011
00001001
,
00000001
00000100
00000010
00000100
00000001
00000100
00001000
00000100
,
00001000
00010000
00100000
00010000
00001000
00010000
01000000
10000000
,
00200000
00000000
00000000
00000000
,
00000000
00000000
00000000
00000000
00000000
00000000
00300000
02000000
,
00000000
00000000
00000000
00000000
,
00000000
00000000
00000000
03000000
,
20000000
00000000
00000000
00000000
,
00000000
00000000
00000000
00000000
,
30010000
00000000
00000000
00000000
,
10010000
00000000
00000000
00010000
00000000
00000000
00110000
00000000
,
00010000
01000000
00000000
00010000
00000000
00000000
00100000
00000000
00000000
00000000
01000000
00000000
10000000
00000000
01000000
00000000
,
00100000
00010000
00000000
10000000
00000000
00000000
01000000
00000000
00000000
00000000
00010000
00000000
00001000
00000000
00010000
00000000
,
00001000
00000100
00000000
00000010
00000000
00000000
00001000
00000000
00000000
00000000
00000001
00000000
00000010
00000000
00000001
00000000
,
00000100
00000010
00000000
00001000
00000000
00000000
00000001
00000000
00000000
00000000
00000100
00000000
00000010
00000000
00001000
00000000
,
00000200
00010000
00010000
00010300
00001000
00001000
00001000
00000000
,
00020000
01000000
01000000
01030000
00100000
00100000
00100000
00000000
,
20000000
00100000
00100000
30100000
01000000
01000000
01000000
00000000
,
00100000
00000000
00110000
00000000
00010000
00001000
00011000
00000000
,
00010000
00000000
00000000
01000000
00000000
00000000
10000000
00000000
00010000
00000000
00000000
10000000
00000000
00000000
00100000
00000000
,
10000000
00000000
00000000
00010000
00000000
00000000
01000000
00000000
00100000
00000000
00000000
00010000
00000000
00000000
00001000
00010000
,
00001000
00000000
00000000
00000100
00000000
00000000
00000001
00000000
00000010
00000000
00000000
00000001
00000000
00000000
00001000
00000000
,
00000100
00000000
00000000
00000010
00000000
00000000
00000001
00000000
00000100
00000000
00000000
00001000
00000000
00000000
00010000
00001000
,
00010000
00000000
00000000
01000000
00000000
00000000
00100000
00000000
00010000
00000000
00000000
01000000
00000000
00000000
00010000
00000000
,
00100000
00000000
00000000
00001000
00000000
00000000
00010000
00000000
00000100
00000000
00000000
00000010
00000000
00000000
00001000
00010000
,
00001000
00000000
00000000
00000010
00000000
00000000
00000100
00000000
00001000
00000000
00000000
00000010
00000000
00000000
00001000
00000000
,
00000100
00000000
00000000
00010000
00000000
00000000
00001000
00000000
00000100
00000000
00000000
00000010
00000000
00000000
00010000
00001000
,
00010000
01000000
10000000
00010000
10000000
00100000
00010000
10000000
,
00010000
00100000
10000000
01000000
00100000
00010000
01000000
00001000
,
00010000
00000100
00010000
00001000
01000000
00001000
00010000
00001000
,
00100000
00001000
00000100
00001000
00010000
01000000
00010000
00001000
,
00000100
00000001
00001000
00000001
00000010
00000001
00000100
00000010
,
00001000
00000100
00001000
00000001
00000100
00000010
00001000
00000100
,
00010000
00001000
00000100
00000010
00001000
00010000
01000000
00100000
,
00010000
00001000
01000000
00001000
00010000
00000100
00010000
00001000
,
00200000
00000000
00000000
00000000
,
00000000
00000000
00000000
00300000
;

//---------------dance-double - ----------------
#NOTEDATA:;
#CHARTNAME:;
#STEPSTYPE:dance-double;
#DESCRIPTION:;
#CHARTSTYLE:;
#DIFFICULTY:Challenge;
#METER:15;
#RADARVALUES:0.617,0.814,0.299,0.046,0.580,517.000,39.000,6.000,0.000,0.000,0.000,0.000,0.000,0.617,0.814,0.299,0.046,0.580,517.000,39.000,6.000,0.000,0.000,0.000,0.000,0.000;
#CREDIT:;
#OFFSET:-0.083;
#BPMS:0.000=148.000
;
#STOPS:;
#DELAYS:;
#WARPS:;
#TIMESIGNATURES:0.000=4=4
;
#TICKCOUNTS:0.000=4
;
#COMBOS:0.000=1
;
#SPEEDS:0.000=1.000=0.000=0
;
#SCROLLS:0.000=1.000
;
#FAKES:;
#LABELS:0.000=Song Start
;
#DISPLAYBPM:148.000;
#NOTES:
00000000
00000000
00000000
00000000
,
00000000
00000000
00000000
00000000
,
00000000
00000000
00000000
00000000
,
00000000
00000000
00000000
00000000
,
00000000
00000000
00000000
00000000
,
00000000
00000000
00000000
00000000
,
00100000
00011000
00000100
00011000
,
00110000
00101000
00010100
00001100
,
00010000
00000100
01000000
00001000
,
00022000
00000000
00000000
00033000
,
00001000
00000000
00000000
00000100
00000000
00000000
00000010
00000000
00001000
00000000
00000000
00000001
00000000
00000000
00000100
00000000
,
00000000
00000010
00000000
00000000
00001000
00000000
00000001
00000000
00000100
00000000
00000000
00001000
00000000
00000000
00010000
00000000
,
00100000
00000000
00000000
10000000
00000000
00000000
00010000
00000000
00100000
00000000
00000000
01000000
00000000
00000000
10000000
00000000
,
00000000
00100000
00000000
00000000
10000000
00000000
01000000
00000000
00010000
00000000
00000000
00001000
00000000
00000000
00010000
00000000
,
00001000
00000000
00000000
00000100
00000000
00000000
00000001
00000000
00000010
00000000
00000000
00001000
00000000
00000000
00010000
00000000
,
00000000
00001000
00000000
00000000
00010000
00000000
00100000
00000000
01000000
00000000
00000000
10000000
00000000
00000000
00010000
00000000
,
01000000
00000000
00000000
00100000
00000000
00000000
10000000
00000000
01000000
00000000
00000000
00010000
00000000
00000000
00001000
00000000
,
00000000
01000000
00000000
00000000
00001000
00000000
00000100
00000000
00000010
00000000
00000000
00001000
00000000
00000000
00000001
00000000
,
00000110
00000000
00000000
00000000
00000001
00000100
00000001
00000100
00000001
00000000
00000000
00000000
00001000
00000100
00001000
00000100
,
00001000
00000000
00000000
00000000
00000001
00000010
00000001
00000010
00000001
00000000
00000000
00000000
00000100
00000000
00001000
00000000
,
00010000
00000000
00000000
00000000
00100000
10000000
00100000
10000000
00100000
00000000
00000000
00000000
01000000
00010000
01000000
00010000
,
01000000
00000000
00000000
00000000
00010000
00100000
00010000
00100000
00010000
00000000
00000000
00000000
00100000
00000000
00001000
00000000
,
00010000
00000000
00000000
00000000
00001000
00010000
00001000
00100000
00001000
00000000
00000000
00000000
00010000
00001000
00010000
00000100
,
00001000
00000000
00000000
00000000
00000100
00000010
00000001
00000010
00000100
00000000
00000000
00000000
01000000
00010000
00100000
00010000
,
01000000
00000000
00000000
00000000
00100000
10000000
00100000
10000000
00100000
00000000
00000000
00000000
01000000
00010000
01000000
00000000
,
00100000
10000000
01000000
00100000
00010000
00100000
00001000
00010000
00001000
00010000
00000100
00001000
00000010
00000100
00000001
00001000
,
00000001
00000100
00000001
00001000
00000100
00001000
00000010
00000100
,
00001000
00010000
00001000
00010000
01000000
00100000
00010000
01000000
,
00100000
10000000
00010000
00000000
10000000
00010000
01000000
00000000
00010000
00100000
00001000
00000000
00010000
00000100
00001000
00000000
,
00000100
00010000
00001000
00100000
00010000
00100000
00010000
01000000
,
00100000
10000000
00010000
00100000
00010000
01000000
00010000
10000000
,
01000000
00100000
00001000
00010000
00000100
00000010
00000001
00001000
,
00000100
00000010
00000001
00000000
00001000
00000100
00000010
00000000
00000100
00010000
00001000
00000000
00100000
00010000
01000000
00000000
,
00010000
01000000
00010000
10000000
00010000
00100000
00010000
10000000
00100000
10000000
00010000
10000000
01000000
10000000
00100000
01000000
,
00010000
10000000
00100000
10000000
01000000
00010000
01000000
10000000
,
00100000
01000000
00100000
01000000
00010000
10000000
00010000
10000000
,
01000000
00100000
00010000
00000000
00100000
00001000
00010000
00000000
00001000
00010000
00000100
00000000
00001000
00000100
00000010
00000000
,
00000001
00001000
00000100
00001000
00000001
00000100
00000010
00000100
,
00000001
00000010
00000100
00000010
00000001
00001000
00000100
00001000
,
00000010
00000100
00001000
00010000
00001000
00000100
00000001
00001000
,
00000010
00001000
00000100
00000000
00001000
00000100
00010000
00000000
00001000
00100000
01000000
00000000
00100000
00010000
10000000
00000000
,
00100000
10000000
00100000
10000000
00100000
10000000
00100000
10000000
00010000
01000000
00010000
01000000
00010000
01000000
00010000
01000000
,
00200000
00000000
00000000
00000000
,
00000000
00000000
00000000
00000000
00000000
00000000
00300000
02000000
,
00000000
00000000
00000000
00000000
,
00000000
00000000
00000000
03000000
,
20000000
00000000
00000000
00000000
,
00000000
00000000
00000000
00000000
,
30010000
00000000
00000000
00000000
,
10010000
00000000
00000000
00000000
10000000
00000000
00010000
00000000
00000000
00000000
10000000
00000000
00010000
00100000
00010000
00000000
,
10000000
01000000
00000000
01000000
00100000
00000000
00010000
00000000
00000000
00000000
10000000
00000000
01000000
00000000
00010000
00000000
,
00001000
00010000
00000000
00010000
00000010
00000000
00000100
00000000
00000000
00000000
00000001
00000000
00000100
00000000
00001000
00000000
,
00010000
00000100
00000000
00000100
00001000
00000000
00000001
00000000
00000000
00000000
00000010
00000000
00000100
00000000
00001000
00000000
,
00000010
00010000
00000000
00010000
00001000
00000000
00010000
00000000
00000000
00000000
01000000
00000000
10000000
00000000
00010000
00000000
,
01000000
00010000
01000000
00000000
00010000
00000000
01000000
00010000
01000000
00000000
00000000
00000000
01100000
00000000
00000000
00000000
,
00100000
10000000
00100000
00000000
10000000
00000000
00100000
10000000
00100000
00000000
00000000
00000000
01100000
00000000
00000000
00000000
,
10000000
01000000
10000000
00000000
00010000
00000000
00100000
00010000
00100000
00000000
00000000
00000000
00011000
00000000
00000000
00000000
,
00001000
00010000
00001000
00010000
00001000
00000100
00001000
00000100
00000010
00000100
00000010
00000100
00000001
00001000
00000001
00001000
,
00000001
00000000
00000000
00000101
00000000
00000000
00001000
00000000
00000100
00000000
00000000
00001100
00000000
00000000
00010000
00000000
,
00001000
00000000
00000000
00011000
00000000
00000000
00010000
00000000
01000000
00000000
00000000
01100000
00000000
00000000
00100000
00010000
,
00100000
00000000
00000000
01100000
00000000
00000000
01000000
00000000
10000000
00000000
00000000
10100000
00000000
00000000
00010000
00000000
,
00001000
00000000
00000000
00011000
00000000
00000000
00001000
00000000
00000100
00000000
00000000
00001100
00000000
00000000
00000100
00000010
,
00000100
00000000
00000000
00001010
00000000
00000000
00001000
00000000
00000100
00000000
00000000
00010100
00000000
00000000
00001000
00000000
,
00100000
00000000
00000000
00110000
00000000
00000000
00100000
00000000
01000000
00000000
00000000
01100000
00000000
00000000
00100000
00010000
,
00100000
00000000
00000000
00011000
00000000
00000000
00010000
00000000
00000010
00000000
00000000
00000110
00000000
00000000
00000100
00000000
,
00001000
00000000
00000000
00011000
00000000
00000000
00010000
00000000
00100000
00000000
00000000
01100000
00000000
00000000
01000000
00000000
,
00100000
10000000
00100000
10000000
00100000
00000000
10000000
00000000
00010000
10000000
00010000
10000000
00010000
00000000
00100000
00000000
,
01000000
00000000
00000000
00110000
00000000
00000000
00011000
00000000
00000000
00010100
00000000
00000000
00000010
00000000
00000001
00000000
,
00000100
00000001
00000100
00000001
00000100
00000000
00000010
00000000
00001000
00000001
00001000
00000001
00001000
00000000
00000100
00000000
,
00000010
00000000
00000000
00001100
00000000
00000000
00011000
00000000
00000000
00101000
00000000
00000000
01000000
00000000
10000000
00000000
,
00010000
10000000
00010000
01000000
00010000
00000000
00100000
00000000
01000000
10000000
00010000
10000000
01000000
00000000
00100000
00000000
,
01000000
00000000
00000000
00110000
00000000
00000000
00011000
00000000
00000000
00010100
00000000
00000000
00000010
00000000
00000001
00000000
,
00000100
00000001
00000000
00000001
00001000
00000000
00001100
00000000
00001000
00000100
00000000
00000100
00010000
00000000
00011000
00000000
,
00010000
00001000
00010000
00001000
00100000
00010000
00100000
01000000
00100000
00010000
10000000
00100000
01000000
00010000
10000000
01000000
,
00200000
00000000
00000000
00000000
,
00000000
00000000
00000000
00300000
;

//---------------dance-single - ----------------
#NOTEDATA:;
#CHARTNAME:;
#STEPSTYPE:dance-single;
#DESCRIPTION:;
#CHARTSTYLE:;
#DIFFICULTY:Challenge;
#METER:16;
#RADARVALUES:0.680,0.931,0.315,0.054,0.802,572.000,41.000,7.000,0.000,0.000,0.000,0.000,0.000,0.680,0.931,0.315,0.054,0.802,572.000,41.000,7.000,0.000,0.000,0.000,0.000,0.000;
#CREDIT:;
#OFFSET:-0.080;
#BPMS:0.000=148.000
;
#STOPS:;
#DELAYS:;
#WARPS:;
#TIMESIGNATURES:0.000=4=4
;
#TICKCOUNTS:0.000=4
;
#COMBOS:0.000=1
;
#SPEEDS:0.000=1.000=0.000=0
;
#SCROLLS:0.000=1.000
;
#FAKES:;
#LABELS:0.000=Song Start
;
#DISPLAYBPM:148.000;
#NOTES:
0000
0000
0000
0000
,
0000
0000
0000
0000
,
0000
0000
0000
0000
,
0000
0000
0000
0000
,
0000
0000
0000
0000
,
0000
0000
0000
0000
,
0100
0011
0001
1100
,
0010
0101
1000
1010
,
0001
0101
1000
1100
,
0220
0000
0000
0330
,
0010
0000
0000
0001
0000
0000
1000
0000
0100
0000
0000
1000
0000
0000
0010
0000
,
0000
0001
0000
0000
0010
0000
1000
0000
0001
0000
0000
0100
0000
0000
0001
0000
,
1000
0000
0000
0001
0000
0000
0010
0000
0001
0000
0000
1000
0000
0000
0100
0000
,
0000
0001
0000
0000
0100
0000
1000
0000
0001
0000
0000
1000
0000
0000
0010
0000
,
0100
0000
0000
0001
0000
0000
1000
0000
0010
0000
0000
0001
0000
0000
1000
0000
,
0000
0100
0000
0000
0010
0000
1000
0000
0001
0000
0000
1000
0000
0000
0100
0000
,
0010
0000
0000
0001
0000
0000
0001
0000
0100
0000
0000
1000
0000
0000
0100
0000
,
0000
0010
0000
0000
0100
0000
0001
0000
0010
0000
0000
0100
0000
0000
1000
0000
,
1010
0000
0000
0000
0100
0001
0100
0001
0010
0000
0000
0000
0100
1000
0100
1000
,
0010
0000
0000
0000
1000
0001
1000
0001
0100
0000
0000
0000
0010
0000
0100
0000
,
1001
0000
0000
0000
0010
0001
0100
0001
0100
0000
0000
0000
0010
1000
0100
1000
,
0100
0000
0000
0000
0010
0100
1000
0100
1000
0000
0000
0000
0001
0000
1000
0000
,
0110
0000
0000
0000
0010
1000
0001
0100
0010
0000
0000
0000
1000
0100
0010
0001
,
0100
0000
0000
0000
0010
0100
0001
1000
0010
0000
0000
0000
0100
0000
0010
0000
,
1001
0000
0000
0000
0010
0001
0010
0001
0100
0000
0000
0000
0010
1000
0010
0000
,
0100
0001
0100
0010
1000
0010
0100
0001
0100
0010
1000
0010
0100
0001
1000
0010
,
0100
0010
0100
0001
1000
0100
0010
0100
,
1000
0000
0010
0000
1000
0000
0001
0100
0010
0000
0100
0000
0100
0000
0100
0000
,
0010
1000
0001
0100
0010
0100
0001
1000
,
0100
1000
0010
0100
0001
0010
0100
1000
0100
0010
0001
0100
0010
1000
0001
0100
,
0010
0100
1000
0100
0010
0001
1000
0001
,
0100
0000
0010
0000
0100
0000
0001
1000
0100
0000
1000
0000
0010
0000
0010
0000
,
0100
0001
0100
0010
1000
0001
0010
0100
,
1000
0100
0010
0001
0100
0010
1000
0001
1000
0010
0100
0001
0010
0100
1000
0100
,
0010
0001
0000
0001
0100
0000
0010
0000
0100
0001
0000
0001
0010
0000
0100
0000
,
1000
0100
0000
0100
0010
0000
0001
0000
0010
0100
0000
0100
1000
0000
0001
0000
,
0100
0010
0000
0010
1000
0000
0100
0000
1000
0010
0000
0010
0100
0000
0001
0000
,
0100
0010
0100
0001
0100
0010
0100
0001
1000
0100
1000
0010
1000
0001
1000
0100
,
0010
0100
0000
0100
1000
0000
0001
0000
1000
0010
0000
0010
0100
0000
0001
0000
,
0010
0001
0000
0001
1000
0000
0100
0000
1000
0001
0000
0001
0010
0000
0100
0000
,
0010
0100
0000
0100
1000
0000
0001
0000
1000
0001
0000
0001
0100
0000
0010
0000
,
1000
0010
1000
0010
1000
0010
1000
0010
0100
0001
0100
0001
0100
0001
1000
0001
,
0020
0000
0000
0000
,
0000
0000
0000
0000
0000
0000
0030
0200
,
0000
0000
0000
0000
,
0000
0000
0000
0300
,
2000
0000
0000
0000
,
0000
0000
0000
0000
,
3001
0000
0000
0000
,
1100
0000
0000
0011
0000
0000
1001
0000
0000
0000
0100
0001
0100
0000
0010
0000
,
1000
0100
0000
1000
0001
0000
1000
0010
0000
0010
0100
0000
1010
0000
0101
0000
,
0001
0100
0000
0001
1000
0000
0001
0010
0000
0010
0100
0000
0011
0000
1100
0000
,
1000
0001
0000
0100
0010
0000
1000
0100
0000
0010
0001
0000
1100
0000
1001
0000
,
0001
1000
0000
0100
0010
0000
0001
0100
0000
0010
1000
0000
0101
0000
1001
0000
,
1000
0100
1000
0100
0010
0000
0001
0100
0001
0100
0010
0000
0110
0000
0000
0000
,
1000
0010
1000
0010
0100
0000
0001
0010
0001
0010
0100
0000
0010
0000
0100
0000
,
1000
0001
1000
0001
0100
0000
0001
1000
0001
1000
0100
0000
0110
0000
0000
0000
,
0100
1000
0010
1000
0100
0010
0001
0100
0001
0010
0100
1000
0001
1000
0100
0010
,
0100
0000
0000
0011
0000
0000
1000
0000
0001
0000
0000
1010
0000
0000
0100
0000
,
1000
0000
0000
1001
0000
0000
0100
0000
0010
0000
0000
1010
0000
0000
1000
0001
,
1000
0000
0000
1100
0000
0000
0010
0000
0100
0000
0000
0011
0000
0000
1000
0000
,
0100
0000
0000
0110
0000
0000
0100
0000
1000
0000
0000
1001
0000
0000
0100
0010
,
0100
0000
0000
0101
0000
0000
0010
0000
1000
0000
0000
1010
0000
0000
0100
0000
,
0001
0000
0000
1001
0000
0000
0010
0000
0001
0000
0000
1100
0000
0000
0010
0001
,
0010
0000
0000
0110
0000
0000
1000
0000
0100
0000
0000
0011
0000
0000
0001
0000
,
0010
0000
0000
1001
0000
0000
0001
0000
0100
0000
0000
1010
0000
0000
1000
0100
,
1000
0001
0000
0001
0100
0000
0010
0000
0100
0001
0000
0001
1000
0000
0100
0000
,
0010
0001
0000
0001
0100
0000
0010
0000
0010
1000
0000
1000
0100
0000
0100
0000
,
1000
0010
0000
0100
0001
0000
1000
0000
0001
0010
0000
0100
1000
0000
0001
0000
,
0100
0001
0000
1000
0100
0000
0010
0000
0100
1000
0000
0001
0100
0000
0010
0000
,
0100
0001
0100
0001
0100
0010
0100
0010
1000
0100
1000
0100
1000
0001
1000
0001
,
0100
0001
0100
0001
0100
0010
0100
0010
1000
0100
1000
0100
1000
0001
1000
0001
,
0100
0001
0010
0001
1000
0100
1000
0100
0010
0100
1000
0001
1000
0100
0010
0100
,
1000
0100
0010
0001
0100
0010
0100
0001
1000
0100
0010
0001
0100
0010
0100
0001
,
2002
0000
0000
0000
,
0000
0000
0000
3003
;
