#VERSION:0.81;
#TITLE:THOR;
#SUBTITLE:MELODIC TRANCE;
#ARTIST:XeoN;
#TITLETRANSLIT:;
#SUBTITLETRANSLIT:;
#ARTISTTRANSLIT:;
#GENRE:;
#ORIGIN:;
#CREDIT:;
#BANNER:THOR.png;
#BACKGROUND:THOR-bg.png;
#PREVIEWVID:;
#JACKET:;
#CDIMAGE:;
#DISCIMAGE:;
#LYRICSPATH:;
#CDTITLE:;
#MUSIC:THOR.mp3;
#OFFSET:0.179;
#SAMPLESTART:42.354;
#SAMPLELENGTH:12.000;
#SELECTABLE:YES;
#DISPLAYBPM:147.000;
#BPMS:0.000=147.000;
#STOPS:;
#DELAYS:;
#WARPS:;
#TIMESIGNATURES:0.000=4=4;
#TICKCOUNTS:0.000=4;
#COMBOS:0.000=1;
#SPEEDS:0.000=1.000=0.000=0;
#SCROLLS:0.000=1.000;
#FAKES:;
#LABELS:0.000=Song Start;
#BGCHANGES:;
#KEYSOUNDS:;
#ATTACKS:
;

//---------------dance-single - ----------------
#NOTEDATA:;
#CHARTNAME:;
#STEPSTYPE:dance-single;
#DESCRIPTION:;
#CHARTSTYLE:;
#DIFFICULTY:Beginner;
#METER:4;
#RADARVALUES:0.144,0.152,0.000,0.081,0.000,102.000,0.000,9.000,0.000,0.000,0.000,0.000,0.000,0.144,0.152,0.000,0.081,0.000,102.000,0.000,9.000,0.000,0.000,0.000,0.000,0.000;
#CREDIT:;
#DISPLAYBPM:147.000;
#NOTES:
0000
0000
0000
0000
,
0000
0000
0000
0000
,
0100
0000
0000
0000
,
0000
0000
0000
0000
,
0100
0000
0000
0000
,
0000
0000
0000
0000
,
0100
0000
0000
0000
,
0000
0000
0000
0000
,
0100
0000
0000
0000
,
0000
0000
0000
0000
,
0000
1000
0000
1000
,
0000
0001
0000
0001
,
0000
1000
0000
1000
,
0000
0001
0000
0001
,
0000
0100
0000
0100
,
0000
0010
0000
0010
,
0000
0100
0000
0100
,
0000
0010
0000
0010
,
0000
1000
0000
0001
,
0000
1000
0000
0001
,
0000
0100
0000
0010
,
0000
0100
0000
0010
,
0000
1000
0000
0001
,
0000
1000
0000
0001
,
0000
0100
0000
0010
,
0000
0100
0000
0010
,
0010
0000
0000
0000
,
0000
0000
0000
0000
,
1000
0000
0000
0000
,
0000
0000
0000
0000
,
0001
0000
0000
0000
,
0000
0000
0000
0000
,
0100
0000
0000
0000
,
0100
0100
0100
0100
,
0100
0010
0000
0010
,
0000
0010
0000
0010
,
0000
1000
0000
1000
,
0000
1000
0000
1000
,
0000
0001
0000
0001
,
0000
0001
0000
0001
,
0000
0100
0000
0100
,
0000
0100
0000
0100
,
0000
0001
0000
0001
,
0000
1000
0000
1000
,
0000
0010
0000
0010
,
0000
0100
0000
0100
,
0000
0001
0000
0001
,
0000
1000
0000
1000
,
0000
0010
0000
0010
,
0000
0100
0000
0100
,
0000
0001
0000
0001
,
0000
0010
0000
0010
,
0000
0100
0000
0100
,
0000
1000
0000
1000
,
0000
0001
0000
0001
,
0000
1000
0000
1000
,
0000
0100
0000
0100
,
0000
0010
0000
0010
,
0020
0000
0030
0000
,
0200
0000
0300
0000
,
2000
0000
3000
0000
,
0002
0000
0003
0000
,
0200
0000
0300
0000
,
0020
0000
0030
0000
,
2000
0000
3000
0000
,
0002
0000
0003
0000
,
0200
0000
0000
0000
,
0300
0000
0000
0000
;

//---------------dance-single - ----------------
#NOTEDATA:;
#CHARTNAME:;
#STEPSTYPE:dance-single;
#DESCRIPTION:;
#CHARTSTYLE:;
#DIFFICULTY:Easy;
#METER:8;
#RADARVALUES:0.339,0.364,0.244,0.154,0.000,218.000,27.000,17.000,0.000,0.000,0.000,0.000,0.000,0.339,0.364,0.244,0.154,0.000,218.000,27.000,17.000,0.000,0.000,0.000,0.000,0.000;
#CREDIT:;
#DISPLAYBPM:147.000;
#NOTES:
0000
0000
0000
0000
,
0000
0000
0000
0000
,
1000
0100
0100
0100
,
0000
0000
0000
0000
,
0001
0010
0010
0010
,
0000
0000
0000
0000
,
1000
0001
0001
0001
,
0000
0000
0000
0000
,
0100
0010
0010
0010
,
0000
0000
0000
0000
,
0100
0001
1000
0100
,
0010
0001
1000
0010
,
0100
0001
0100
0010
,
0010
1000
0010
0100
,
0001
1000
0100
0100
,
1000
0001
0010
0010
,
0100
1000
0010
0100
,
0001
0010
0100
1000
,
0001
0001
0100
0100
,
0001
0001
1000
1001
,
0010
0010
0100
0100
,
0010
0010
0100
0110
,
1000
0100
1000
0001
,
0001
0010
0001
0100
,
0010
1001
0100
1001
,
1000
1000
0001
0001
,
0100
0000
0000
0000
,
0000
0000
0000
0000
,
1001
0000
0000
0000
,
0000
0000
0000
0000
,
0010
0000
0000
0000
,
0000
0000
0000
0000
,
0110
0000
0110
0000
,
0100
0100
0100
0100
,
0010
1001
0100
1001
,
1000
0110
0001
0110
,
1000
0100
0001
0100
,
0010
0001
1000
0001
,
1000
1010
0010
1010
,
0100
0101
0001
0101
,
0100
0010
1000
0001
,
0010
0100
1000
0001
,
1000
1000
0100
0100
,
1000
0001
1000
1010
,
0100
0100
0001
0001
,
0010
0001
1000
1100
,
1000
0100
0010
0100
,
0010
0010
0001
1001
,
0010
0001
1000
0100
,
1000
1000
0010
0110
,
0100
0100
0001
1000
,
0010
1000
1001
1001
,
0010
0100
0001
0100
,
0010
1000
1001
1001
,
1000
1000
0100
0010
,
0001
1000
0110
0110
,
0010
1000
0010
0010
,
0100
0001
1001
1001
,
2000
3100
0002
0103
,
2000
3010
0002
0013
,
0200
1300
0002
0103
,
0200
0301
2000
3100
,
0020
0031
2000
3010
,
0200
0310
0002
1003
,
2000
3001
0200
0310
,
0002
1003
0020
0130
,
0200
0000
0000
0000
,
0300
0000
0000
0000
;

//---------------dance-single - ----------------
#NOTEDATA:;
#CHARTNAME:;
#STEPSTYPE:dance-single;
#DESCRIPTION:;
#CHARTSTYLE:;
#DIFFICULTY:Medium;
#METER:10;
#RADARVALUES:0.425,0.485,0.253,0.036,0.005,297.000,28.000,4.000,0.000,0.000,0.000,0.000,0.000,0.425,0.485,0.253,0.036,0.005,297.000,28.000,4.000,0.000,0.000,0.000,0.000,0.000;
#CREDIT:;
#DISPLAYBPM:147.000;
#NOTES:
0000
0000
0000
0000
,
0000
0000
0000
0000
,
1000
0000
0000
1000
0000
0000
1000
0000
,
0000
0000
0000
0000
,
0010
0000
0000
0010
0000
0000
0010
0000
,
0000
0000
0000
0000
,
0100
0000
0000
0100
0000
0000
0100
0000
,
0000
0000
0000
0000
,
0001
0000
0000
0001
0000
0000
0001
0000
,
0000
0000
0010
0010
,
1000
0100
1000
0000
0001
0000
1000
0000
,
0001
0010
0001
0000
1000
0000
0001
0000
,
1000
0010
0100
0000
0010
0000
1000
0000
,
0001
0100
0010
0000
0100
0000
0001
0000
,
1000
0001
0100
0000
0010
0000
1010
0000
,
0001
1000
0100
0000
0010
0000
0011
0000
,
0100
1000
0010
0000
1000
0000
1001
0000
,
0010
0001
0100
0000
0010
0000
1001
0000
,
0010
0001
0100
0000
0100
0001
0010
0000
,
0100
1000
0010
1000
0100
0000
0100
0000
,
0010
0100
1000
0000
1000
0100
0010
0000
,
0010
0001
0100
0001
1000
0000
1001
0000
,
1000
0001
0100
0000
0100
0001
0010
0000
,
0001
1000
0001
0100
0010
0000
0100
0000
,
0010
0100
0001
0000
1000
0010
0100
0000
,
0001
1000
0100
1000
0010
0000
0110
0000
,
0200
0000
0000
0000
,
0000
0000
0000
0000
0000
0000
0000
0310
,
0010
0000
0000
0000
,
0000
0000
0000
0000
0000
0000
0000
0000
0000
0000
0010
0000
0000
1001
0000
0000
,
0100
0000
0000
0000
,
0000
0000
0000
0000
0000
0000
0000
0010
,
0020
0000
0000
1030
2000
0000
0000
3001
,
0001
0001
0001
0001
,
0100
0001
0010
0000
0100
0000
0011
0000
,
0100
1000
0010
0000
0100
0000
1010
0000
,
0010
0100
0001
0000
1000
0000
1010
0000
,
0100
0010
1000
0000
0001
0000
0011
0000
,
0010
0100
1000
0000
0100
0000
1001
0000
,
0010
0100
0001
0000
0010
0000
1001
0000
,
1000
0010
0001
0000
0010
0000
0110
0000
,
1000
0100
0001
0000
0010
0000
0110
0000
,
0100
1000
0100
0000
1000
0001
1000
0000
,
0010
1000
0010
1000
0010
0000
0010
0000
,
0100
0101
0001
1001
,
1000
0010
0001
0010
0100
0100
0100
0000
,
0001
0100
0001
0000
1000
0001
1000
0000
,
0001
0010
0001
0010
0100
0000
0100
0000
,
1000
1100
0100
0110
,
0010
0001
1000
0001
1000
0001
0100
0000
,
0010
1000
0010
0000
0100
0001
0100
0000
,
0010
1000
0010
0100
0010
0000
0010
0000
,
0100
0101
0001
1001
,
1000
0010
0001
0010
0100
0100
0100
0000
,
0010
1000
0100
0000
0100
1000
0001
0000
,
0001
0100
1000
0100
0001
0000
0100
0000
,
0010
0100
0010
0100
0001
1000
0001
1000
,
0100
0010
0100
0010
0001
1000
0001
1000
,
0010
0000
0110
0000
0100
0001
0100
0000
,
0001
0000
1001
0000
1000
0001
1000
0000
,
0100
0000
0110
0000
0100
1000
0100
0000
,
0010
0000
0011
0000
0001
1000
0001
0000
,
1000
0000
1010
0000
0100
0001
0010
0000
,
0001
0000
1001
0000
1000
0010
0100
0000
,
0001
0000
0011
0000
0010
0100
1000
0000
,
0001
1000
0001
1000
0010
0100
0010
0000
,
0200
0000
0000
0000
,
0300
0000
0000
0000
;

//---------------dance-single - ----------------
#NOTEDATA:;
#CHARTNAME:;
#STEPSTYPE:dance-single;
#DESCRIPTION:;
#CHARTSTYLE:;
#DIFFICULTY:Hard;
#METER:15;
#RADARVALUES:0.738,0.970,0.661,0.054,0.815,492.000,73.000,6.000,0.000,0.000,0.000,0.000,0.000,0.738,0.970,0.661,0.054,0.815,492.000,73.000,6.000,0.000,0.000,0.000,0.000,0.000;
#CREDIT:;
#DISPLAYBPM:147.000;
#NOTES:
0000
0000
0000
0000
,
0000
0000
0000
0000
,
1100
0000
0000
0100
0000
0010
0001
0000
0000
0001
0000
1000
0010
0100
0000
0000
,
0000
0000
0000
0000
,
0101
0000
0000
0100
0000
0010
1000
0000
0000
1000
0000
0001
0010
0100
0000
0000
,
0000
0000
0000
0000
,
0011
0000
0000
0001
0000
1000
0100
0000
0000
0010
0000
0100
1000
0001
0000
0000
,
0000
0000
0000
0000
,
1010
0000
0000
1000
0000
0001
0100
0000
0000
0010
0000
0100
0001
1000
0000
0000
,
0000
0000
0001
0100
1000
0100
0001
0100
,
0000
0000
0010
1000
0000
1000
0100
0000
1000
0010
0000
0010
0100
0000
0100
0001
,
0000
0000
0001
0100
0000
0100
0010
0000
0010
1000
0000
1000
0001
0000
0011
0000
,
0000
0000
0100
0010
0000
0010
0001
0000
0100
0001
0000
0001
1000
0000
0010
1000
,
0000
0000
0100
1000
0000
1000
0001
0000
0100
0010
0000
0010
1000
0000
1100
0000
,
0000
0000
1000
0100
0000
0010
0100
0000
1000
0001
0000
0001
0010
0000
0010
0100
,
0000
0000
0010
0001
0000
1000
0010
0000
0100
0010
0000
1000
0001
0000
0011
0000
,
0000
0000
0001
0100
0000
0010
1000
0000
0001
1000
0000
1000
0100
0000
0010
0001
,
0000
0000
1000
0001
0000
0001
0100
0000
0010
1000
0000
1000
0100
0000
0110
0000
,
0000
0000
0011
0000
0000
0101
0000
0000
1100
0000
0000
1010
0000
0000
0010
0001
,
0000
0000
1010
0000
0000
1100
0000
0000
0101
0000
0000
1001
0000
0000
1001
0000
,
0000
0000
1010
0000
0000
0011
0000
0000
0101
0000
0000
1100
0000
0000
1000
0010
,
0000
0000
1100
0000
0000
0101
0000
0000
0011
0000
0000
0110
0000
0000
0110
0000
,
0000
0000
1100
0000
0000
0101
0000
0000
0011
0000
0000
0110
0000
0000
1010
0000
,
0000
0000
0101
0000
0000
0011
0000
0000
1010
0000
0000
1001
0000
0000
1001
0000
,
0000
0000
0011
0000
0000
1100
0000
0000
1010
0000
0000
0101
0000
0000
1001
0000
,
0100
0001
0100
0001
0100
0001
0100
0001
1000
0010
1000
0010
1000
0010
1000
0001
,
0200
0000
0000
1000
0000
0010
0000
0001
,
0000
0010
0000
1000
0000
0010
0000
0310
,
0020
0000
0000
1000
0000
0100
0000
0001
,
0000
0000
0100
0000
0000
0000
1000
0000
0000
0000
0100
0000
0000
0100
0030
0000
,
0002
0000
0000
0010
0000
1000
0000
0100
,
0000
1000
0000
0010
0000
1000
0000
0103
,
2100
0000
0000
3001
0012
0000
0000
0103
,
0110
0000
1010
0000
0101
0100
1001
0010
,
1000
0000
0100
0000
0001
0100
0001
0000
0100
0000
0010
0000
0001
1000
0001
0000
,
1000
0000
0010
0000
0001
0000
1000
0100
0000
0100
0010
0000
1100
0000
0000
0000
,
0001
0000
0010
0000
1000
0001
1000
0000
0001
0000
0100
0000
0010
1000
0010
0000
,
1000
0000
0100
0000
0001
0000
0100
0010
0000
0010
1000
0000
0101
0000
0000
0000
,
0100
0000
1000
0000
0010
0100
0010
0000
0100
0000
0001
0000
0010
0100
0010
0000
,
0001
0000
1000
0000
0100
0000
1000
0010
0000
0010
0001
0000
1100
0000
0000
0000
,
0100
0000
0010
0000
1000
0001
1000
0000
0100
0000
0010
0000
0001
1000
0001
0000
,
1000
0000
0100
0000
0001
0000
1000
0010
0000
0010
0001
0000
1100
0000
0000
0000
,
1000
0000
0100
0000
0010
0100
0000
1000
0100
0000
0010
0000
0100
1000
0000
0010
,
0100
0000
0010
0000
0001
0010
0100
0000
1000
0000
0000
1001
0100
0000
0000
0000
,
1000
0000
0010
0000
0100
0001
0000
0001
0010
0000
0010
1000
0000
1000
0100
0000
,
0001
0000
0000
1000
0000
0001
0100
0000
1010
0000
0110
0000
1010
0000
0110
0000
,
0000
0000
0010
0000
1000
0100
0000
0010
0100
0000
0001
0100
0000
0100
0010
0000
,
0001
0000
1000
0100
0000
0010
0100
0000
0010
0000
0000
0011
0100
0000
0101
0000
,
0000
0000
0010
0000
0100
1000
0000
0100
0010
0000
0100
0001
0000
0001
0010
0000
,
0001
0000
0000
0011
0000
0000
0100
0000
1000
0100
0000
0010
0000
0110
0000
0000
,
0001
0000
0100
0000
0010
0100
0000
0001
0100
0000
0010
0000
0100
0001
0000
0010
,
0100
0000
0010
0000
1000
0010
0100
0000
1000
0000
0000
1001
0010
0000
0000
0000
,
0010
0000
1000
0000
0100
1000
0000
1000
0010
0000
0010
0001
0000
0001
0100
0000
,
1000
0000
0000
0010
0000
1000
0100
0000
0110
0000
0011
0000
1100
0000
0110
0000
,
0000
0000
0010
0000
0001
1000
0000
0010
1000
0000
0001
0100
0000
0100
0010
0000
,
1000
0000
0001
0100
0000
0010
0100
0000
0010
0000
0000
1010
0100
0000
1001
0000
,
1000
0010
1000
0010
1000
0010
1000
0010
0100
0001
0100
0001
0100
0001
0100
0001
,
1000
0010
0100
0010
1000
0010
0100
0010
0100
0001
0100
0010
0100
0001
0100
0010
,
1000
0000
0000
0100
0000
0000
1000
0000
0000
0001
0000
0000
0100
0000
0001
0000
,
0010
0000
0000
0001
0000
0000
1000
0000
0000
0100
0000
0000
1000
0000
0010
0000
,
1000
0000
0000
0001
0000
0000
0100
0000
0000
0010
0000
0000
0100
0000
0001
0000
,
0100
0000
0000
0001
0000
0000
1000
0000
0000
0100
0000
0000
1000
0000
0001
0000
,
0100
0000
0000
0100
0010
0000
0010
1000
0000
1000
0001
0000
0101
0000
1001
0000
,
0010
0000
0000
0010
0100
0000
0100
1000
0000
1000
0001
0000
1010
0000
0101
0000
,
1000
0000
0000
0001
0010
0000
1000
0100
0000
1000
0001
0000
0110
0000
0011
0000
,
1000
0000
0100
0000
0010
0000
0001
0010
0000
0010
1000
0000
0010
0100
1000
0001
,
0200
0000
0000
0000
,
0300
0000
0000
0000
;

//---------------dance-double - ----------------
#NOTEDATA:;
#CHARTNAME:;
#STEPSTYPE:dance-double;
#DESCRIPTION:;
#CHARTSTYLE:;
#DIFFICULTY:Hard;
#METER:15;
#RADARVALUES:0.703,0.970,0.516,0.100,0.733,476.000,57.000,11.000,0.000,0.000,0.000,0.000,0.000,0.703,0.970,0.516,0.100,0.733,476.000,57.000,11.000,0.000,0.000,0.000,0.000,0.000;
#CREDIT:;
#DISPLAYBPM:147.000;
#NOTES:
// measure 0
00000000
00000000
00000000
00000000
,  // measure 1
00000000
00000000
00000000
00000000
,  // measure 2
01000000
00000000
00000000
00100000
00000000
00100000
00001000
00000000
00000000
00010000
00000000
01000000
00100000
00010000
00000000
00000000
,  // measure 3
00000000
00000000
00000000
00000000
,  // measure 4
00001000
00000000
00000000
01000000
00000000
00010000
00000100
00000000
00000000
00001000
00000000
00000100
00001000
00010000
00000000
00000000
,  // measure 5
00000000
00000000
00000000
00000000
,  // measure 6
00000100
00000000
00000000
00001000
00000000
00000001
00000010
00000000
00000000
00000100
00000000
00010000
00001000
00000100
00000000
00000000
,  // measure 7
00000000
00000000
00000000
00000000
,  // measure 8
00001000
00000000
00000000
00010000
00000000
00001000
01000000
00000000
00000000
00100000
00000000
00010000
00001000
01000000
00000000
00000000
,  // measure 9
00000000
00000000
00010000
01000000
10000000
01000000
00010000
01000000
,  // measure 10
00000000
00000000
00100000
10000000
00000000
10000000
01000000
00000000
01000000
00010000
00000000
00010000
00001000
00000000
00010000
00001000
,  // measure 11
00000000
00000000
00001000
00000100
00000000
00000100
00000001
00000000
00000001
00000010
00000000
00000010
00001000
00000000
00011000
00000000
,  // measure 12
00000000
00000000
00001000
00000100
00000000
00000100
00000001
00000000
00000001
00000010
00000000
00000010
00001000
00000000
00001000
00010000
,  // measure 13
00000000
00000000
00001000
00010000
00000000
00010000
00100000
00000000
00100000
10000000
00000000
10000000
01000000
00000000
01100000
00000000
,  // measure 14
00000000
00000000
01000000
10000000
00000000
10000000
00100000
00000000
00100000
00010000
00000000
00010000
00001000
00000000
00001000
00010000
,  // measure 15
00000000
00000000
00010000
01000000
00000000
01000000
10000000
00000000
10000000
00100000
00000000
00100000
00010000
00000000
00011000
00000000
,  // measure 16
00000000
00000000
00001000
00000100
00000000
00000100
00000001
00000000
00000001
00000010
00000000
00000010
00001000
00000000
00001000
00010000
,  // measure 17
00000000
00000000
00010000
00001000
00000000
00001000
00000100
00000000
00000100
00000001
00000000
00000001
00001000
00000000
00001100
00000000
,  // measure 18
00000000
00000000
00000011
00000000
00000000
00001001
00000000
00000000
00001100
00000000
00000000
00001100
00000000
00000000
00010000
00001000
,  // measure 19
00000000
00000000
01010000
00000000
00000000
10100000
00000000
00000000
10010000
00000000
00000000
10010000
00000000
00000000
11000000
00000000
,  // measure 20
00000000
00000000
00110000
00000000
00000000
11000000
00000000
00000000
01100000
00000000
00000000
01100000
00000000
00000000
00100000
00010000
,  // measure 21
00000000
00000000
00011000
00000000
00000000
00010100
00000000
00000000
00011000
00000000
00000000
00011000
00000000
00000000
00010010
00000000
,  // measure 22
00000000
00000000
00000101
00000000
00000000
00001010
00000000
00000000
00001100
00000000
00000000
00001100
00000000
00000000
00010000
00000100
,  // measure 23
00000000
00000000
00011000
00000000
00000000
00110000
00000000
00000000
11000000
00000000
00000000
11000000
00000000
00000000
10010000
00000000
,  // measure 24
00000000
00000000
10100000
00000000
00000000
01010000
00000000
00000000
00011000
00000000
00000000
00010100
00000000
00000000
00000011
00000000
,  // measure 25
00000001
00000100
00000001
00000100
00000001
00000100
00000001
00000100
00000010
00010000
00000010
00001000
00000010
00010000
00000010
00001000
,  // measure 26
00000200
00000000
00000000
00001000
00000000
00010000
00000000
00001000
,  // measure 27
00000000
00010000
00000000
00001000
00000000
00010000
00000000
00001300
,  // measure 28
00002000
00000000
00000000
00000010
00000000
00000001
00000000
00000100
,  // measure 29
00000000
00000000
00000001
00000000
00000000
00000000
00000010
00000000
00003000
00000000
00000100
00000000
00000000
00011000
00000000
00000000
,  // measure 30
00200000
00000000
00000000
00010000
00000000
00001000
00000000
00010000
,  // measure 31
00000000
00001000
00000000
00010000
00000000
00001000
00000000
00310000
,  // measure 32
00020000
00000000
00000000
10030000
20000000
00000000
00000000
30100000
,  // measure 33
00100000
10100000
01000000
01010000
,  // measure 34
10000000
00000000
00100000
00000000
00010000
00100000
00010000
00000000
00100000
00000000
00010000
00000000
00001000
00000000
00000000
00000000
,  // measure 35
00010000
00000000
00001000
00000000
00000100
00001000
00000100
00000000
00001000
00000000
00000100
00000000
00000001
00000000
00000000
00000000
,  // measure 36
00000001
00000000
00000010
00000000
00001000
00010000
00001000
00000000
00000010
00000000
00001000
00000000
00010000
00000000
00000000
00000000
,  // measure 37
00010000
00000000
01000000
00000000
10000000
01000000
10000000
00000000
01000000
00000000
10000000
00000000
00100000
00000000
00000000
00000000
,  // measure 38
00100000
00000000
01000000
00000000
00010000
00000000
01000000
00010000
00000000
00010000
00100000
00000000
00101000
00000000
00000000
00000000
,  // measure 39
00010000
00000000
00000100
00000000
00000010
00000000
00000100
00001000
00000000
00001000
00000010
00000000
00010010
00000000
00000000
00000000
,  // measure 40
00010000
00000000
00000010
00000000
00001000
00000000
00000001
00000000
00001000
00000100
00001000
00000000
00000100
00000000
00000010
00000000
,  // measure 41
00000001
00000000
00000100
00000000
00001000
00000000
00010000
00100000
00000000
00100000
10000000
00000000
10010000
00000000
00000000
00000000
,  // measure 42
10000000
00000000
01000000
00000000
00010000
01000000
00000000
00000000
00010000
00000000
01000000
00000000
10000000
01000000
00000000
00000000
,  // measure 43
10000000
00000000
00100000
00000000
00010000
00000000
00001000
00000000
00010000
00000000
00000000
00011000
00000100
00000000
00000000
00000000
,  // measure 44
00010000
00000000
00000010
00000000
00001000
00000010
00000000
00000010
00000001
00000000
00000001
00000100
00000000
00000100
00001000
00000000
,  // measure 45
00000001
00000000
00000000
00000100
00000000
00001000
00010000
00000000
00110000
00000000
01100000
00000000
10100000
00000000
01100000
00000000
,  // measure 46
00000000
00000000
00100000
00000000
01000000
00010000
00000000
00001000
00000010
00000000
00000100
00010000
00000000
00001000
00100000
00000000
,  // measure 47
00010000
00000000
01000000
00001000
00000000
00010000
00100000
00000000
00010000
00000000
00000000
00011000
01000000
00000000
01010000
00000000
,  // measure 48
00000000
00000000
00100000
00000000
01000000
10000000
00000000
01000000
00100000
00000000
01000000
00010000
00000000
00010000
00100000
00000000
,  // measure 49
00010000
00000000
00000000
00011000
00000000
00000000
00000100
00000000
00001000
00000100
00000000
00000010
00000000
00000110
00000000
00000000
,  // measure 50
00000001
00000000
00000100
00000000
00001000
00000100
00000000
00000000
00001000
00000000
00000100
00000000
00000001
00000100
00000000
00000000
,  // measure 51
00000001
00000000
00000010
00000000
00001000
00000000
00010000
00000000
00001000
00000000
00000000
00011000
00100000
00000000
00000000
00000000
,  // measure 52
00010000
00000000
10000000
00000000
00100000
00010000
00000000
00010000
01000000
00000000
01000000
10000000
00000000
10000000
00010000
00000000
,  // measure 53
01000000
00000000
00000000
00100000
00000000
00010000
00001000
00000000
00010100
00000000
00001100
00000000
00000110
00000000
00001100
00000000
,  // measure 54
00001000
00000100
00000001
00000100
00001000
00010000
00100000
10000000
,  // measure 55
00100000
00010000
01000000
10000000
00010000
00100000
00010000
00001000
,  // measure 56
00010000
00000100
00010000
00000100
00001000
00000010
00001000
00000010
00000100
00000001
00000100
00000001
00001000
00000001
00001000
00000001
,  // measure 57
00000100
00000010
00001000
00000100
00010000
00001000
00100000
00010000
00100000
00010000
10000000
00100000
01000000
00010000
00100000
00001000
,  // measure 58
00020000
00000000
00000000
00000010
00000000
00000000
00001000
00000000
00000000
00000100
00030000
00000000
00001000
00000000
00010000
00000000
,  // measure 59
00002000
00000000
00000000
00100000
00000000
00000000
00010000
00000000
00000000
01000000
00003000
00000000
00010000
00000000
00001000
00000000
,  // measure 60
00020000
00000000
00000000
00000100
00000000
00000000
00001000
00000000
00000000
00000010
00030000
00000000
00001000
00000000
00010000
00000000
,  // measure 61
00002000
00000000
00000000
01000000
00000000
00000000
00010000
00000000
00000000
00100000
00003000
00000000
00010000
00000000
00001000
00000000
,  // measure 62
00010000
00000100
00000000
00001000
00000100
00000000
00001000
00000001
00000000
00001000
00000100
00000000
00010000
00000000
00001000
00000000
,  // measure 63
01000000
00010000
00000000
10000000
00100000
00000000
01000000
00001000
00000000
00010000
00001000
00000000
00010000
00000000
00001000
00000000
,  // measure 64
00010000
00000100
00000000
00001000
00000100
00000000
00010000
00001000
00000000
00001000
01000000
00000000
00100000
00000000
01000000
00000000
,  // measure 65
00100000
00010000
00001000
00000100
00000010
00001000
00000100
00010000
,  // measure 66
00022000
00000000
00000000
00000000
,  // measure 67
00033000
00000000
00000000
00000000
;

//---------------dance-double - ----------------
#NOTEDATA:;
#CHARTNAME:;
#STEPSTYPE:dance-double;
#DESCRIPTION:;
#CHARTSTYLE:;
#DIFFICULTY:Medium;
#METER:12;
#RADARVALUES:0.446,0.485,0.154,0.036,0.077,324.000,17.000,4.000,0.000,0.000,0.000,0.000,0.000,0.446,0.485,0.154,0.036,0.077,324.000,17.000,4.000,0.000,0.000,0.000,0.000,0.000;
#CREDIT:;
#DISPLAYBPM:147.000;
#NOTES:
00000000
00000000
00000000
00000000
,
00000000
00000000
00000000
00000000
,
00100000
00000000
00000000
00010000
00000000
00000000
00010000
00000000
,
00000000
00000000
00000000
00000000
,
00000100
00000000
00000000
00001000
00000000
00000000
00001000
00000000
,
00000000
00000000
00000000
00000000
,
00010000
00000000
00000000
00000100
00000000
00000000
00001100
00000000
,
00000000
00000000
00000000
00000000
,
00001000
00000000
00000000
00100000
00000000
00000000
00100000
00000000
,
00000000
00000000
00010000
00010000
,
00100000
00001000
00010000
00001000
00010000
00000100
00001000
00000000
,
00000010
00010000
00001000
00010000
00000100
00000000
00001100
00000000
,
00000100
00010000
00001000
00010000
00001000
00100000
00001000
00000000
,
00100000
00001000
00010000
00001000
01000000
00000000
01010000
00000000
,
00100000
10000000
00010000
10000000
00100000
01000000
00010000
00000000
,
00010000
01000000
00100000
01000000
00010000
00000000
01001000
00000000
,
00001000
00000100
00000010
00000100
00000001
00000100
00000010
00000000
,
00000100
00000001
00001000
00000100
00010000
00000000
00010100
00000000
,
00001000
00010000
00000100
00000000
00001000
00000100
00000011
00000000
,
00000001
00000010
00000100
00001000
00000001
00000000
00001001
00000000
,
00001000
00000100
00010000
00000000
00001000
01000000
01010000
00000000
,
01000000
00100000
10000000
00010000
01000000
00000000
01100000
00000000
,
00100000
10000000
00010000
00000000
01000000
00100000
00010000
00000000
,
00010000
00100000
00010000
00001000
00010000
00000100
00001000
00000000
,
00000100
00001000
00000100
00000010
00000100
00001000
00000100
00000010
,
00000000
00000000
00000001
00000000
00000000
00000001
00000000
00000000
00000001
00000000
00000000
00000001
00000000
00000000
00000001
00000000
,
00002000
00000000
00000000
00000000
,
00000000
00000000
00000000
00000000
00000000
00000000
00003000
00000100
,
00000200
00000000
00000000
00000000
,
00000000
00000000
00000000
00000000
00000000
00000000
00000000
00000000
00000000
00000000
00010000
00000000
00000000
00010000
00000300
00000000
,
00002000
00000000
00000000
00000000
,
00000000
00000000
00000000
00000000
00000000
00000000
00003000
01000000
,
01000000
00000000
00000000
00100000
00100000
00000000
00000000
10000000
,
10010000
01000000
10010000
00100000
,
10000000
00100000
01000000
00000000
10000000
01000000
00100000
00000000
,
01000000
00100000
00010000
00001000
00000000
00000100
00000010
00000000
,
00000100
00000001
00000010
00000000
00000100
00000010
00000001
00000000
,
00000100
00001000
00010000
00100000
00000000
00100000
01000000
00000000
,
00100000
10000000
00010000
00000000
00100000
00010000
01000000
00000000
,
00100000
00010000
00001000
00000100
00000000
00000100
00000010
00000000
,
00000010
00001000
00000001
00000000
00000100
00000001
00001000
00000000
,
00000100
00010000
00001000
00100000
00010000
00100000
01000000
00000000
,
00100000
00110000
00010000
10010000
,
10000000
00100000
00010000
00100000
00010000
00001000
00010000
00000000
,
00001000
00000100
00000010
00000000
00000010
00000100
00001000
00000000
,
00001000
00000100
00000001
00001000
00000100
00000100
00000100
00000000
,
00000100
00000001
00000100
00001000
00000100
00000010
00001000
00000100
,
00001000
00000100
00010000
00001000
00010000
00001000
00010000
00000000
,
00100000
01000000
00100000
01000000
00010000
00000000
01010000
00000000
,
01000000
00010000
10000000
01000000
00100000
00100000
00100000
00000000
,
00100000
00101000
00010000
00011000
,
00010000
00001000
00000100
00001000
00010000
00000000
00011000
00000000
,
00010000
00100000
10000000
00010000
10000000
01000000
10000000
00000000
,
00100000
10000000
00010000
01000000
00100000
00100000
00100000
00000000
,
10000000
00100000
00010000
00001000
,
00010000
00000100
00000010
00000001
,
00000001
00000100
00000001
00000100
00000010
00001000
00000010
00001000
,
00000100
00010000
00000100
00010000
00001000
00100000
00001000
00100000
,
01000000
00000000
00000000
01000000
00000000
00000000
01000000
00000000
00000000
01000000
00000000
00000000
01000000
00000000
00000000
00000000
,
00100000
00000000
00000000
00100000
00000000
00000000
00100000
00000000
00000000
00100000
00000000
00000000
00100000
00000000
00000000
00000000
,
00010000
00000000
00000000
00010000
00000000
00000000
00010000
00000000
00000000
00010000
00000000
00000000
00010000
00000000
00000000
00000000
,
00001000
00000000
00000000
00001000
00000000
00000000
00001000
00000000
00000000
00001000
00000000
00000000
00001000
00000000
00000000
00000000
,
00000010
00000000
00000000
00000010
00000000
00000000
00000010
00000000
00000000
00000010
00000000
00000000
00000010
00000000
00000000
00000000
,
00000100
00000000
00000000
00000100
00000000
00000000
00000100
00000000
00000000
00000100
00000000
00000000
00000100
00000000
00000000
00000000
,
00000001
00000000
00000000
00000001
00000000
00000000
00000001
00000000
00000000
00000001
00000000
00000000
00000001
00000000
00000000
00000000
,
00000001
00000100
00000001
00000100
00000010
00001000
00000010
00001000
,
00000200
00000000
00000000
00000000
,
00000300
00000000
00000000
00000000
;

//---------------dance-double - ----------------
#NOTEDATA:;
#CHARTNAME:;
#STEPSTYPE:dance-double;
#DESCRIPTION:;
#CHARTSTYLE:;
#DIFFICULTY:Easy;
#METER:8;
#RADARVALUES:0.321,0.364,0.217,0.127,0.000,210.000,24.000,14.000,0.000,0.000,0.000,0.000,0.000,0.321,0.364,0.217,0.127,0.000,210.000,24.000,14.000,0.000,0.000,0.000,0.000,0.000;
#CREDIT:;
#DISPLAYBPM:147.000;
#NOTES:
00000000
00000000
00000000
00000000
,
00000000
00000000
00000000
00000000
,
01000000
01000000
01000000
00100000
,
00000000
00000000
00000000
00000000
,
00000010
00000010
00000010
00000100
,
00000000
00000000
00000000
00000000
,
00001000
00001000
00001000
00010000
,
00000000
00000000
00000000
00000000
,
00010000
00010000
00010000
00001000
,
00000000
00000000
00001000
00001000
,
00010000
00000100
00001000
00000100
,
00000010
00000110
00000100
00000110
,
00000100
00010000
00001000
01000000
,
00100000
01100000
01000000
01100000
,
00100000
10000000
00010000
01000000
,
00010000
10010000
10000000
10010000
,
00010000
01000000
00010000
00100000
,
00001000
00011000
00010000
00011000
,
00001000
00000100
00000010
00000100
,
00000001
00001000
00000001
00001001
,
00001000
00000100
00001000
00000010
,
00000100
00000001
00000100
00000110
,
00000010
00001000
00000100
00010000
,
00001000
00010000
00001000
00011000
,
00010000
00100000
10000000
00010000
,
10000000
01000000
00100000
01100000
,
02000000
00000000
00000000
00000000
,
00000000
00000000
00000000
03000000
,
00100000
00000000
00000000
00000000
,
00000000
00000000
00000000
00000000
,
00011000
00000000
00000000
00000000
,
00000000
00000000
00000000
00000000
,
00000100
00000000
00000100
00000000
,
00000010
00000010
00000010
00000010
,
00000100
00000110
00000100
00000100
,
00001000
00001001
00001000
00000000
,
00000100
00000100
00001100
00001000
,
00000100
00010100
00010000
00000000
,
00010000
00011000
00001000
00001000
,
00010000
00011000
00010000
00000000
,
00100000
10100000
10000000
10000000
,
00100000
10100000
10000000
00000000
,
01000000
00010000
01000000
00000000
,
00100000
01000000
00100000
00000000
,
01000000
00100000
01000000
00100000
,
00010000
00001000
00010000
00011000
,
00010000
00000100
00010000
00000000
,
00000100
00000010
00000100
00000000
,
00001000
00000100
00000010
00000100
,
00001000
00000100
00010000
00011000
,
00010000
00001000
00100000
00000000
,
00001000
00010000
00000010
00000000
,
00001000
00000100
00001000
00000001
,
00000100
00000010
00001000
00001001
,
00001000
00001000
00000100
00000100
,
00010000
00010000
00001000
00001000
,
00100000
00100000
00010000
00010000
,
10000000
10000000
00100000
00100000
,
02000000
03010000
02000000
03100000
,
02000000
13000000
02000000
03100000
,
00020000
00031000
00020000
00030100
,
00020000
00031000
00020000
00030100
,
00002000
00103000
00002000
00013000
,
00002000
01003000
00002000
00013000
,
00001000
00010000
00001000
00010000
,
00000100
00001000
00000100
00001000
,
00000200
00000000
00000000
00000000
,
00000300
00000000
00000000
00000000
;
