#VERSION:0.81;
#TITLE:SigNalize;
#SUBTITLE:Electro Trance;
#ARTIST:Paul Bazooka;
#TITLETRANSLIT:;
#SUBTITLETRANSLIT:;
#ARTISTTRANSLIT:;
#GENRE:;
#ORIGIN:;
#CREDIT:;
#BANNER:SigNalize.png;
#BACKGROUND:SigNalize-bg.png;
#PREVIEWVID:;
#JACKET:;
#CDIMAGE:;
#DISCIMAGE:;
#LYRICSPATH:;
#CDTITLE:;
#MUSIC:SigNalize.mp3;
#OFFSET:-0.122;
#SAMPLESTART:33.470;
#SAMPLELENGTH:12.000;
#SELECTABLE:YES;
#DISPLAYBPM:132.000;
#BPMS:0.000=132.000;
#STOPS:;
#DELAYS:;
#WARPS:;
#TIMESIGNATURES:0.000=4=4;
#TICKCOUNTS:0.000=4;
#COMBOS:0.000=1;
#SPEEDS:0.000=1.000=0.000=0;
#SCROLLS:0.000=1.000;
#FAKES:;
#LABELS:0.000=Song Start;
#BGCHANGES:;
#KEYSOUNDS:;
#ATTACKS:
;

//---------------dance-single - ----------------
#NOTEDATA:;
#CHARTNAME:;
#STEPSTYPE:dance-single;
#DESCRIPTION:;
#CHARTSTYLE:;
#DIFFICULTY:Hard;
#METER:15;
#RADARVALUES:0.750,0.842,0.254,0.427,0.758,503.000,28.000,47.000,0.000,0.000,0.000,0.000,0.000,0.750,0.842,0.254,0.427,0.758,503.000,28.000,47.000,0.000,0.000,0.000,0.000,0.000;
#CREDIT:;
#DISPLAYBPM:132.000;
#NOTES:
// measure 0
0000
0000
0000
0000
,  // measure 1
0000
0000
0000
0000
,  // measure 2
0000
0000
0000
0000
,  // measure 3
0000
0000
0000
0000
,  // measure 4
0000
0000
0000
0000
,  // measure 5
0000
0000
0000
0000
,  // measure 6
1000
0000
0100
0000
0001
0000
0100
0000
0010
0001
0010
0000
0110
0000
0000
0000
,  // measure 7
0010
0000
0001
0000
0100
0000
1000
0000
0001
0010
0001
0000
0110
0000
0000
0000
,  // measure 8
1000
0000
0000
1000
0100
0000
0000
0100
0001
0000
0000
0001
0010
0000
0000
0010
,  // measure 9
1000
0000
0001
0000
1000
0100
0010
0001
1000
0000
1010
0000
0101
0000
1010
0000
,  // measure 10
1000
0100
1000
0001
0000
0001
0100
0000
0100
0000
0010
0000
1000
0000
0001
0000
,  // measure 11
0001
0100
0001
1000
0000
1000
0010
0000
0010
0000
1000
0000
0220
0000
0330
0000
,  // measure 12
1000
0000
0000
0010
0100
0001
0000
0100
0010
1000
0001
1000
,  // measure 13
0220
0000
0330
0000
0001
0000
0100
0001
0000
0001
0100
0000
0010
1000
0010
0000
,  // measure 14
1001
0001
0000
0001
0100
0010
0000
0000
0100
0000
1000
0000
0001
0000
0001
0000
,  // measure 15
0010
0001
0000
0001
1000
0010
0000
0000
0100
0000
0010
1000
0010
1000
0001
0000
,  // measure 16
0100
0001
0010
0100
0001
1000
0010
0001
1001
0000
1001
0000
1001
0000
0000
0000
,  // measure 17
0100
1000
0001
0010
1000
0001
0100
0010
0001
0000
1000
0000
0001
0000
1000
0000
,  // measure 18
0010
0000
0000
1000
0000
0000
0100
0000
0000
0000
0000
0000
0010
0000
0001
0000
0000
0000
0000
0000
0000
0000
0000
0000
0100
0000
0000
0001
0000
0000
0010
0000
0000
0000
0000
0000
0100
0000
1000
0000
0000
0000
0000
0000
0000
0000
0000
0000
,  // measure 19
0001
0000
0000
0100
0000
0000
0010
0000
0000
0000
0000
0000
1000
0000
0001
0000
0000
0000
0000
0000
0000
0000
0000
0000
1000
0000
0000
0100
0000
0000
0010
0000
0000
0000
0000
0000
0001
0000
1000
0000
0000
0000
0000
0000
0000
0000
0000
0000
,  // measure 20
1000
0000
0000
0000
0000
0000
0000
0000
0000
1000
0000
0000
1001
0000
0000
0000
0000
0000
1001
0000
0000
0000
0000
0000
0100
0000
0000
0000
0000
0000
0100
0000
0000
0000
0000
0000
0010
0000
0000
1000
0000
0000
0010
0000
0000
0000
1000
0000
,  // measure 21
0001
0000
0001
0000
1000
0000
1000
0100
0000
0100
0001
0000
0100
0000
0010
0000
,  // measure 22
0001
0000
0000
0100
0000
0000
1000
0000
0000
0000
0000
0000
0100
0000
0010
0000
0000
0000
0000
0000
0000
0000
0000
0000
1000
0000
0000
0100
0000
0000
0001
0000
0000
0000
0000
0000
0100
0000
0010
0000
0000
0000
0000
0000
0000
0000
0000
0000
,  // measure 23
0001
0000
0000
0010
0000
0000
1000
0000
0000
0000
0000
0000
0010
0000
0100
0000
0000
0000
0000
0000
0000
0000
0000
0000
1000
0000
0000
0010
0000
0000
0001
0000
0000
0000
0000
0000
0010
0000
0100
0000
0000
0000
0000
0000
0000
0000
0000
0000
,  // measure 24
0100
0001
0010
1000
0001
1000
0010
0000
0011
0000
1100
0000
1000
0001
1000
0001
,  // measure 25
0100
0001
0010
0001
1000
0010
0001
0010
2000
0000
0000
0000
3001
0000
0000
0000
,  // measure 26
1000
0000
0000
0010
0000
0000
0100
0000
0000
0000
0000
0000
0010
0000
0001
0000
0000
0000
0000
0000
0000
0000
0000
0000
0001
0000
0000
0010
0000
0000
0100
0000
0000
0000
0000
0000
0010
0000
1000
0000
0000
0000
0000
0000
0000
0000
0000
0000
,  // measure 27
0001
0000
0000
0010
0000
0000
0100
0000
0000
0000
0000
0000
0010
0000
1000
0000
0000
0000
0000
0000
0000
0000
0000
0000
1000
0000
0000
0010
0000
0000
0100
0000
0000
0000
0000
0000
0010
0000
0001
0000
0000
0000
1001
0000
0000
0000
0000
0000
,  // measure 28
0001
0000
0000
0100
0000
0000
1000
0000
0000
0000
0000
0000
0100
0000
0001
0000
0000
0000
0000
0000
0000
0000
0000
0000
1000
0000
0000
0010
0000
0000
0001
0000
0000
0000
0000
0000
0010
0000
1000
0000
0000
0000
0000
0000
0000
0000
0000
0000
,  // measure 29
0001
0000
0000
1000
0000
0000
0100
0000
0000
0000
0000
0000
1000
0000
0001
0000
0000
0000
0000
0000
0000
0000
0000
0000
1000
0000
0000
0010
0000
0000
0100
0000
0000
0010
0000
0000
1000
0000
0000
0001
0000
0000
0010
0000
0000
0000
0000
0000
,  // measure 30
0010
0000
0000
0001
0000
0000
1000
0000
0000
0000
0000
0000
0100
0000
1000
0000
0000
0000
0001
0000
0000
0000
0000
0000
0100
0000
0000
0001
0000
0000
0010
0000
0000
0000
0000
0000
0001
0000
1000
0000
0000
0000
0010
0000
0000
0000
0000
0000
,  // measure 31
1000
0000
0000
0001
0000
0000
0100
0000
0000
0000
0000
0000
0001
0000
1000
0000
0000
0000
0100
0000
0000
0000
0000
0000
0010
0000
0000
0001
0000
0000
0100
0000
0000
0000
0000
0000
0010
0000
1000
0000
0000
0000
0001
0000
0000
0000
0000
0000
,  // measure 32
0100
0001
0100
0001
0100
0001
0100
0000
0010
1000
0010
1000
0010
1000
0010
0000
,  // measure 33
1000
0010
0100
0010
1000
0001
1000
0001
0010
0001
0100
0001
0010
0100
0010
0100
,  // measure 34
2000
0000
3002
0103
0000
0000
0010
2000
,  // measure 35
0000
3200
0000
0302
0000
0023
0000
0030
,  // measure 36
0002
0000
2003
3100
0000
0000
0010
0002
,  // measure 37
0000
0203
0000
2300
0000
3010
0000
0010
,  // measure 38
2000
3020
0032
0203
2300
3200
0302
0023
,  // measure 39
0032
0023
2030
3200
0302
0203
2300
3020
,  // measure 40
0130
1000
0100
0000
0001
0100
0001
0000
0010
0001
0010
0000
1000
0010
1000
0000
,  // measure 41
0010
0000
0001
0000
1000
0000
0010
0000
0100
0001
1000
0000
0010
1000
0000
0001
,  // measure 42
1000
0000
0000
0000
0200
0000
0000
0300
,  // measure 43
1000
0000
0010
0100
0001
0000
1000
0001
0010
0000
0100
0010
1000
0000
0001
1000
,  // measure 44
0100
0000
0001
0100
0010
0000
1000
0100
0010
0000
0001
0100
0010
0000
1000
0100
,  // measure 45
0010
0000
0001
1000
0010
0000
0100
0010
0001
0000
1000
0001
0100
0000
0010
0100
,  // measure 46
1000
0000
0100
0010
0001
0000
0100
0010
1000
0000
0001
0100
0010
0000
1000
0100
,  // measure 47
0010
0000
0001
0000
0011
0000
1000
0010
0001
0000
0100
0001
0010
0000
0100
0000
,  // measure 48
1000
0000
0010
0000
1010
0000
0010
0001
1000
0000
0010
0100
0001
0000
0010
0000
,  // measure 49
1000
0000
0001
0000
0011
0000
1000
0100
0001
0000
0100
1000
0010
0000
1000
0000
,  // measure 50
0001
0000
0100
0001
0000
0001
0100
0000
0010
1000
0010
0100
0010
1000
0010
0000
,  // measure 51
1000
0000
0001
0010
1000
0000
0010
0001
0100
0001
0000
1000
0010
0100
0010
1000
,  // measure 52
0001
0100
1000
0100
0010
1000
0010
1000
0001
0010
0100
1000
0001
1000
0100
0010
,  // measure 53
0000
0001
0100
1000
0100
0001
0010
0100
0010
1000
0001
1000
0010
0001
1000
0000
,  // measure 54
1100
0000
0100
0010
0001
0000
0001
0010
1100
0000
0100
0010
0001
0000
0001
0010
,  // measure 55
2200
0000
3300
2200
0000
3300
2002
0000
,  // measure 56
3003
0202
0000
0303
0202
0303
2020
3030
,  // measure 57
2002
0000
0000
3003
,  // measure 58
0100
0000
0000
0000
;

//---------------dance-single - ----------------
#NOTEDATA:;
#CHARTNAME:;
#STEPSTYPE:dance-single;
#DESCRIPTION:;
#CHARTSTYLE:;
#DIFFICULTY:Medium;
#METER:11;
#RADARVALUES:0.464,0.842,0.163,0.272,0.000,310.000,18.000,30.000,0.000,0.000,0.000,0.000,0.000,0.464,0.842,0.163,0.272,0.000,310.000,18.000,30.000,0.000,0.000,0.000,0.000,0.000;
#CREDIT:;
#OFFSET:-0.117;
#BPMS:0.000=132.000
;
#STOPS:;
#DELAYS:;
#WARPS:;
#TIMESIGNATURES:0.000=4=4
;
#TICKCOUNTS:0.000=4
;
#COMBOS:0.000=1
;
#SPEEDS:0.000=1.000=0.000=0
;
#SCROLLS:0.000=1.000
;
#FAKES:;
#LABELS:0.000=Song Start
;
#DISPLAYBPM:132.000;
#NOTES:
0000
0000
0000
0000
,
0000
0000
0000
0000
,
0000
0000
0000
0000
,
0000
0000
0000
0000
,
0000
0000
0000
0000
,
0000
0000
0000
0000
,
0001
0100
0010
0100
0001
1000
0001
0000
,
1000
0100
0010
0100
1000
0001
1000
0000
,
0010
1010
0101
1010
,
0100
0100
0100
0100
0100
0010
0100
0010
,
1000
1000
0100
0000
0000
1000
0001
0000
,
0001
0001
0100
0000
0000
0001
2000
0000
,
3100
0000
0010
0100
0000
0100
0010
0000
,
0001
1000
0001
1000
0001
0000
0101
0000
,
1000
1000
0010
0000
0000
1000
0001
0000
,
0001
0001
0100
0000
0000
0100
0010
0000
,
2002
0000
3003
0000
1001
1001
1001
0000
,
1000
0010
0001
0101
,
0010
1000
0010
0000
0100
0001
0100
0000
,
0001
0010
0001
0000
1000
0100
1000
0000
,
0001
0000
0100
0000
0010
0010
0010
1000
,
1000
0000
0100
0000
0010
0010
1001
0000
,
0001
0100
0001
0000
1000
0010
1000
0000
,
0100
1000
0100
0000
0010
0001
0010
0000
,
0001
0000
1001
0000
1000
1000
0000
0000
,
1000
1001
0002
0103
,
0001
0010
0001
0000
0010
1000
0010
0000
,
1000
0100
1000
0000
0100
0001
0100
0000
,
0010
1000
0010
0000
0001
0010
0001
0000
,
0100
0001
0100
0000
1000
0100
1000
0100
,
0010
0001
0010
0000
0001
0100
0001
0000
,
1000
0010
1000
0000
0100
1000
0100
0000
,
0010
0010
0010
0000
0100
0100
0100
0000
,
1000
0001
1000
0001
0100
0010
0100
0010
,
2000
0000
3001
0100
0000
0000
0010
1000
,
0000
0100
0000
0001
0000
0010
0000
0000
,
0002
0000
1003
0100
0000
0000
0010
0001
,
0000
0100
0000
1000
0000
0010
0000
0010
,
0002
0023
0230
2300
3020
0230
0302
2003
,
3020
2030
3002
0203
0320
2030
3200
0320
,
0130
1001
0010
1001
,
1000
0010
1000
0010
0100
0001
0100
0010
,
0100
0000
0000
0000
0020
0000
0000
0030
,
0100
0001
0100
0001
1000
0010
1000
0010
,
1000
0001
1000
0001
0010
0001
0010
0001
,
0100
0010
0100
0010
1000
0010
1000
0010
,
0100
0001
0100
0001
1000
0100
1000
0100
,
1000
0010
0100
0010
0100
0001
1000
0001
,
0010
0001
1000
0001
0010
1000
0010
0001
,
0100
0010
0001
0010
1000
0010
0001
0010
,
0100
0001
1000
0001
0100
1000
0001
0010
,
0100
0100
0001
0001
1000
1000
0100
0100
,
1000
1000
0001
0001
0100
0100
0010
0010
,
1000
0010
0100
0001
0001
0100
0010
1000
,
0001
0010
0100
1000
1000
0100
0010
0001
,
0200
0000
0300
0200
0000
0300
0200
0000
,
0300
2002
0000
3003
1001
0000
1001
0000
,
2002
0000
0000
3003
,
0100
0000
0000
0000
;

//---------------dance-single - ----------------
#NOTEDATA:;
#CHARTNAME:;
#STEPSTYPE:dance-single;
#DESCRIPTION:;
#CHARTSTYLE:;
#DIFFICULTY:Easy;
#METER:7;
#RADARVALUES:0.298,0.369,0.109,0.254,0.000,190.000,12.000,28.000,0.000,0.000,0.000,0.000,0.000,0.298,0.369,0.109,0.254,0.000,190.000,12.000,28.000,0.000,0.000,0.000,0.000,0.000;
#CREDIT:;
#DISPLAYBPM:132.000;
#NOTES:
0000
0000
0000
0000
,
0000
0000
0000
0000
,
0000
0000
0000
0000
,
0000
0000
0000
0000
,
0000
0000
0000
0000
,
0000
0000
0000
0000
,
0001
0100
0001
1000
,
1000
0100
1000
0001
,
0100
0100
0100
0100
,
0020
0000
0000
0030
,
0100
0001
0010
0010
,
0100
1000
0010
0010
,
1000
1001
0001
0100
,
0010
0110
1000
0001
,
0100
0100
0010
1000
,
0100
0100
0010
0001
,
2002
0000
3003
0000
1001
1001
1001
0000
,
0100
0010
0100
0001
,
2000
3100
0002
0103
,
0020
1030
0200
0301
,
0100
0110
0010
0110
,
1000
0100
0010
0001
,
2000
3001
0002
1003
,
0020
0130
0200
0310
,
1000
0010
0100
0000
,
0001
1000
0001
0100
,
0002
0013
0200
1300
,
2000
3010
0200
0301
,
2000
3010
0002
0103
,
2000
3100
0002
0013
,
0002
1003
2000
3001
,
0200
0310
0020
0130
,
2000
3100
0002
0013
,
1000
0001
1000
0001
,
1001
0000
0100
0000
,
0100
0000
0100
0000
,
1001
0000
0010
0000
,
0010
0000
0010
0000
,
0100
0001
0010
1000
,
0100
1000
0010
0001
,
0100
0100
0010
0010
,
1000
1000
0001
0001
,
1001
0000
0200
0000
,
0310
1000
0100
0001
,
0100
1000
0010
0001
,
0001
0010
1000
0100
,
1000
0010
0001
0001
,
0100
0001
0010
1000
,
1000
0010
0001
0100
,
0010
0010
1000
0100
,
0010
0010
0001
0100
,
0010
1000
0010
1000
,
0001
0100
0001
0100
,
0010
1000
0100
0001
,
0010
1000
0001
0100
,
0100
0000
0000
0100
0000
0000
0100
0000
,
0000
0010
0000
0000
0010
0000
0010
0000
,
2002
0000
0000
3003
,
0100
0000
0000
0000
;

//---------------dance-single - ----------------
#NOTEDATA:;
#CHARTNAME:;
#STEPSTYPE:dance-single;
#DESCRIPTION:;
#CHARTSTYLE:;
#DIFFICULTY:Beginner;
#METER:4;
#RADARVALUES:0.184,0.211,0.045,0.254,0.000,109.000,5.000,28.000,0.000,0.000,0.000,0.000,0.000,0.184,0.211,0.045,0.254,0.000,109.000,5.000,28.000,0.000,0.000,0.000,0.000,0.000;
#CREDIT:;
#DISPLAYBPM:132.000;
#NOTES:
0000
0000
0000
0000
,
0000
0000
0000
0000
,
0000
0000
0000
0000
,
0000
0000
0000
0000
,
0000
0000
0000
0000
,
0000
0000
0000
0000
,
0000
1000
0000
1000
,
0000
0001
0000
0001
,
0100
0000
0100
0000
,
0100
0000
0100
0000
,
0010
0010
0010
0000
,
1000
0000
0000
0000
,
0001
0000
0000
0200
,
0310
0000
0000
0000
,
1000
0000
1000
0000
,
0001
0000
0000
0000
,
0100
0000
0000
0000
,
0010
0000
0000
0000
,
2000
3000
0002
0003
,
2000
3000
0002
0003
,
0100
0000
0100
0000
,
0010
0000
0010
0000
,
0002
0003
2000
3000
,
0002
0003
2000
3000
,
0100
0000
0100
0000
,
0010
0000
0010
0000
,
2000
3000
0002
0003
,
2000
3000
0002
0003
,
0200
0300
0020
0030
,
0200
0300
0020
0030
,
2000
3000
0200
0300
,
0020
0030
0002
0003
,
0200
0300
0020
0030
,
2000
3000
0002
0003
,
1001
0000
0000
0000
,
0100
0000
0100
0000
,
1001
0000
0000
0000
,
0010
0000
0010
0000
,
1000
1000
0100
0100
,
1000
1000
0100
0100
,
0010
0010
0001
0001
,
0010
0010
0001
0001
,
0000
0000
0200
0000
,
0310
0000
0100
0000
,
0001
0000
1000
0000
,
0100
0000
0010
0000
,
0001
0000
1000
0000
,
0010
0000
1000
0000
,
0001
0000
0100
0000
,
0001
0000
1000
0000
,
0100
0000
0010
0000
,
0001
0001
0001
0000
,
1000
1000
1000
0000
,
0100
0100
0100
0000
,
0010
0010
0010
0000
,
0110
0000
0000
1001
,
0000
0000
0010
0010
,
2002
0000
3003
0000
,
0100
0000
0000
0000
;

//---------------dance-double - ----------------
#NOTEDATA:;
#CHARTNAME:;
#STEPSTYPE:dance-double;
#DESCRIPTION:;
#CHARTSTYLE:;
#DIFFICULTY:Hard;
#METER:15;
#RADARVALUES:0.729,0.842,0.327,0.418,0.654,480.000,36.000,46.000,0.000,0.000,0.000,0.000,0.000,0.729,0.842,0.327,0.418,0.654,480.000,36.000,46.000,0.000,0.000,0.000,0.000,0.000;
#CREDIT:;
#DISPLAYBPM:132.000;
#NOTES:
00000000
00000000
00000000
00000000
,
00000000
00000000
00000000
00000000
,
00000000
00000000
00000000
00000000
,
00000000
00000000
00000000
00000000
,
00000000
00000000
00000000
00000000
,
00000000
00000000
00000000
00000000
,
00100000
00000000
00010000
00000000
00001000
00000000
00010000
00000000
10000000
01000000
10000000
00000000
00100000
00000000
00000000
00000000
,
00000100
00000000
00001000
00000000
00010000
00000000
00001000
00000000
00000010
00000001
00000010
00000000
00000100
00000000
00000000
00000000
,
00000010
00000000
00000000
00000010
00000001
00000000
00000000
00000001
00001000
00000000
00000000
00001000
00000100
00000000
00000000
00000100
,
00010000
00000000
00001000
00000000
00010000
01000000
10000000
00010000
01000000
00000000
01100000
00000000
01010000
00000000
10010000
00000000
,
10000000
00100000
00010000
00100000
00000000
00000000
00000000
00000000
01000000
00000000
00100000
00000000
00010000
00000000
00001000
00000000
,
00000100
00000001
00001000
00000010
00000000
00000000
00000000
00000000
00000000
00000000
00001000
00000000
00000220
00000000
00000330
00000000
,
00001000
00000000
00000000
00000010
00000100
00000001
00000000
00000100
00000010
00001000
00000001
00001000
,
00000220
00000000
00000330
00000000
00001000
00000000
00000100
00010000
00000000
00010000
00000100
00000000
00010000
00001000
00010000
00000000
,
00001000
00001000
00000000
00010000
00100000
01000000
00000000
00000000
01000000
00000000
00010000
00000000
10000000
00000000
10000000
00000000
,
00100000
10000000
00000000
00010000
10000000
00100000
00000000
00000000
01000000
00000000
00100000
00000000
00010000
00000000
00001000
00000000
,
00010000
00000100
00001000
00000100
00010000
00000010
00001000
00000010
00001010
00000000
00010100
00000000
00101000
00000000
00000000
00000000
,
00010000
00001000
00100000
00001000
00010000
00001000
00100000
00010000
00100000
00000000
01000000
00000000
00100000
00000000
00010000
00000000
,
10000000
00100000
01000000
00000000
01100000
00000000
00000000
00000000
01000000
00010000
00100000
00000000
00110000
00000000
00000000
00000000
,
00100000
00001000
00010000
00000000
00011000
00000000
00000000
00000000
00001000
00000100
00000010
00000000
00000100
00000010
00000001
00000000
,
00000010
00000000
00000000
00000000
00000000
00000000
00000000
00000000
00000000
00001000
00000000
00000000
00000001
00000000
00000000
00000000
00000000
00000000
00001001
00000000
00000000
00000000
00000000
00000000
00000100
00000000
00000000
00000000
00000000
00000000
00000100
00000000
00000000
00000000
00000000
00000000
00000010
00000000
00000000
00001000
00000000
00000000
00000010
00000000
00000000
00000000
00001000
00000000
,
00000001
00000000
00000001
00000000
00000100
00000000
00000100
00001000
00000000
00001000
00010000
00000000
00100000
00000000
10000000
00000000
,
00010000
00100000
01000000
00000000
01100000
00000000
00000000
00000000
01000000
10000000
00010000
00000000
10010000
00000000
00000000
00000000
,
01000000
00010000
00001000
00000000
00011000
00000000
00000000
00000000
00001000
00000010
00000001
00000000
00000110
00000000
00000100
00000000
,
00000100
00001000
00010000
00001000
00010000
00000100
00001000
00000100
00010000
00000000
00001000
00000000
00010000
00100000
10000000
00100000
,
01000000
00010000
00100000
00001000
00010000
00100000
10000000
00010000
20000000
00000000
00000000
00000000
30010000
00000000
00000000
00000000
,
00100000
00000000
00000000
00001000
00000000
00000000
00010000
00000000
00000000
00000000
00000000
00000000
00010000
00000000
00001000
00000000
00000000
00000000
00000000
00000000
00000000
00000000
00000000
00000000
00001000
00000000
00000000
00010000
00000000
00000000
00000100
00000000
00000000
00000000
00000000
00000000
00001000
00000000
00000100
00000000
00000000
00000000
00000000
00000000
00000000
00000000
00000000
00000000
,
00001000
00000000
00000000
00000100
00000000
00000000
00000010
00000000
00000000
00000000
00000000
00000000
00000001
00000000
00000010
00000000
00000000
00000000
00000000
00000000
00000000
00000000
00000000
00000000
00000100
00000000
00000000
00001000
00000000
00000000
00000001
00000000
00000000
00000000
00000000
00000000
00000100
00000000
00000000
00000000
00000000
00000000
00000100
00000000
00000000
00000000
00000000
00000000
,
00000010
00000000
00000000
00001000
00000000
00000000
00000100
00000000
00000000
00000000
00000000
00000000
00010000
00000000
00000100
00000000
00000000
00000000
00000000
00000000
00000000
00000000
00000000
00000000
00010000
00000000
00000000
00001000
00000000
00000000
00100000
00000000
00000000
00000000
00000000
00000000
00010000
00000000
00100000
00000000
00000000
00000000
00000000
00000000
00000000
00000000
00000000
00000000
,
01000000
00000000
00000000
10000000
00000000
00000000
00010000
00000000
00000000
00000000
00000000
00000000
01000000
00000000
00010000
00000000
00000000
00000000
00000000
00000000
00000000
00000000
00000000
00000000
00100000
00000000
00000000
10000000
00000000
00000000
00100000
00000000
00000000
01000000
00000000
00000000
00100000
00000000
00000000
10000000
00000000
00000000
00010000
00000000
00000000
00000000
00000000
00000000
,
00100000
00010000
10000000
00000000
00010000
01000000
00000000
01000000
00010000
00100000
00001000
00000000
00010000
00000100
00000000
00000100
,
00001000
00000001
00001000
00000000
00000010
00000100
00000000
00000100
00000001
00001000
00000100
00000000
00001000
00000000
00001000
00000000
,
00000001
00000100
00000001
00000100
00000001
00000100
00000001
00000000
00001000
00000010
00001000
00000010
00001000
00000010
00001000
00000000
,
00000100
00010000
00000100
00010000
00001000
00100000
00001000
00100000
00010000
10000000
00010000
10000000
01000000
10000000
01000000
00100000
,
00020000
00000000
01030000
00100000
00000000
00000000
00010000
00002000
,
00003000
00000200
00000300
00000020
00000030
00002000
00000100
00000100
,
00003200
00000000
00010300
00001000
00000000
00000000
00010000
00200000
,
00300000
02000000
03000000
00020000
00030000
00200000
00300000
00001000
,
00020000
00032000
00003200
00000302
00000023
00002030
00023000
00230000
,
20300000
30200000
00320000
00032000
00003200
00000302
00002003
00003200
,
00001300
00000100
00001000
00000000
00000100
00010000
00000100
00000000
00100000
00001000
00100000
00000000
00010000
10000000
00010000
00000000
,
00100000
00000000
00010000
00000000
10000000
00000000
00100000
00000000
01000000
00010000
10000000
00000000
00100000
10000000
00000000
00010000
,
10000000
00000000
00000000
00000000
00020000
00000000
00000000
00030000
,
00100000
00100000
00101000
00010000
00000100
00001000
00010100
00000100
,
00001000
00001000
00001001
00000001
00000100
00000010
00001010
00000100
,
00001000
00010000
00011000
00010000
00100000
10000000
01010000
10000000
,
00100000
00100000
01100000
01000000
00010000
00100000
00011000
00001000
,
00010000
00000000
00001000
00100000
00010000
00000000
00100000
00001000
00010000
00000000
00001000
00000100
00000001
00000000
00001000
00000000
,
00001000
00000000
00000001
00000100
00001000
00000000
00001000
00000100
00000001
00000000
00000001
00001000
00000010
00000000
00000110
00000000
,
00000100
00000000
00000001
00001000
00000100
00000000
00001000
00000100
00010000
00000000
00010000
00001000
00100000
00000000
00110000
00000000
,
00100000
00000000
00010000
00100000
10000000
00000000
10000000
00100000
00010000
00000000
10000000
00010000
00100000
00000000
01100000
00000000
,
10000000
00000000
00010000
00100000
10000000
00000000
00100000
00010000
01000000
00010000
00000000
10000000
00100000
00010000
00100000
00010000
,
00001000
00010000
00001000
00000100
00000010
00000100
00000001
00001000
00000001
00001000
00000100
00010000
00001000
00010000
00000100
00001000
,
00000100
00010000
00001000
00010000
01000000
00100000
00010000
00100000
00001000
00010000
00000100
00001000
01000000
00100000
00010000
00100000
,
11000000
00000000
01000000
00100000
00010000
00000000
00100000
00001000
00010100
00000000
00000100
00000010
00000001
00000000
00000001
00001000
,
00002200
00000000
00003300
00022000
00000000
00033000
02020000
00000000
,
03030000
20020000
00000000
30030000
00220000
00330000
00022000
00033000
,
00020020
00000000
00000000
00030030
,
00000100
00000000
00000000
00000000
;

//---------------dance-double - ----------------
#NOTEDATA:;
#CHARTNAME:;
#STEPSTYPE:dance-double;
#DESCRIPTION:;
#CHARTSTYLE:;
#DIFFICULTY:Medium;
#METER:12;
#RADARVALUES:0.441,0.421,0.082,0.227,0.000,306.000,9.000,25.000,0.000,0.000,0.000,0.000,0.000,0.441,0.421,0.082,0.227,0.000,306.000,9.000,25.000,0.000,0.000,0.000,0.000,0.000;
#CREDIT:;
#DISPLAYBPM:132.000;
#NOTES:
00000000
00000000
00000000
00000000
,
00000000
00000000
00000000
00000000
,
00000000
00000000
00000000
00000000
,
00000000
00000000
00000000
00000000
,
00000000
00000000
00000000
00000000
,
00000000
00000000
00000000
00000000
,
10000000
01000000
10000000
00100000
00010000
00001000
00011000
00000000
,
00000100
00000001
00000100
00000010
00010000
00001000
00011000
00000000
,
00010000
00010100
00000100
00000110
,
00000010
00000100
00000010
00000100
00000020
00000000
00000030
00000000
,
00000100
00000000
00001000
00000001
00000000
00000001
00000100
00000000
,
00001000
00000000
00010000
00100000
00000000
00100000
01000000
00000000
,
10100000
00000000
00100000
01000000
00000000
01000000
00100000
00000000
,
10010000
00000000
01000000
01000000
,
00100000
00000000
00010000
00001000
00000000
00001000
00010000
00000000
,
00000100
00000000
00000010
00000001
00000000
00000001
00001000
00000000
,
00000200
00000000
00000000
00000000
00000010
00000010
00000310
00000000
,
00000001
00000010
00000100
00000010
00000002
00000000
00001003
00000000
,
00000010
00001000
00000010
00000000
00001000
00000001
00001000
00000000
,
00000100
00001000
00000100
00000000
00010000
00001000
00010000
00000000
,
00002000
00100000
00010000
01003000
,
01000000
00010000
01000000
00100000
01000000
10000000
01000000
00100000
,
10000000
00010000
10000000
00000000
00010000
00100000
00010000
00000000
,
01000000
00001000
01000000
00000000
00001000
00010000
00001000
00000000
,
00010000
00000100
00010000
00000100
00001000
00000100
00000010
00000000
,
00000001
00000010
00000001
00000010
00000002
00000000
00001003
00000000
,
00000100
00000001
00000100
00000000
00001000
00000100
00001000
00000000
,
00000010
00001000
00000010
00000000
00000001
00000010
00000001
00000010
,
00000100
00001000
00000100
00000000
00010000
00001000
00010000
00000000
,
00001000
00100000
00001000
00000000
00010000
01000000
10000000
01000000
,
00100000
00010000
00100000
00000000
10000000
00100000
10000000
00000000
,
01000000
10000000
01000000
00000000
00010000
01000000
00010000
00000000
,
00100000
00010000
00100000
00010000
00100000
00010000
00001000
00000000
,
00000010
00001000
00000010
00001000
00010000
00001000
00010000
00001000
,
00020000
00100000
01000000
10030000
,
02000000
00001000
00000000
03001000
,
00020000
00000010
00000100
00030001
,
00000200
00010000
00000000
00010300
,
00010000
00001000
00000100
00000001
00000100
00001000
00010000
00001000
,
00010000
00100000
10000000
00100000
00010000
00001000
00010000
00001000
,
00020000
00030200
00000320
00002030
,
00023000
00000100
00001000
00031000
,
00000000
00000000
02000000
00000000
,
03100000
10000000
00100000
10000000
00010000
01000000
00010000
01000000
,
00001000
00010000
00001000
00010000
00000100
00001000
00000100
00001000
,
00000001
00000010
00000001
00000010
00000100
00001000
00000100
00001000
,
01000000
00010000
01000000
00010000
10000000
00100000
10000000
00100000
,
00010000
01000000
00010000
10000000
00010000
01000000
00010000
10000000
,
00100000
01000000
00100000
00010000
00100000
00001000
00100000
00010000
,
00001000
00000100
00001000
00010000
00001000
00100000
00001000
00010000
,
00000100
00001000
00000100
00000010
00000100
00000001
00000100
00000010
,
00000001
00000100
00001000
00000100
00000001
00001000
00000100
00001000
,
00000010
00001000
00000100
00010000
00001000
00010000
00000100
00001000
,
00010000
00100000
01000000
10000000
00100000
01000000
00010000
10000000
,
00100000
00010000
00001000
00010000
00000100
00001000
00000010
00000100
,
00000002
00000000
00000003
00000002
00000000
00000003
00000002
00000000
,
00000003
00002000
00000000
00003000
00000220
00000330
00000220
00000330
,
00002002
00000000
00000000
00003003
,
00000100
00000000
00000000
00000000
;

//---------------dance-double - ----------------
#NOTEDATA:;
#CHARTNAME:;
#STEPSTYPE:dance-double;
#DESCRIPTION:;
#CHARTSTYLE:;
#DIFFICULTY:Easy;
#METER:7;
#RADARVALUES:0.301,0.421,0.082,0.318,0.000,188.000,9.000,35.000,0.000,0.000,0.000,0.000,0.000,0.301,0.421,0.082,0.318,0.000,188.000,9.000,35.000,0.000,0.000,0.000,0.000,0.000;
#CREDIT:;
#DISPLAYBPM:132.000;
#NOTES:
00000000
00000000
00000000
00000000
,
00000000
00000000
00000000
00000000
,
00000000
00000000
00000000
00000000
,
00000000
00000000
00000000
00000000
,
00000000
00000000
00000000
00000000
,
00000000
00000000
00000000
00000000
,
00100000
00010000
10000000
00100000
,
00010000
00001000
00010000
00001000
,
00000100
00000001
00001000
00000100
,
00000010
00000001
00000001
00000001
,
00000100
00000000
00001000
00000001
,
00001000
00000000
00000000
00000200
,
00001300
00001000
00000010
00000010
,
00000100
00001000
00010000
00010000
,
00100000
00000000
01000000
00010000
,
01000000
00000000
00100000
00100000
,
10000000
00000000
00000000
00000000
10010000
10010000
10010000
00000000
,
10000000
00100000
00010000
00001000
,
00000200
00000310
00002000
00003001
,
00000020
00000130
00002000
00003001
,
00000100
00000100
00001000
00001000
,
00010000
00010000
01000000
01000000
,
00200000
01300000
20000000
30010000
,
02000000
03100000
20000000
30010000
,
00100000
00010000
10000000
10000000
,
00010000
01000000
00001000
00001000
,
00020000
00030100
00002000
00003100
,
00020000
00030010
00002000
00003010
,
00012000
01003000
00002000
00103000
,
00020000
01030000
00020000
00130000
,
02000000
13000000
00200000
00310000
,
00002000
00003100
00000002
00000013
,
00000200
00010300
00002000
00103000
,
00020000
01030000
00002000
00103000
,
00010000
00000000
00010000
00000000
,
00010000
00000000
00010000
00000000
,
00001000
00000000
00001000
00000000
,
00001000
00000000
00001000
00000000
,
00020000
00032000
00003200
00000320
,
00002030
00003002
00000023
00002030
,
00013000
00011000
00001000
00011000
,
00010000
00100000
10000000
10010000
,
00000000
00000000
02000000
00000000
,
03100000
10000000
00100000
10000000
,
00010000
01000000
00010000
01000000
,
00001000
00100000
00001000
00100000
,
00000100
00010000
00000100
00010000
,
00000001
00001000
00000001
00001000
,
00000010
00001000
00000010
00001000
,
00000100
00010000
00000100
00010000
,
00001000
00100000
00001000
00100000
,
00010000
10000000
00100000
01000000
,
00100000
10000000
00010000
01000000
,
00100000
00010000
00001000
00000100
,
00000010
00001000
00000001
00001000
,
00000100
00000000
00000000
00000100
00000000
00000000
00000100
00000000
,
00000000
00001000
00000000
00000000
00001001
00000000
00001001
00000000
,
00002000
00000000
00000000
00003000
,
00000100
00000000
00000000
00000000
;
