#TITLE:STOP;
#SUBTITLE:BIGBAND HOUSE;
#ARTIST:3rd coast;
#TITLETRANSLIT:;
#SUBTITLETRANSLIT:;
#ARTISTTRANSLIT:;
#GENRE:;
#CREDIT:;
#BANNER:STOP.png;
#BACKGROUND:STOP-bg.png;
#LYRICSPATH:;
#CDTITLE:;
#MUSIC:STOP.mp3;
#OFFSET:-1.630;
#SAMPLESTART:35.731;
#SAMPLELENGTH:12.000;
#SELECTABLE:YES;
#DISPLAYBPM:90.000:162.000;
#BPMS:0.000=90.000
,8.042=162.000
;
#STOPS:1.000=0.667,
2.000=0.667,
3.000=0.667,
4.000=0.667,
5.000=0.667,
6.000=0.667,
7.000=0.667,
8.000=0.653
;
#BGCHANGES:;
#KEYSOUNDS:;
#ATTACKS:;

//---------------dance-single - ----------------
#NOTES:
     dance-single:
     :
     Medium:
     12:
     0.446,0.492,0.122,0.122,0.022,259.000,11.000,11.000,0.000,0.000,0.000,0.446,0.492,0.122,0.122,0.022,259.000,11.000,11.000,0.000,0.000,0.000:
0000
1000
0001
1000
,
0001
0100
0010
0100
,
0010
0010
0000
0100
0200
0000
0010
0310
,
0000
1000
0001
1000
0200
0000
0010
0310
,
0001
0001
0000
1000
2000
0000
0100
3100
,
0000
1000
0001
1000
0001
0100
0000
0100
,
0001
0100
0010
0100
0000
0100
1000
0100
,
0010
0100
0000
0001
0100
0010
1000
0000
,
0100
0100
0100
0100
0010
0000
0100
1000
,
0100
0000
1000
0001
0010
0000
0001
0000
,
1000
0001
1000
0000
0000
0001
0100
0001
,
0100
0001
0100
0000
0010
1000
0010
1000
,
0010
0100
1010
1001
,
1010
0000
1001
0000
0100
0001
1000
0000
,
0100
1000
0010
0000
0100
0001
0100
0000
,
0001
1000
0001
0000
1000
0100
1000
0100
,
1000
0001
1000
0000
1001
0000
0000
0000
,
0000
0001
0100
0001
0000
1000
0100
1000
,
1001
0000
0000
0000
0000
1000
0100
1000
,
0000
0001
0100
0001
1001
0000
0000
0000
,
0000
1000
0010
1000
0000
0001
0100
0001
,
1000
1000
1000
0001
0001
0001
0100
0100
,
0000
0010
0010
0010
0000
1000
0010
1000
,
0001
1000
0100
1000
0001
0000
0010
0010
,
0000
0100
0100
0100
0000
0001
1000
0100
,
0010
0001
0100
0100
0010
0010
1000
1000
,
0001
0001
0100
0100
0001
0001
1000
1000
,
0010
0010
0100
0100
0001
0001
1000
1000
,
0100
0100
0010
0010
0100
0100
1000
1000
,
0001
0001
0200
0000
0000
0000
0320
0000
,
0000
1030
1010
0100
,
0101
0002
0000
2003
,
0000
0000
0100
3100
,
0100
0000
0010
0001
0010
0000
0001
1000
,
0001
0000
0100
0001
0100
0000
0010
0100
,
0010
0000
1000
0010
1000
0000
0001
1000
,
0001
0000
1000
0100
1000
0100
0010
0001
,
0010
0001
0100
0100
0000
0010
0020
0000
,
1000
1030
0000
0100
0001
0100
0010
0000
,
1000
1000
0001
0001
0000
0010
0020
0000
,
1030
1000
0000
0100
1000
0100
1001
0010
,
0000
0001
0010
0100
0010
0100
0000
1000
,
0100
0010
0100
0010
0000
0001
1000
0001
,
0100
0000
0000
0000
0001
1000
0001
1000
0001
1000
0001
1000
0220
0000
0000
0000
,
0000
0330
0000
0000
;

//---------------dance-single - ----------------
#NOTES:
     dance-single:
     :
     Easy:
     9:
     0.344,0.344,0.111,0.078,0.000,200.000,10.000,7.000,0.000,0.000,0.000,0.344,0.344,0.111,0.078,0.000,200.000,10.000,7.000,0.000,0.000,0.000:
0000
1000
0001
1000
,
0001
0100
0010
0100
,
0010
0000
0000
0100
0100
0000
0001
0001
,
0000
1000
0000
1000
1000
0000
0100
0100
,
0010
0000
0000
0001
0001
0000
0100
0100
,
0000
0100
0000
0100
1001
1000
0000
1000
,
0000
1000
0001
0001
0000
0001
0000
0001
,
1000
0100
0000
0100
0000
0100
0010
0000
,
0001
1000
0001
1000
0100
0000
1000
0000
,
0001
0100
0001
1000
,
0100
0000
0010
0000
0001
1000
0001
0000
,
1000
0001
1000
0000
0100
0000
1000
0000
,
0001
0100
0010
1010
,
1000
1001
0001
0011
,
0010
0110
0100
1000
,
0001
0100
0001
0000
2000
0000
0000
0000
,
0000
3000
1001
0000
,
0000
0001
0100
0001
0000
1000
0000
1000
,
1001
0000
0000
0000
0000
1000
0100
1000
,
0000
0001
0000
0001
1001
0000
0000
0000
,
0000
0010
1000
0010
0000
0100
0000
0100
,
0010
0010
0010
0010
0010
0010
0100
0000
,
0001
0000
0100
0100
0001
0000
1000
0000
,
0010
0000
1000
1000
0010
0000
1000
0000
,
0100
0000
1000
1000
0100
0000
0010
0010
,
0010
0010
0001
0000
0100
0000
0001
0001
,
1000
0000
0100
0000
1000
0000
0100
0100
,
0010
0000
0001
0000
1000
0000
0001
0001
,
0100
0000
0010
0000
1000
0000
0010
0010
,
0100
0100
0002
0000
0000
0000
2003
0000
,
0000
3010
0100
0001
,
0100
0020
0000
2030
,
0000
0000
0001
3001
,
0001
0100
1000
0010
,
0001
0010
1000
0100
,
0001
0010
1000
0001
,
1000
0100
0001
1000
,
0100
0000
0010
0000
0000
0001
0001
0000
,
1000
1000
0000
0100
0000
0100
0010
0000
,
0010
0010
0001
0000
0000
0100
0100
0000
,
0010
0010
0000
1000
1000
0100
1001
0001
,
0000
0001
0000
0100
0010
1000
0000
1000
,
0000
0100
0010
0001
0000
0001
0000
1000
,
0001
0000
1000
0001
1000
0001
0220
0000
,
0000
0330
0000
0000
;

//---------------dance-single - ----------------
#NOTES:
     dance-single:
     :
     Beginner:
     4:
     0.175,0.197,0.056,0.111,0.000,95.000,5.000,10.000,0.000,0.000,0.000,0.175,0.197,0.056,0.111,0.000,95.000,5.000,10.000,0.000,0.000,0.000:
0000
0000
0000
0000
,
0000
0000
0000
0000
,
1000
0000
1000
0000
,
0001
0000
0001
0000
,
0100
0000
0100
0000
,
0010
0000
1001
0000
,
0000
1000
0000
0000
,
0001
0000
0000
0010
,
0200
0000
0000
0300
0010
0000
0000
0000
,
0010
0000
0001
0000
,
0001
0000
1000
0000
,
1000
0000
0100
0000
,
0100
0000
1000
0000
,
0010
0000
0100
0000
,
0001
0000
1000
0000
,
0100
0000
1000
0000
,
0001
0000
1001
0000
,
0000
0100
0100
0100
,
1001
0000
0000
0010
,
0010
0010
1001
0000
,
0000
0100
0100
0100
,
0100
0000
0000
0100
0000
0000
1000
0000
,
0000
0100
0000
1000
,
0000
0100
0000
0010
,
0000
0001
0000
0020
,
0000
0030
0100
0000
0100
0000
1000
0000
,
1000
0001
0001
0000
,
0001
0100
0100
0000
,
0010
1000
1000
0000
,
0100
2000
0000
3002
,
0000
0203
0000
0320
,
0000
2030
0000
3002
,
0000
0003
0100
0100
,
0100
0010
0000
1000
,
0000
0010
0000
0100
,
0000
0010
0000
0001
,
0000
0010
0000
0100
,
0000
0001
0000
0100
,
0100
1000
0000
0100
,
0100
0001
0000
0010
,
0010
1000
0000
1001
,
0000
0000
1000
0000
,
0000
0001
0000
0000
,
1000
0000
0020
0000
0000
0030
0200
0000
,
0000
0300
0000
0000
;

//---------------dance-double - ----------------
#NOTES:
     dance-double:
     :
     Hard:
     15:
     0.652,0.811,0.555,0.167,0.289,346.000,50.000,15.000,0.000,0.000,0.000,0.652,0.811,0.555,0.167,0.289,346.000,50.000,15.000,0.000,0.000,0.000:
00000000
00000000
11000000
01000000
01100000
00000000
00110000
00010000
,
00011000
00000000
00010100
00000100
00001100
00000000
00001001
00000001
,
00000001
00000100
00000000
00000100
00000010
00000000
00001000
00001000
,
00000100
00010000
00000100
00000000
00010000
00001000
00010000
00000000
00001000
00000000
00010000
00000000
01000000
00000000
00100000
00000000
,
00010000
10000000
00000000
10000000
00010000
00000000
01000000
01000000
,
00000000
00000000
00000000
00000000
00000000
00000000
00000000
00000000
00000000
00000000
00000000
00000000
00000000
00000000
00000000
00000000
00000000
00000000
00000000
00000000
00000000
00000000
00000000
00000000
00100000
00000000
00000000
00000000
00000000
00000000
00000000
00000000
00000000
00000000
00000000
00000000
00000000
00000000
00000000
00000000
00000000
00000000
00000000
00000000
00000000
00000000
00000000
00000000
10000000
00000000
00000000
00000000
00000000
00000000
00000000
00000000
00000000
00000000
00000000
00000000
00000000
00000000
00000000
00000000
00000000
00000000
00000000
00000000
00000000
00000000
00000000
00000000
01000000
00000000
00000000
00000000
00000000
00000000
00000000
00000000
00000000
00000000
00000000
00000000
00000000
00000000
00000000
00000000
00000000
00000000
00000000
00000000
00000000
00000000
00000000
00000000
20020000
30030000
00000000
00000000
00000000
00000000
00000000
00000000
00000000
00000000
00000000
00000000
00000000
00000000
00000000
00000000
00000000
00000000
00000000
00000000
00000000
00000000
00000000
00000000
10000000
00000000
00000000
00000000
00000000
00000000
00000000
00000000
00000000
00000000
00000000
00000000
00100000
00000000
00000000
00000000
00000000
00000000
00000000
00000000
00000000
00000000
00000000
00000000
00010000
00000000
00000000
00000000
00000000
00000000
00000000
00000000
00000000
00000000
00000000
00000000
00000000
00000000
00000000
00000000
00000000
00000000
00000000
00000000
00000000
00000000
00000000
00000000
00100000
00000000
00000000
00000000
00000000
00000000
00000000
00000000
00000000
00000000
00000000
00000000
01000000
00000000
00000000
00000000
00000000
00000000
00000000
00000000
00000000
00000000
00000000
00000000
,
00010000
00000000
00100000
00000000
00101000
00000000
00010000
00000100
00001000
00000000
00000100
00001000
00000001
00000000
00001000
00000000
,
00001010
00000000
00000100
00000001
00001000
00000000
00000100
00010000
00001000
00000000
00010000
00000000
00011000
00000000
00000000
00000000
,
00010010
00011000
00010100
00011000
01001000
00011000
00101000
00011000
00010000
00000000
00001000
00000000
00010000
00000000
00001000
00000000
,
00000000
00010000
00010000
00000000
01000000
00100000
00010000
10000000
,
00100000
01000000
00100000
00000000
00000000
10000000
00100000
00010000
,
00001000
00010000
00001000
00000100
00000010
00001000
00000001
00001000
,
00000000
00000100
00000100
00000000
00001010
00000000
00000101
00000000
,
00001001
00000000
00001100
00000000
00001000
00000100
00000010
00000001
,
00000100
00001000
00010000
00000000
00000100
00001000
00010000
00100000
,
00010000
01000000
00100000
10000000
02000000
00000000
00100000
00000000
,
00100000
00000000
00000000
00000000
00000000
00000000
00000000
00000000
00000000
00000000
00000000
00000000
00000000
00000000
00000000
00000000
00000000
00000000
00000000
00000000
00000000
00000000
00000000
00000000
00000000
00000000
00000000
00000000
00000000
00000000
00000000
00000000
00000000
00000000
00000000
00000000
00000000
00000000
00000000
00000000
00000000
00000000
00000000
00000000
00000000
00000000
00000000
00000000
03100000
00000000
00000000
00000000
00000000
00000000
00000000
00000000
00000000
00000000
00000000
00000000
00000000
00000000
00000000
00000000
00000000
00000000
00000000
00000000
00000000
00000000
00000000
00000000
00000000
00000000
00000000
00000000
00000000
00000000
00000000
00000000
00000000
00000000
00000000
00000000
00000000
00000000
00000000
00000000
00000000
00000000
00000000
00000000
00000000
00000000
00000000
00000000
00220000
00330000
00000000
00000000
00000000
00000000
00000000
00000000
00000000
00000000
00000000
00000000
00000000
00000000
00000000
00000000
00000000
00000000
00000000
00000000
00000000
00000000
00000000
00000000
00000000
00000000
00000000
00000000
00000000
00000000
00000000
00000000
00000000
00000000
00000000
00000000
00000000
00000000
00000000
00000000
00000000
00000000
00000000
00000000
00000000
00000000
00000000
00000000
00000000
00000000
00000000
00000000
00000000
00000000
00000000
00000000
00000000
00000000
00000000
00000000
00000000
00000000
00000000
00000000
00000000
00000000
00000000
00000000
00000000
00000000
00000000
00000000
00000000
00000000
00000000
00000000
00000000
00000000
00000000
00000000
00000000
00000000
00000000
00000000
00000000
00000000
00000000
00000000
00000000
00000000
00000000
00000000
00000000
00000000
00000000
00000000
,
00000000
00000000
10000000
00000000
01000000
00000000
00010000
00000000
00100000
00001000
00010000
00000100
00000010
00000000
00000100
00000000
,
00002020
00003030
00000000
00000000
00000000
00000000
00000000
00000000
00000000
00000000
00000000
00000000
00000000
00000000
00000000
00000000
00000000
00000000
00000000
00000000
00000000
00000000
00000000
00000000
00000000
00000000
00000000
00000000
00000000
00000000
00000000
00000000
00000000
00000000
00000000
00000000
00000000
00000000
00000000
00000000
00000000
00000000
00000000
00000000
00000000
00000000
00000000
00000000
00000000
00000000
00000000
00000000
00000000
00000000
00000000
00000000
00000000
00000000
00000000
00000000
00000000
00000000
00000000
00000000
00000000
00000000
00000000
00000000
00000000
00000000
00000000
00000000
00000000
00000000
00000000
00000000
00000000
00000000
00000000
00000000
00000000
00000000
00000000
00000000
00000000
00000000
00000000
00000000
00000000
00000000
00000000
00000000
00000000
00000000
00000000
00000000
00000000
00000000
00000000
00000000
00000000
00000000
00000000
00000000
00000000
00000000
00000000
00000000
00000000
00000000
00000000
00000000
00000000
00000000
00000000
00000000
00000000
00000000
00000000
00000000
00000001
00000000
00000000
00000000
00000000
00000000
00000000
00000000
00000000
00000000
00000000
00000000
00000000
00000000
00000000
00000000
00000000
00000000
00000000
00000000
00000000
00000000
00000000
00000000
00000100
00000000
00000000
00000000
00000000
00000000
00000000
00000000
00000000
00000000
00000000
00000000
00000000
00000000
00000000
00000000
00000000
00000000
00000000
00000000
00000000
00000000
00000000
00000000
00001000
00000000
00000000
00000000
00000000
00000000
00000000
00000000
00000000
00000000
00000000
00000000
00000000
00000000
00000000
00000000
00000000
00000000
00000000
00000000
00000000
00000000
00000000
00000000
,
00000010
00000000
00000000
00000000
00000000
00000000
00000000
00000000
00000000
00000000
00000000
00000000
00010000
00000000
00000000
00000000
00000000
00000000
00000000
00000000
00000000
00000000
00000000
00000000
00001000
00000000
00000000
00000000
00000000
00000000
00000000
00000000
00000000
00000000
00000000
00000000
00100000
00000000
00000000
00000000
00000000
00000000
00000000
00000000
00000000
00000000
00000000
00000000
01000000
00000000
00000000
00000000
00000000
00000000
00000000
00000000
00000000
00000000
00000000
00000000
00000000
00000000
00000000
00000000
00000000
00000000
00000000
00000000
00000000
00000000
00000000
00000000
00100000
00000000
00000000
00000000
00000000
00000000
00000000
00000000
00000000
00000000
00000000
00000000
00000000
00000000
00000000
00000000
00000000
00000000
00000000
00000000
00000000
00000000
00000000
00000000
00202000
00303000
00000000
00000000
00000000
00000000
00000000
00000000
00000000
00000000
00000000
00000000
00000000
00000000
00000000
00000000
00000000
00000000
00000000
00000000
00000000
00000000
00000000
00000000
00000000
00000000
00000000
00000000
00000000
00000000
00000000
00000000
00000000
00000000
00000000
00000000
00000000
00000000
00000000
00000000
00000000
00000000
00000000
00000000
00000000
00000000
00000000
00000000
00000000
00000000
00000000
00000000
00000000
00000000
00000000
00000000
00000000
00000000
00000000
00000000
00000000
00000000
00000000
00000000
00000000
00000000
00000000
00000000
00000000
00000000
00000000
00000000
00000000
00000000
00000000
00000000
00000000
00000000
00000000
00000000
00000000
00000000
00000000
00000000
00000000
00000000
00000000
00000000
00000000
00000000
00000000
00000000
00000000
00000000
00000000
00000000
,
00000000
00000000
00010000
00000000
00000100
00000000
00001000
00000000
00000010
00000001
00001000
00000100
00010000
00000000
01000000
00000000
,
10100000
10100000
00110000
00001010
00001010
00000101
00000001
00000100
,
00001000
00000100
00000010
00001000
00000100
00001000
00010000
00100000
,
00010000
01000000
00100000
10000000
00010000
10000000
00100000
01000000
,
00010000
00000000
01000000
00000000
00100000
00000000
00010000
00000000
00001000
00000000
00000100
00000000
00000010
00001000
00000001
00001000
,
00000100
00001000
00000010
00001000
00000001
00000100
00000001
00000100
00000010
00000000
00000010
00000000
00001000
00000100
00001000
00000100
,
00000010
00000000
00000010
00000000
00000001
00000010
00000001
00000000
00001000
00000100
00001000
00000000
00000100
00000000
00010000
00000000
,
00001000
00100000
00001000
00000000
00010000
00001000
00010000
00000000
00001000
01000000
00001000
00000000
01000000
00000000
00100000
00000000
,
10000000
00100000
10000000
00000000
00010000
10000000
00010000
00000000
01000000
00010000
01000000
00000000
00100000
00000000
01000000
00000000
,
00100000
00010000
00012000
00000000
00100000
00000000
01003000
02000000
,
00000000
00000000
00010000
00000000
03100000
00000000
00100000
00010000
,
00001000
00000100
00000020
00000000
00001000
00000000
00010030
00020000
,
00000000
00000000
00031000
00001000
,
00011000
00000000
00001000
00000100
00000001
00000010
00001000
00010000
,
01000000
10000000
00100000
00010000
00100000
10000000
01000000
00010000
,
00001000
00000100
00000001
00000010
00001000
00010000
00001000
00000100
,
00000001
00000000
00000010
00000000
00000100
00001000
00000100
00001000
00000100
00001000
00000100
00001000
00000100
00010000
00001000
00010000
,
00001000
00010000
00001000
00010000
00001000
00000000
00011000
00000000
00000000
00000000
00010000
00000000
00100000
00000000
10000000
00000000
,
00010000
00000000
10000000
00000000
01000000
10000000
01000000
00000000
00100000
00010000
10000000
00000000
00100000
00000000
00100000
00000000
,
01000000
01000000
00100000
10100000
00000000
01000000
00010000
00100000
,
00001000
00011000
00000000
00001000
00000100
00000010
00001001
00000001
,
00000100
00000000
00000001
00000100
00001000
00000000
00010000
00000000
00011000
00000000
00010000
00000000
01000000
00000000
00100000
00010000
,
10000000
00000000
00100000
00000000
01100000
00000000
00100000
10000000
01000000
00000000
00010000
00001000
00000100
00000000
00000010
00000000
,
00001010
00000000
00000000
00000000
00000101
00000011
00001100
00001010
00110000
10100000
10010000
01010000
02200000
00000000
00000000
00000000
,
00000000
03300000
00000000
00000000
;

//---------------dance-single - ----------------
#NOTES:
     dance-single:
     :
     Hard:
     14:
     0.668,0.713,0.489,0.278,0.294,352.000,44.000,25.000,0.000,0.000,0.000,0.668,0.713,0.489,0.278,0.294,352.000,44.000,25.000,0.000,0.000,0.000: // measure 0
0000
0000
1100
0001
0101
0000
0011
1000
,  // measure 1
1010
0000
1100
0100
0101
0000
0011
0000
,  // measure 2
1000
0100
0000
0100
0010
0000
0001
1001
,  // measure 3
1000
0010
1000
0000
0001
0100
0001
0000
1000
0000
0100
0000
1000
0000
0010
0000
,  // measure 4
0100
0010
0000
0010
0100
0000
0001
1001
,  // measure 5
0000
0000
0000
0000
0000
0000
0000
0000
0000
0000
0000
0000
0000
0000
0000
0000
0000
0000
0000
0000
0000
0000
0000
0000
1000
0000
0000
0000
0000
0000
0000
0000
0000
0000
0000
0000
0000
0000
0000
0000
0000
0000
0000
0000
0000
0000
0000
0000
0100
0000
0000
0000
0000
0000
0000
0000
0000
0000
0000
0000
0000
0000
0000
0000
0000
0000
0000
0000
0000
0000
0000
0000
1000
0000
0000
0000
0000
0000
0000
0000
0000
0000
0000
0000
0000
0000
0000
0000
0000
0000
0000
0000
0000
0000
0000
0000
0002
0003
0000
0000
0000
0000
0000
0000
0000
0000
0000
0000
0000
0000
0000
0000
0000
0000
0000
0000
0000
0000
0000
0000
0010
0000
0000
0000
0000
0000
0000
0000
0000
0000
0000
0000
0000
0000
0000
0000
0000
0000
0000
0000
0000
0000
0000
0000
1000
0000
0000
0000
0000
0000
0000
0000
0000
0000
0000
0000
0000
0000
0000
0000
0000
0000
0000
0000
0000
0000
0000
0000
0010
0000
0000
0000
0000
0000
0000
0000
0000
0000
0000
0000
0000
0000
0000
0000
0000
0000
0000
0000
0000
0000
0000
0000
,  // measure 6
0100
0010
0001
1000
0100
0010
0100
0001
,  // measure 7
0100
0010
0001
0010
0100
0010
1000
0000
,  // measure 8
0010
0001
0100
1000
0100
0001
1000
0010
1000
0000
0000
0000
0001
0000
0100
0000
,  // measure 9
0000
0100
0001
0000
1000
0010
0100
0010
,  // measure 10
1000
0001
1000
0000
0010
0000
0010
0000
0110
0000
0000
0000
0100
0000
0001
0000
,  // measure 11
0000
0001
1000
0000
0001
0010
0100
0010
,  // measure 12
0001
1000
0001
0000
0100
0000
0010
0000
0110
0000
0000
0000
1010
0000
0000
0000
,  // measure 13
0101
0000
1001
0000
1000
0010
0001
0010
,  // measure 14
1000
0100
0001
0000
0100
0010
0001
0100
,  // measure 15
0010
1000
0010
0000
0100
0000
0001
0000
0100
0010
0100
0000
0001
0000
1000
0000
,  // measure 16
0100
0000
0000
0000
0000
0000
0000
0000
0000
0000
0000
0000
1000
0000
0000
0000
0000
0000
0000
0000
0000
0000
0000
0000
0100
0000
0000
0000
0000
0000
0000
0000
0000
0000
0000
0000
0000
0000
0000
0000
0000
0000
0000
0000
0000
0000
0000
0000
0010
0000
0000
0000
0000
0000
0000
0000
0000
0000
0000
0000
0001
0000
0000
0000
0000
0000
0000
0000
0000
0000
0000
0000
0010
0000
0000
0000
0000
0000
0000
0000
0000
0000
0000
0000
0000
0000
0000
0000
0000
0000
0000
0000
0000
0000
0000
0000
2002
3003
0000
0000
0000
0000
0000
0000
0000
0000
0000
0000
0000
0000
0000
0000
0000
0000
0000
0000
0000
0000
0000
0000
0000
0000
0000
0000
0000
0000
0000
0000
0000
0000
0000
0000
0000
0000
0000
0000
0000
0000
0000
0000
0000
0000
0000
0000
0000
0000
0000
0000
0000
0000
0000
0000
0000
0000
0000
0000
0000
0000
0000
0000
0000
0000
0000
0000
0000
0000
0000
0000
0000
0000
0000
0000
0000
0000
0000
0000
0000
0000
0000
0000
0000
0000
0000
0000
0000
0000
0000
0000
0000
0000
0000
0000
,  // measure 17
0000
0000
0001
0000
1000
0000
0001
0000
1000
0001
0100
0000
0010
0000
0100
0000
,  // measure 18
2002
3003
0000
0000
0000
0000
0000
0000
0000
0000
0000
0000
0000
0000
0000
0000
0000
0000
0000
0000
0000
0000
0000
0000
0000
0000
0000
0000
0000
0000
0000
0000
0000
0000
0000
0000
0000
0000
0000
0000
0000
0000
0000
0000
0000
0000
0000
0000
0000
0000
0000
0000
0000
0000
0000
0000
0000
0000
0000
0000
0000
0000
0000
0000
0000
0000
0000
0000
0000
0000
0000
0000
0000
0000
0000
0000
0000
0000
0000
0000
0000
0000
0000
0000
0000
0000
0000
0000
0000
0000
0000
0000
0000
0000
0000
0000
0000
0000
0000
0000
0000
0000
0000
0000
0000
0000
0000
0000
0000
0000
0000
0000
0000
0000
0000
0000
0000
0000
0000
0000
1000
0000
0000
0000
0000
0000
0000
0000
0000
0000
0000
0000
0000
0000
0000
0000
0000
0000
0000
0000
0000
0000
0000
0000
0001
0000
0000
0000
0000
0000
0000
0000
0000
0000
0000
0000
0000
0000
0000
0000
0000
0000
0000
0000
0000
0000
0000
0000
1000
0000
0000
0000
0000
0000
0000
0000
0000
0000
0000
0000
0000
0000
0000
0000
0000
0000
0000
0000
0000
0000
0000
0000
,  // measure 19
0001
0000
0000
0000
0000
0000
0000
0000
0000
0000
0000
0000
1000
0000
0000
0000
0000
0000
0000
0000
0000
0000
0000
0000
0100
0000
0000
0000
0000
0000
0000
0000
0000
0000
0000
0000
0000
0000
0000
0000
0000
0000
0000
0000
0000
0000
0000
0000
0001
0000
0000
0000
0000
0000
0000
0000
0000
0000
0000
0000
0000
0000
0000
0000
0000
0000
0000
0000
0000
0000
0000
0000
1000
0000
0000
0000
0000
0000
0000
0000
0000
0000
0000
0000
0000
0000
0000
0000
0000
0000
0000
0000
0000
0000
0000
0000
0220
0330
0000
0000
0000
0000
0000
0000
0000
0000
0000
0000
0000
0000
0000
0000
0000
0000
0000
0000
0000
0000
0000
0000
0000
0000
0000
0000
0000
0000
0000
0000
0000
0000
0000
0000
0000
0000
0000
0000
0000
0000
0000
0000
0000
0000
0000
0000
0000
0000
0000
0000
0000
0000
0000
0000
0000
0000
0000
0000
0000
0000
0000
0000
0000
0000
0000
0000
0000
0000
0000
0000
0000
0000
0000
0000
0000
0000
0000
0000
0000
0000
0000
0000
0000
0000
0000
0000
0000
0000
0000
0000
0000
0000
0000
0000
,  // measure 20
0000
0000
0010
0000
1000
0000
0010
0000
0100
0001
1000
0000
0001
0000
0100
0000
,  // measure 21
0110
0110
0110
1001
1001
1001
0110
1000
,  // measure 22
0001
1000
0110
0001
1000
0001
1100
0010
,  // measure 23
0001
0000
0100
0000
0101
0000
0010
0000
1000
0000
0100
0000
1000
0100
1000
0000
,  // measure 24
0001
0000
0100
0000
0001
0100
0001
0000
1000
0000
0010
0000
1000
0100
0010
0001
,  // measure 25
0100
0010
1000
0001
1000
0100
1000
0100
0010
0000
0010
0000
0001
0100
0001
0100
,  // measure 26
0010
0000
0010
0000
1000
0010
1000
0000
0010
1000
0010
0000
0100
0000
0100
0000
,  // measure 27
0001
1000
0001
0000
0010
0001
0010
0000
0001
0010
0001
0000
0100
0000
0100
0000
,  // measure 28
0010
1000
0010
0000
1000
0001
1000
0000
0100
1000
0100
0000
0010
0000
0100
0000
,  // measure 29
1001
1000
0200
0000
1000
0000
0010
0020
,  // measure 30
0300
0030
0002
0003
0200
0300
0020
0000
,  // measure 31
2030
0000
3002
0000
0100
0000
1003
2000
,  // measure 32
0000
3000
0100
0010
0100
0010
1000
0001
,  // measure 33
0200
0001
0310
1000
0002
0010
1003
0100
,  // measure 34
2000
0010
3001
0100
0020
1000
0130
0001
,  // measure 35
2000
0000
0010
0000
3100
0000
0001
0000
0020
0000
0031
0000
0100
0001
0100
0001
,  // measure 36
0100
0001
0100
0001
1000
0010
1000
0010
1000
0010
1000
0010
1000
0001
1000
0001
,  // measure 37
1000
0001
1000
0001
1000
0000
1001
0000
0000
0000
0001
0000
0100
0000
0000
0000
,  // measure 38
0010
0000
0110
0000
0010
1000
0010
0000
0100
0001
0100
0000
0001
0000
0001
0000
,  // measure 39
1000
1000
0110
0110
0000
0100
1001
0000
,  // measure 40
0001
0000
0000
0000
0000
0000
0000
0000
0000
0000
0000
0000
0000
0000
0000
0000
0000
0000
0000
0000
0000
0000
0000
0000
0101
0000
0000
0000
0000
0000
0000
0000
0000
0000
0000
0000
0000
0000
0000
0000
0000
0000
0000
0000
0000
0000
0000
0000
0100
0000
0000
0000
0000
0000
0000
0000
0000
0000
0000
0000
0010
0000
0000
0000
0000
0000
0000
0000
0000
0000
0000
0000
0100
0000
0000
0000
0000
0000
0000
0000
0000
0000
0000
0000
0000
0000
0000
0000
0000
0000
0000
0000
0000
0000
0000
0000
0001
0000
0000
0000
0000
0000
0000
0000
0000
0000
0000
0000
1000
0000
0000
0000
0000
0000
0000
0000
0000
0000
0000
0000
0001
0000
0000
0000
0000
0000
0000
0000
0000
0000
0000
0000
0000
0000
0000
0000
0000
0000
0000
0000
0000
0000
0000
0000
0220
0330
0000
0000
0000
0000
0000
0000
0000
0000
0000
0000
0000
0000
0000
0000
0000
0000
0000
0000
0000
0000
0000
0000
1000
0000
0000
0000
0000
0000
0000
0000
0000
0000
0000
0000
0000
0000
0000
0000
0000
0000
0000
0000
0000
0000
0000
0000
,  // measure 41
0100
0010
0100
0001
0100
0001
0010
0100
,  // measure 42
0010
1000
0010
1000
0100
0001
0010
1000
,  // measure 43
0100
0000
0000
0000
0011
1001
1100
1001
1010
1001
0101
1001
0220
0000
0000
0000
,  // measure 44
0000
0330
0000
0000
;

//---------------dance-double - ----------------
#NOTES:
     dance-double:
     :
     Medium:
     12:
     0.424,0.442,0.178,0.122,0.033,240.000,16.000,11.000,0.000,0.000,0.000,0.424,0.442,0.178,0.122,0.033,240.000,16.000,11.000,0.000,0.000,0.000:
00000000
10100000
01000000
00110000
,
00001000
00010100
00001000
00001010
,
00000100
00000100
00000000
00000100
00000020
00000000
00001000
00001030
,
00000000
00000100
00000001
00000100
00000002
00000000
00001000
00001003
,
00000100
00000100
00000000
00001000
00000200
00000000
00010000
00010300
,
00000000
00001000
01000000
00010000
01000000
00100000
00000000
00100000
,
10000000
00100000
01000000
01000000
00000000
00100000
00010000
00100000
,
01000000
01000000
00000000
00100000
00010000
00001000
00000100
00000000
,
00000010
00000100
00000010
00000100
00000010
00000100
00000010
00000100
00000010
00000000
00000000
00000000
00001000
00000000
00000001
00000000
,
00000000
00000001
00001000
00000000
00000100
00001000
00000100
00000000
,
00001000
00000100
00001000
00000000
00000100
00000000
00010000
00000000
,
00001000
00000000
01000000
00000000
00100000
10000000
00010000
10000000
,
00000000
00010000
01000000
00000000
10100000
00000000
10010000
00000000
,
00110000
00000000
10010000
00000000
10000000
00100000
00010000
00000000
,
00100000
00010000
00001000
00000000
00010000
00001000
00000100
00000000
,
00001000
00000100
00000010
00000000
00002000
00000000
00000001
00000000
,
00000001
00003001
00001001
00000000
,
00000000
00000001
00000100
00000000
00000001
00001000
00000001
00000000
,
00001100
00000000
00000000
00000000
00000000
00001000
00000100
00000000
,
00010000
00001000
00010000
00000000
00011000
00000000
00000000
00000000
,
00000000
00010000
01000000
00000000
00100000
00010000
00100000
00000000
,
01100000
01000000
01000000
00011000
00010000
00010000
00001000
00000000
,
00000100
00000000
00000010
00000100
00000010
00000000
00001000
00000000
,
00000001
00001000
00000100
00010000
,
00001000
00000000
00100000
00010000
00100000
00000000
01000000
01000000
,
01000000
01000000
00100000
00100000
00010000
00010000
10000000
10000000
,
00100000
00100000
01000000
01000000
00010000
00010000
00100000
00100000
,
00001000
00001000
00010000
00010000
00000100
00000100
00001000
00001000
,
00000010
00000010
00000100
00000100
00000001
00000001
00001000
00001000
,
00000100
00000010
00000002
00000000
00000100
00000000
00000100
00000103
,
00000000
00000010
00001000
00000100
,
00010000
00000000
00002000
00000000
00100000
00000000
00100000
00200000
,
00003000
00000000
00310000
00010000
,
00010000
10000000
00100000
00010000
,
00001000
00000100
00000001
00000010
,
00001000
00010000
00100000
10000000
,
01000000
00100000
01000000
00010000
,
00001000
00000000
00000100
00000100
00000000
00000010
00002000
00000000
,
00000001
00003001
00000000
00001001
00000000
00001000
00000100
00000000
,
00000010
00000000
00000001
00000001
00000000
00001000
00000200
00000000
,
00010000
00010300
00000000
00010000
00001000
00010000
00011000
00010000
,
00000000
00100000
10000000
01000000
00010000
00001000
00000000
00000100
,
00000001
00000010
00001000
00010000
00000000
00100000
10000000
01000000
,
00010000
00000000
00000000
00000000
00001000
00000000
00000100
00000000
00000001
00000100
00001000
00010000
02200000
00000000
00000000
00000000
,
00000000
03300000
00000000
00000000
;

//---------------dance-double - ----------------
#NOTES:
     dance-double:
     :
     Easy:
     8:
     0.330,0.344,0.144,0.167,0.000,180.000,13.000,15.000,0.000,0.000,0.000,0.330,0.344,0.144,0.167,0.000,180.000,13.000,15.000,0.000,0.000,0.000:
00000000
00010000
00001000
00010000
,
00001000
00010000
00001000
00010000
,
00001000
00010000
00000000
00010000
00001000
00000000
01000000
01000000
,
00000000
00100000
00000000
00100000
10000000
00000000
00010000
00010000
,
00100000
00001000
00000000
00001000
00100000
00000000
00001000
00001000
,
00000000
00010000
00000000
00010000
00000100
00000010
00000000
00000010
,
00000000
00000010
00000001
00001000
00000000
00001000
00000000
00001000
,
00000100
00010000
00000000
00010000
00000000
00010000
00001000
00000000
,
00010000
00001000
00010000
00001000
00010000
00000000
01000000
00000000
,
10000000
00100000
01000000
00100000
,
00010000
00001000
00000100
00000100
,
00000010
00000010
00001000
00001000
,
00000001
00000001
00000010
00000011
,
00000001
00001001
00001000
00001100
,
00000100
00010100
00010000
00010000
,
00001000
00001000
00020000
00000000
,
00000000
00000000
00031000
00000000
,
00000000
00010000
00000000
00010000
00000000
00010000
00000000
00010000
,
00001000
00000000
00000000
00000000
00000000
00001000
00000000
00001000
,
00000000
00001000
00000000
00001000
00010000
00000000
00000000
00000000
,
00000000
00010000
00000000
00010000
00000000
00010000
00000000
00010000
,
00001000
00001000
00001000
00001000
00001000
00001000
00010000
00000000
,
01000000
00100000
01000000
10000000
,
00100000
00010000
00001000
00010000
,
00001000
00000000
00000100
00000000
00000010
00000000
00001000
00000001
,
00001000
00000001
00000100
00000000
00000110
00000000
00000010
00000000
,
00000110
00001000
00001001
00000001
,
00001001
00001000
00001100
00001000
,
00001100
00000100
00010100
00010000
,
00011000
00002000
00000000
02003000
,
00000000
03100000
10000000
00010000
,
00100000
02000000
00000000
03020000
,
00000000
00000000
00031000
00001000
,
00001000
00000200
00000000
00000320
,
00000000
00002030
00000000
00003002
,
00000000
00000203
00000000
00002300
,
00000000
00023000
00000000
00230000
,
00000000
00000000
01300000
01000000
00000000
00100000
10000000
00000000
,
10000000
00100000
00000000
01000000
00000000
01000000
00010000
00000000
,
00010000
00000000
00100000
00100000
00000000
00100000
00001000
00000000
,
00001000
00100000
00000000
00001000
00000000
00001000
00010000
00001000
,
00000000
00001000
00000000
00001000
00000100
00000001
00000000
00000001
,
00000000
00000001
00000010
00001000
00000000
00001000
00000000
00001000
,
00010000
00000000
01000000
00100000
01000000
00100000
20020000
00000000
,
00000000
30030000
00000000
00000000
;
