#VERSION:0.81;
#TITLE:SON OF SUN;
#SUBTITLE:GABBER;
#ARTIST:Hosoe Shinji;
#TITLETRANSLIT:;
#SUBTITLETRANSLIT:;
#ARTISTTRANSLIT:;
#GENRE:;
#ORIGIN:;
#CREDIT:;
#BANNER:SON OF SUN.png;
#BACKGROUND:SON OF SUN-bg.png;
#PREVIEWVID:;
#JACKET:;
#CDIMAGE:;
#DISCIMAGE:;
#LYRICSPATH:;
#CDTITLE:;
#MUSIC:SON OF SUN.mp3;
#OFFSET:-0.116;
#SAMPLESTART:14.590;
#SAMPLELENGTH:12.000;
#SELECTABLE:YES;
#DISPLAYBPM:200.000;
#BPMS:0.000=200.000,
107.500=600.001,
110.500=200.000,
122.500=100.000,
124.000=200.000;
#STOPS:44.000=0.150,
44.500=0.150,
45.000=0.150,
45.500=0.150,
106.000=0.075,
106.250=0.075,
106.500=0.075,
106.750=0.075,
107.000=0.075,
107.250=0.075;
#DELAYS:;
#WARPS:;
#TIMESIGNATURES:0.000=4=4;
#TICKCOUNTS:0.000=4;
#COMBOS:0.000=1;
#SPEEDS:0.000=1.000=0.000=0;
#SCROLLS:0.000=1.000;
#FAKES:;
#LABELS:0.000=Song Start;
#BGCHANGES:;
#KEYSOUNDS:;
#ATTACKS:
;

//---------------dance-single - ----------------
#NOTEDATA:;
#CHARTNAME:;
#STEPSTYPE:dance-single;
#DESCRIPTION:;
#CHARTSTYLE:;
#DIFFICULTY:Challenge;
#METER:15;
#RADARVALUES:0.843,0.941,0.541,0.364,0.187,535.000,58.000,39.000,0.000,0.000,0.000,0.000,0.000,0.843,0.941,0.541,0.364,0.187,535.000,58.000,39.000,0.000,0.000,0.000,0.000,0.000;
#CREDIT:;
#OFFSET:-0.116;
#BPMS:0.000=200.000
,107.500=800.002
,111.500=200.000
,123.500=100.000
,125.000=200.000
;
#STOPS:44.000=0.150
,44.500=0.150
,45.000=0.150
,45.500=0.150
,106.000=0.075
,106.250=0.075
,106.500=0.075
,106.750=0.075
,107.000=0.075
,107.250=0.075
,298.000=0.300
,298.500=0.300
;
#DELAYS:;
#WARPS:;
#TIMESIGNATURES:0.000=4=4
;
#TICKCOUNTS:0.000=4
;
#COMBOS:0.000=1
;
#SPEEDS:0.000=1.000=0.000=0
;
#SCROLLS:0.000=1.000
;
#FAKES:;
#LABELS:0.000=Song Start
;
#DISPLAYBPM:200.000;
#NOTES:
0000
0000
0000
0000
,
0000
0000
0000
0000
,
0000
0000
0000
0000
,
0000
0000
0000
0000
,
0001
0000
0000
0001
1000
0001
1000
0000
,
0100
0000
0100
0000
0100
0010
0100
0000
,
1000
0000
1000
0000
1000
0001
1000
0000
,
0010
0000
0010
0000
0010
0100
0010
0000
,
1000
0000
0000
0001
1000
0001
1000
0000
,
0100
0000
0100
0000
1000
0001
1000
0000
,
0010
0000
0010
0000
0100
0001
0100
0000
,
0002
0023
2030
3002
0103
1000
0100
1000
,
0001
0010
0100
1000
0001
0001
0101
0101
,
0000
0000
1010
0000
1000
0001
1000
0000
0010
0000
1000
0000
0010
0000
1000
0000
,
0001
0100
0010
1000
0100
0100
1100
1100
,
0000
0000
0011
0000
0001
1000
0001
0000
0100
0000
0001
0000
0010
0000
0100
0000
,
1000
0010
0100
0001
0010
0100
0110
0110
,
0000
0000
1100
0000
1000
0100
1000
0000
0010
0000
1000
0000
0010
0000
0100
0000
,
0010
0000
0001
0000
0010
0000
1000
0000
0001
0100
0001
0100
0010
1000
0010
1000
,
0001
1000
0001
1000
0100
0010
0100
0010
0100
0000
1000
0000
1100
0000
0000
0000
,
1000
0001
1001
0000
0010
0001
1000
0100
,
1000
0010
0100
0100
0001
0100
0101
0000
,
0010
1000
1001
0000
1000
0100
1000
0010
,
2000
3100
0002
0103
1000
0001
1001
0000
,
0001
0100
1010
0000
0100
0001
1000
0100
,
1000
0001
0010
0001
0100
0010
1010
0000
,
0001
0000
0100
0000
0101
0000
0000
0000
1000
0100
0001
0100
1000
0001
2002
0000
,
0000
0000
0000
0000
0000
3003
0000
1000
,
0100
1000
0100
1000
0000
1001
0000
0001
,
0100
0001
0100
0001
0000
1001
0000
0010
,
1000
0010
1000
0010
0000
0110
0000
2000
,
0000
3100
0010
0001
1001
0000
0000
0000
0001
0000
0010
0000
0100
0000
1000
0000
,
0010
0000
1010
0000
1000
0010
0100
0001
,
0010
0000
0011
0000
0001
1000
0100
0010
,
0001
0000
1001
0000
0002
0100
0100
0100
,
0013
1000
1001
0000
2000
0000
0100
0100
,
0000
0100
3100
0000
0002
0000
0010
0010
,
0000
0010
0013
0000
0200
0000
1000
1000
,
0000
1000
1300
0000
1100
1000
1001
0001
,
0101
0100
0110
0010
2000
0000
0001
0001
,
0000
0100
3100
0000
0020
0000
0100
0100
,
0000
1000
1030
0000
0002
0000
1000
1000
,
0000
0000
0010
0000
0013
0000
0000
0000
0100
0000
0001
0100
0001
0000
1000
0001
,
1000
0000
0100
1000
0100
0000
0010
0001
0010
0000
0100
0000
0010
0000
0100
0000
,
1000
0100
0010
0001
0100
0010
0100
0010
,
0001
0010
0100
1000
0100
0001
0100
0001
,
1000
0100
1000
0100
0010
0001
0100
1000
,
0010
1000
0100
0001
0010
0100
0010
0100
,
1000
0001
1000
0001
0100
0001
0010
1000
,
0100
1000
0010
0001
0100
0000
0120
0000
,
0000
0000
0000
0000
,
1000
1000
1030
0000
0200
0000
2300
0000
,
3002
0000
0103
0100
0000
0010
1000
0001
,
0010
0000
0100
1100
0101
0000
2001
0000
,
3020
0000
1030
0100
0000
0010
0001
1000
,
0010
0100
0102
2003
,
3020
0000
0130
0100
0000
0001
0010
1000
,
0100
0000
0010
1010
1001
0000
0012
0000
,
2003
0000
0000
0000
3200
0000
0000
0000
0310
0001
0010
0001
0010
0001
0010
0001
,
1000
0100
1000
0100
1000
0100
1000
0100
0010
0000
0001
0000
0010
0000
0001
0000
,
2000
0000
0100
3100
0001
0100
0001
0100
,
0020
0000
1000
1030
0100
0010
0100
0010
,
0002
0000
1000
1003
0010
1000
0001
0010
,
0200
0000
1000
1300
1100
1000
0001
0100
,
1020
0000
0100
0130
0101
1000
0100
0010
,
0021
0000
0100
0130
1100
0010
0001
1000
,
1002
0000
0000
0000
0100
0000
0103
0000
0010
0000
0010
1000
0010
0000
1000
0010
,
1000
0000
0100
0001
0100
0000
0001
0100
0001
0000
1000
0000
0100
0000
1000
0000
,
0001
1000
0100
0000
0110
0000
0110
0000
,
0110
0000
1000
0001
0100
0001
1000
0001
,
0010
0100
1000
0001
2002
0000
0000
0000
,
0000
0000
3003
0000
0001
0100
0001
1000
,
0100
1000
0010
0000
0110
0000
1010
0000
,
1001
0000
0000
0000
1100
0000
0000
0000
1000
0001
1000
0001
1000
0001
1000
0001
,
1000
0001
1000
0001
1000
0001
1000
0001
1001
0000
0110
0000
0020
0000
0000
0000
,
0030
0100
1000
0001
1000
0010
1000
0100
,
1000
0001
0100
0001
1000
0100
0110
0000
,
0000
0010
0001
0100
0001
1000
0001
0010
,
0100
1000
1001
0100
0010
0100
1001
0000
,
0000
1000
0001
0100
0001
1000
0001
0010
,
0001
1000
0100
0010
0001
1000
0110
0000
,
0000
1000
0001
1000
0100
0010
0001
1000
,
0010
0000
0000
1000
0001
1000
0002
0000
,
0000
0000
0000
0000
,
0003
0000
0000
0000
;

//---------------dance-single - ----------------
#NOTEDATA:;
#CHARTNAME:;
#STEPSTYPE:dance-single;
#DESCRIPTION:;
#CHARTSTYLE:;
#DIFFICULTY:Hard;
#METER:13;
#RADARVALUES:0.663,0.706,0.355,0.439,0.023,412.000,38.000,47.000,0.000,0.000,0.000,0.000,0.000,0.663,0.706,0.355,0.439,0.023,412.000,38.000,47.000,0.000,0.000,0.000,0.000,0.000;
#CREDIT:;
#OFFSET:-0.116;
#BPMS:0.000=200.000
,107.500=800.002
,111.500=200.000
,123.500=100.000
,125.000=200.000
;
#STOPS:44.000=0.150
,44.500=0.150
,45.000=0.150
,45.500=0.150
,106.000=0.075
,106.250=0.075
,106.500=0.075
,106.750=0.075
,107.000=0.075
,107.250=0.075
,298.000=0.300
,298.500=0.300
;
#DELAYS:;
#WARPS:;
#TIMESIGNATURES:0.000=4=4
;
#TICKCOUNTS:0.000=4
;
#COMBOS:0.000=1
;
#SPEEDS:0.000=1.000=0.000=0
;
#SCROLLS:0.000=1.000
;
#FAKES:;
#LABELS:0.000=Song Start
;
#DISPLAYBPM:200.000;
#NOTES:
// measure 0
0000
0000
0000
0000
,  // measure 1
0000
0000
0000
0000
,  // measure 2
0000
0000
0000
0000
,  // measure 3
0000
0000
0000
0000
,  // measure 4
0001
0000
0000
0001
1000
0001
1000
0000
,  // measure 5
0000
0000
0000
0000
,  // measure 6
0000
0000
0000
0000
,  // measure 7
0000
0000
0000
0000
,  // measure 8
1000
0000
0000
0001
1000
0001
1000
0000
,  // measure 9
0000
0000
0000
0000
,  // measure 10
0000
0000
0000
0000
,  // measure 11
0002
0023
2030
3002
0103
1000
0100
1000
,  // measure 12
0001
0010
0100
1000
0001
0001
0100
0001
,  // measure 13
0000
1000
1000
0000
0010
1000
0010
1000
,  // measure 14
0001
0100
0010
1000
0100
0100
1000
0100
,  // measure 15
0000
0001
0001
0000
0100
0001
0010
0100
,  // measure 16
1000
0010
0100
0001
0010
0100
0010
0010
,  // measure 17
0000
0100
1000
0000
0010
1000
0010
0100
,  // measure 18
0010
0001
0010
1000
0002
0000
2003
0000
,  // measure 19
3002
0000
0023
0000
0130
1000
1100
0000
,  // measure 20
1000
0001
1001
0000
0010
0001
1000
0100
,  // measure 21
1000
0010
0100
0100
0001
0100
0101
0000
,  // measure 22
0010
1000
1001
0000
1000
0100
1000
0010
,  // measure 23
2000
3100
0002
0103
1000
0001
1001
0000
,  // measure 24
0001
0100
1010
0000
0100
0001
1000
0100
,  // measure 25
1000
0001
0010
0001
0100
0010
1010
0000
,  // measure 26
0001
0100
0101
0000
1000
0001
0100
2002
,  // measure 27
0000
0000
0000
0000
0000
3003
0000
1000
,  // measure 28
0000
1000
0100
1000
0000
0110
0000
0001
,  // measure 29
0000
0001
0100
0001
0000
1001
0000
0010
,  // measure 30
0000
0010
1000
0010
0000
0110
0000
2000
,  // measure 31
0000
3000
0010
1000
0001
0000
0000
0000
1000
0000
0010
0000
0100
0000
0001
0000
,  // measure 32
0010
0000
0011
0000
0001
0010
0100
1000
,  // measure 33
0010
0000
1010
0000
1000
0001
0100
0010
,  // measure 34
1000
0000
1001
0000
0002
0000
0000
0010
,  // measure 35
0013
0100
1000
0000
2000
0000
0000
0100
,  // measure 36
0000
0000
3100
0000
0002
0000
0000
1000
,  // measure 37
0000
0000
1003
0000
0020
0000
0000
0100
,  // measure 38
0000
0130
0010
1010
,  // measure 39
1000
0000
1001
0000
2000
0000
0000
0001
,  // measure 40
0000
0010
3010
0000
0020
0000
0000
1000
,  // measure 41
0000
0100
0130
0000
0200
0000
0000
0001
,  // measure 42
0000
0010
0310
0000
0100
0001
1000
0100
,  // measure 43
1000
0001
0100
0010
0110
0000
1000
0100
,  // measure 44
1000
0001
1000
0010
0000
0100
0100
0010
,  // measure 45
0100
0100
0010
0000
0110
0000
1001
0000
,  // measure 46
0001
0100
0001
1000
0001
0100
0100
0010
,  // measure 47
0100
0100
0010
0000
1010
0000
1000
0001
,  // measure 48
1000
0010
0100
0001
0000
0001
0010
0100
,  // measure 49
0010
0010
0100
0000
0110
0000
0120
0000
,  // measure 50
0000
0000
0000
0000
,  // measure 51
0001
0001
0031
0000
0200
0000
0302
0000
,  // measure 52
2003
0000
3100
0100
0000
0010
0001
0000
,  // measure 53
0012
0103
0101
2001
,  // measure 54
3020
0000
1030
0100
0000
0010
0001
0000
,  // measure 55
2000
3001
2100
3002
,  // measure 56
0023
0000
0130
0100
0000
1000
0010
0000
,  // measure 57
0201
0310
1001
2010
,  // measure 58
3002
0000
0000
0000
0203
0000
0000
0000
0310
0001
0000
0000
0001
1000
0000
0000
,  // measure 59
1000
0100
0000
0000
0100
0010
0000
0000
0010
0000
0001
0000
0010
0000
0001
0000
,  // measure 60
2000
0000
3100
0000
1000
0010
1000
0010
,  // measure 61
0200
0000
0301
0000
0010
0001
0010
0001
,  // measure 62
2000
0000
3100
0000
1000
0010
1000
0010
,  // measure 63
0200
0000
0301
0000
1000
0010
0100
0001
,  // measure 64
2000
0000
3001
0000
0001
0010
0100
1000
,  // measure 65
0002
0000
1003
0000
0010
0100
0001
1000
,  // measure 66
0200
0000
0310
0000
0001
0010
1000
0001
,  // measure 67
0100
1000
0010
0001
0010
1000
0010
1000
,  // measure 68
0001
0100
0010
0000
1001
0000
1000
0000
,  // measure 69
1000
0000
1000
0000
0100
1000
0001
0010
,  // measure 70
0001
0100
0010
0000
0220
0000
0000
0000
,  // measure 71
0000
0000
0330
0000
1000
0010
1000
0010
,  // measure 72
0100
0001
0010
0000
0011
0000
0001
0000
,  // measure 73
0001
0000
0001
0000
1000
0100
0001
1000
,  // measure 74
0010
0001
0100
0010
0100
0001
2002
0000
,  // measure 75
3003
1000
0100
1000
0000
1000
0001
1000
,  // measure 76
0000
1000
0010
1000
0000
1000
1001
0000
,  // measure 77
0000
0001
0100
0001
0000
0001
1000
0001
,  // measure 78
0000
0001
1001
0000
0000
0001
1001
0000
,  // measure 79
0000
0010
1000
0010
0000
0100
0001
0100
,  // measure 80
0000
0001
1000
0001
0000
1000
1001
0000
,  // measure 81
0000
1000
0100
1000
0000
0001
0100
0001
,  // measure 82
1000
0000
0000
0100
0010
0001
2000
0000
,  // measure 83
0000
0000
0000
0000
,  // measure 84
3000
0000
0000
0000
;

//---------------dance-single - ----------------
#NOTEDATA:;
#CHARTNAME:;
#STEPSTYPE:dance-single;
#DESCRIPTION:;
#CHARTSTYLE:;
#DIFFICULTY:Medium;
#METER:10;
#RADARVALUES:0.495,0.549,0.205,0.187,0.000,329.000,22.000,20.000,0.000,0.000,0.000,0.000,0.000,0.495,0.549,0.205,0.187,0.000,329.000,22.000,20.000,0.000,0.000,0.000,0.000,0.000;
#CREDIT:;
#OFFSET:-0.116;
#BPMS:0.000=200.000
,107.500=800.002
,111.500=200.000
,123.500=100.000
,125.000=200.000
;
#STOPS:44.000=0.150
,44.500=0.150
,45.000=0.150
,45.500=0.150
,106.000=0.075
,106.250=0.075
,106.500=0.075
,106.750=0.075
,107.000=0.075
,107.250=0.075
,298.000=0.300
,298.500=0.300
;
#DELAYS:;
#WARPS:;
#TIMESIGNATURES:0.000=4=4
;
#TICKCOUNTS:0.000=4
;
#COMBOS:0.000=1
;
#SPEEDS:0.000=1.000=0.000=0
;
#SCROLLS:0.000=1.000
;
#FAKES:;
#LABELS:0.000=Song Start
;
#DISPLAYBPM:200.000;
#NOTES:
0000
0000
0000
0000
,
0000
0000
0000
0000
,
0000
0000
0000
0000
,
0000
0000
0000
0000
,
0100
0000
0000
0000
0010
0001
0010
0000
,
0000
0000
0000
0000
,
0000
0000
0000
0000
,
0000
0000
0000
0000
,
0010
0000
0000
0000
1000
0100
1000
0000
,
0000
0000
0000
0000
,
0000
0000
0000
0000
,
0001
1000
0010
0100
0001
0000
0101
0000
,
0001
1000
0001
0000
1000
0000
0100
0100
,
0000
0010
0010
0000
1000
0000
1100
0000
,
1000
0001
1000
0000
0001
0000
0100
0100
,
0000
0010
0010
0000
1000
0000
1010
0000
,
0010
0100
0010
0000
1000
0000
0001
0001
,
0000
0001
0001
0000
0001
0000
0011
0000
,
0010
0100
0010
0000
0002
0000
2003
0000
,
3002
0000
2003
0000
3001
0100
0001
0000
,
1000
0010
1000
0000
0001
0000
1000
1000
,
0000
0001
0001
0000
1000
0100
1000
0000
,
0001
0010
0001
0000
1000
0000
0001
0001
,
0100
0000
0100
0000
0010
1000
0001
0000
,
0100
0010
1000
0000
0001
0000
0100
0100
,
0000
0010
0010
0000
1000
0001
0010
0000
,
0001
1000
0100
0000
1000
0001
0100
0020
,
0000
0000
0000
0000
0000
0030
0000
1000
,
0000
1000
0100
1000
0000
0110
0000
0001
,
0000
0001
0100
0001
0000
1001
0000
0010
,
0000
0010
1000
0010
0000
0110
0000
2000
,
0000
0000
3001
0000
0001
0100
0001
0100
,
0001
0000
0001
0000
1000
0010
1000
0010
,
1000
0000
1000
0000
0001
1000
0001
1000
,
0001
0000
1000
0000
0002
0000
0000
0010
,
0013
0100
1000
0000
1000
0000
0000
0001
,
0000
0000
0100
0000
0001
0000
0000
1000
,
0000
0000
0100
0000
0010
0000
0000
0001
,
0000
0100
0010
0010
,
0010
0000
1001
0000
2000
0000
0000
0001
,
0000
0000
3010
0000
0020
0000
0000
1000
,
0000
0000
0130
0000
0200
0000
0000
0001
,
0000
0310
1000
1000
,
1000
0000
1001
0000
0001
0000
0001
0100
,
0010
0000
1000
0100
0000
0100
0000
0100
,
1000
0001
1000
0000
1000
0000
1100
0000
,
0010
0000
0001
0100
0000
0100
0000
0100
,
0001
1000
0001
0000
0001
0000
1000
0001
,
0100
0010
1000
0001
0000
0001
0000
0001
,
1000
0001
1000
0000
0010
0000
0120
0000
,
0000
0000
0000
0000
,
0100
0100
0130
0000
0100
0000
0000
0000
,
0101
0000
1000
1000
,
1100
0001
1001
1001
,
0010
0000
0010
0000
,
0100
0100
0110
0010
,
1000
0000
0100
0000
,
0100
0010
0110
0100
,
1000
0000
1001
0000
1000
0001
1000
0001
,
1000
0001
1000
0001
0100
0100
0100
0000
,
0020
0000
0030
0000
1000
1000
1000
0000
,
0002
0000
0003
0000
0010
0010
0010
0000
,
0200
0000
0300
0000
0001
0001
0001
0000
,
2000
0000
3000
0000
0100
0001
0100
0000
,
0020
0000
0030
0000
0001
0010
0001
0000
,
2000
0000
3000
0000
0010
1000
0010
0000
,
0200
0000
0300
0000
1000
0001
1000
0001
,
1000
0001
1000
0001
0100
0000
0100
0000
,
0100
0001
0001
0000
1000
0000
1001
0000
,
1001
0000
0100
0000
0010
0000
0010
1000
,
0010
1000
0002
0000
,
0000
0000
0003
0000
0100
0000
1000
0001
,
1000
0010
1000
1001
,
1001
0000
0100
0000
0010
0000
0010
1000
,
0010
0000
0100
0000
0010
0010
0010
0000
,
0000
1000
0000
1000
0000
0001
0000
1000
,
0000
0001
0000
0100
0000
0010
0010
0000
,
0000
0001
0000
0001
0000
1000
0000
0001
,
0000
0100
0010
0000
0000
0100
0010
0000
,
0000
1000
0000
0001
0000
0001
0000
1000
,
0000
0100
0000
0010
0000
0010
0100
0000
,
0000
1000
0000
0001
0000
0100
0000
0001
,
0100
0000
0000
0001
1000
0001
2000
0000
,
0000
0000
0000
0000
,
3000
0000
0000
0000
;

//---------------dance-single - ----------------
#NOTEDATA:;
#CHARTNAME:;
#STEPSTYPE:dance-single;
#DESCRIPTION:;
#CHARTSTYLE:;
#DIFFICULTY:Easy;
#METER:7;
#RADARVALUES:0.417,0.470,0.299,0.168,0.000,263.000,32.000,18.000,0.000,0.000,0.000,0.000,0.000,0.417,0.470,0.299,0.168,0.000,263.000,32.000,18.000,0.000,0.000,0.000,0.000,0.000;
#CREDIT:;
#OFFSET:-0.116;
#BPMS:0.000=200.000
,107.500=800.002
,111.500=200.000
,123.500=100.000
,125.000=200.000
;
#STOPS:44.000=0.150
,44.500=0.150
,45.000=0.150
,45.500=0.150
,106.000=0.075
,106.250=0.075
,106.500=0.075
,106.750=0.075
,107.000=0.075
,107.250=0.075
,298.000=0.300
,298.500=0.300
;
#DELAYS:;
#WARPS:;
#TIMESIGNATURES:0.000=4=4
;
#TICKCOUNTS:0.000=4
;
#COMBOS:0.000=1
;
#SPEEDS:0.000=1.000=0.000=0
;
#SCROLLS:0.000=1.000
;
#FAKES:;
#LABELS:0.000=Song Start
;
#DISPLAYBPM:200.000;
#NOTES:
0000
0000
0000
0000
,
0000
0000
0000
0000
,
0000
0000
0000
0000
,
0000
0000
0000
0000
,
0100
0000
0010
0010
,
0000
0000
0000
0000
,
0000
0000
0000
0000
,
0000
0000
0000
0000
,
0010
0000
0100
0100
,
0000
0000
0000
0000
,
0000
0000
0000
0000
,
1000
0001
0100
0100
,
0010
0010
1000
1001
,
0001
1001
0001
0001
,
1000
1000
0010
0110
,
0100
0110
1000
1000
,
0010
0010
0100
0101
,
0001
1001
0010
0010
,
0100
0100
2000
3002
,
2003
3002
0103
0100
,
0010
0010
1000
0001
,
1001
0000
0001
0001
,
1000
1000
0100
0010
,
0110
0110
1000
1000
,
0010
0010
0100
0001
,
1001
0000
0001
0001
,
0010
0000
0010
0000
0200
0000
0000
0320
,
0000
0000
0000
0000
0000
0000
0030
0100
,
0000
0100
0000
0100
0000
0110
0000
0001
,
0000
0001
0000
0001
0000
1001
0000
0100
,
0000
0100
0000
0100
0000
0101
0000
1001
,
0000
0100
0100
0010
,
1010
1000
1000
0001
,
0011
0100
1000
0001
,
1010
1000
0002
0000
,
1000
0000
0103
0000
,
0000
0100
0010
0000
,
0000
0010
1000
0000
,
0000
1000
1001
1001
,
1001
1001
0001
0000
,
0000
0001
0010
0000
,
0000
0010
0100
0000
,
0000
0100
0110
0110
,
0110
0110
1000
0100
,
1000
0010
0100
0001
,
1000
0100
0010
0001
,
0100
0001
1000
0001
,
0010
0001
0100
0010
,
0100
0001
1000
0100
,
1000
0010
0100
0200
,
0000
0000
0000
0000
,
0010
0310
1000
1000
,
1000
0000
0001
0000
,
1001
0000
0101
0101
,
0001
0000
0010
0000
,
0110
0000
1000
1000
,
1000
0010
0100
0000
,
0100
0000
0101
0101
,
0001
0001
1000
0100
,
1000
0100
2000
3100
,
0010
0010
0002
0103
,
0010
0010
2000
3010
,
0100
0100
0002
0013
,
0100
0100
2000
3001
,
0100
0100
0002
1003
,
0100
0100
2000
3001
,
0010
0010
0002
1003
,
0010
0000
0010
0000
0100
0000
0001
0100
,
0001
0100
0010
0010
,
0010
0000
0010
0000
1000
0000
0100
1000
,
0100
1000
0002
0000
,
0000
0000
0003
0000
0100
0000
0010
0100
,
0010
1000
0001
0001
,
0001
0000
0001
0000
0100
0000
0010
0100
,
0010
0000
0100
0000
0100
0100
0100
0000
,
0010
1000
0010
1000
,
0001
0100
0001
0100
,
0010
1000
0100
0001
,
0010
0001
0100
1000
,
0010
0100
0010
0100
,
0001
1000
0001
1000
,
0100
0001
0010
0001
,
0100
0000
1001
0200
,
0000
0000
0000
0000
,
0300
0000
0000
0000
;

//---------------dance-single - ----------------
#NOTEDATA:;
#CHARTNAME:;
#STEPSTYPE:dance-single;
#DESCRIPTION:;
#CHARTSTYLE:;
#DIFFICULTY:Beginner;
#METER:5;
#RADARVALUES:0.249,0.353,0.131,0.075,0.000,165.000,14.000,8.000,0.000,0.000,0.000,0.000,0.000,0.249,0.353,0.131,0.075,0.000,165.000,14.000,8.000,0.000,0.000,0.000,0.000,0.000;
#CREDIT:;
#OFFSET:-0.116;
#BPMS:0.000=200.000
,107.500=800.002
,111.500=200.000
,123.500=100.000
,125.000=200.000
;
#STOPS:44.000=0.150
,44.500=0.150
,45.000=0.150
,45.500=0.150
,106.000=0.075
,106.250=0.075
,106.500=0.075
,106.750=0.075
,107.000=0.075
,107.250=0.075
,298.000=0.300
,298.500=0.300
;
#DELAYS:;
#WARPS:;
#TIMESIGNATURES:0.000=4=4
;
#TICKCOUNTS:0.000=4
;
#COMBOS:0.000=1
;
#SPEEDS:0.000=1.000=0.000=0
;
#SCROLLS:0.000=1.000
;
#FAKES:;
#LABELS:0.000=Song Start
;
#DISPLAYBPM:200.000;
#NOTES:
0000
0000
0000
0000
,
0000
0000
0000
0000
,
0000
0000
0000
0000
,
0000
0000
0000
0000
,
1000
0000
1000
0000
,
0000
0000
0000
0000
,
0000
0000
0000
0000
,
0000
0000
0000
0000
,
0001
0000
0001
0000
,
0000
0000
0000
0000
,
0000
0000
0000
0000
,
0020
0000
0000
0030
0100
0000
0000
0000
,
0100
0000
0100
0000
,
0100
0000
0001
0000
,
0001
0000
0001
0000
,
0001
0000
1000
0000
,
1000
0000
1000
0000
,
1000
0000
0010
0000
,
0010
0000
0020
0030
,
0020
0030
0100
0100
,
0100
0100
1001
0000
,
0000
0000
0010
0010
,
0010
0010
1001
0000
,
0000
0000
1000
0001
,
1000
0001
1001
0000
,
0000
0000
0001
1000
,
0001
0000
1000
0000
0100
0000
0000
1001
,
0000
0000
0000
0000
0000
0000
0000
0100
,
0000
0000
0000
0010
0000
0000
0000
0100
,
0000
0000
0000
0010
0000
0000
0000
1000
,
0000
0000
0000
0001
0000
0000
0000
2000
,
0000
3000
0001
0000
,
0100
0000
0001
0000
,
1000
0000
0100
0000
,
0010
0000
0002
0000
,
1003
0000
0100
0000
,
0000
0000
0100
0000
,
0000
0000
0100
0000
,
0000
0000
1001
1001
,
1001
1001
0010
0000
,
0000
0000
0010
0000
,
0000
0000
0010
0000
,
0000
0000
0110
0110
,
0110
0110
1000
0000
,
1000
0000
0001
0000
,
0001
0000
0100
0000
,
0100
0000
0010
0000
,
0010
0000
1000
0000
,
0100
0000
0010
0000
,
0001
0000
1001
0000
,
0000
0000
0000
0000
,
1000
1000
0100
0000
,
0000
0000
1000
0000
,
0000
0000
0010
0000
,
0000
0000
0001
0000
,
0000
0000
0010
0000
,
0000
0000
0100
0000
,
0000
0000
0001
0000
,
0000
0000
0010
0010
,
0010
0010
1000
1000
,
1000
0000
0100
0100
,
0100
0000
0001
0001
,
0001
0000
0010
0010
,
0010
0000
0100
0100
,
0100
0000
1000
1000
,
1000
0000
0001
0001
,
0001
0000
0010
0010
,
0010
0010
0100
1000
,
0100
1000
0001
1000
,
0001
1000
0001
0010
,
0001
0010
0200
0000
,
0000
0300
1000
0010
,
1000
0010
0100
0001
,
0100
0001
1000
0001
,
1000
0001
0200
0300
,
0010
0000
0010
0000
,
0010
0000
0010
0000
,
0100
0000
0100
0000
,
0100
0000
0100
0000
,
1000
0000
1000
0000
,
1000
0000
1000
0000
,
0001
0000
0001
0000
,
1001
0000
0100
0200
,
0000
0000
0000
0000
,
0300
0000
0000
0000
;

//---------------dance-double - ----------------
#NOTEDATA:;
#CHARTNAME:;
#STEPSTYPE:dance-double;
#DESCRIPTION:;
#CHARTSTYLE:;
#DIFFICULTY:Easy;
#METER:8;
#RADARVALUES:0.397,0.470,0.308,0.149,0.000,249.000,33.000,16.000,0.000,0.000,0.000,0.000,0.000,0.397,0.470,0.308,0.149,0.000,249.000,33.000,16.000,0.000,0.000,0.000,0.000,0.000;
#CREDIT:;
#OFFSET:-0.116;
#BPMS:0.000=200.000
,107.500=800.002
,111.500=200.000
,123.500=100.000
,125.000=200.000
;
#STOPS:44.000=0.150
,44.500=0.150
,45.000=0.150
,45.500=0.150
,106.000=0.075
,106.250=0.075
,106.500=0.075
,106.750=0.075
,107.000=0.075
,107.250=0.075
,298.000=0.300
,298.500=0.300
;
#DELAYS:;
#WARPS:;
#TIMESIGNATURES:0.000=4=4
;
#TICKCOUNTS:0.000=4
;
#COMBOS:0.000=1
;
#SPEEDS:0.000=1.000=0.000=0
;
#SCROLLS:0.000=1.000
;
#FAKES:;
#LABELS:0.000=Song Start
;
#DISPLAYBPM:200.000;
#NOTES:
00000000
00000000
00000000
00000000
,
00000000
00000000
00000000
00000000
,
00000000
00000000
00000000
00000000
,
00000000
00000000
00000000
00000000
,
00010000
00000000
01000000
01000000
,
00000000
00000000
00000000
00000000
,
00000000
00000000
00000000
00000000
,
00000000
00000000
00000000
00000000
,
00001000
00000000
00000100
00000100
,
00000000
00000000
00000000
00000000
,
00000000
00000000
00000000
00000000
,
00020000
00032000
00013000
00010000
,
01000000
01000000
10000000
10000000
,
00010000
10010000
00100000
00100000
,
00010000
00010000
00001000
00000100
,
00001000
00011000
00001000
00001000
,
00000100
00000100
00000001
00001000
,
00000010
00001010
00001000
00001000
,
00000001
00000001
00000200
00000320
,
00000230
00000320
00001030
00001000
,
00000001
00000001
00000100
00000010
,
00000100
00001000
00010000
00010000
,
01000000
01000000
00100000
00010000
,
10000000
10000000
00100000
00100000
,
01000000
01000000
00100000
00010000
,
00001000
00000100
00000010
00000010
,
00001000
00000000
00001000
00000000
00011000
00000000
00000000
00011000
,
00000000
00000000
00000000
00000000
00000000
00000000
00000000
00010000
,
00000000
00010000
00000000
01000000
00000000
01000000
00000000
10000000
,
00000000
00010000
00000000
00100000
00000000
00010000
00000000
00001000
,
00000000
00001000
00000000
00000010
00000000
00000010
00000000
00000200
,
00000000
00010300
00001000
00010000
,
01000000
01000000
00100000
10000000
,
00010000
00010000
10000000
01000000
,
00010000
00010000
00001000
00000100
,
00000110
00000000
00001001
00000000
,
00000000
00000000
00001100
00000000
,
00000000
00000000
00011000
00000000
,
00000000
00000000
00010000
00010000
,
00010000
00010000
01010000
00000000
,
00000000
00000000
11000000
00000000
,
00000000
00000000
00110000
00000000
,
00000000
00000000
00001000
00001000
,
00001000
00001000
00010000
01000000
,
01000000
10000000
00100000
00100000
,
01100000
00000000
10000000
00100000
,
00010000
00010000
00001000
00000100
,
00000100
00000110
00000001
00000010
,
00001000
00010000
00001000
00000100
,
00001000
00010000
00100000
01100000
,
00000000
00000000
00000000
00000000
,
10000000
10000000
02000000
00000000
,
00100000
00000000
03010000
00000000
,
00010000
00010000
00002000
00000000
,
00010000
00000000
00003100
00000000
,
00000010
00000010
00002000
00000000
,
00000001
00000000
00003100
00000000
,
00000010
00000010
00002000
00000000
,
00010000
00000000
01003000
01000000
,
00100000
00100000
10000000
10010000
,
10000000
10010000
01000000
11000000
,
01000000
11000000
00100000
00110000
,
00100000
00110000
00100000
00001000
,
00010000
00000010
00001000
00001001
,
00001000
00001001
00000001
00001001
,
00000001
00001001
00000100
00000010
,
00000100
00000010
00000100
00001000
,
00010000
00001000
00020000
00000000
,
01000000
01030000
00100000
01100000
,
01100000
00000000
20000000
00100000
,
00100000
30010000
02000000
00000000
,
00000000
03000000
00200000
00010000
,
00310000
00001000
00000100
00000110
,
00000110
00000000
00000001
00000100
,
00001000
00000000
00010000
00000000
00011000
00011000
00011000
00000000
,
00001000
00001000
00001000
00001000
,
00010000
00010000
00010000
00010000
,
01000000
10000000
00100000
00010000
,
00001000
00000010
00000001
00000100
,
00001000
00001000
00001000
00001000
,
00010000
00010000
00010000
00010000
,
00001000
00000100
00000001
00000010
,
00001000
00000000
00010000
02010000
,
00000000
00000000
00000000
00000000
,
03000000
00000000
00000000
00000000
;

//---------------dance-double - ----------------
#NOTEDATA:;
#CHARTNAME:;
#STEPSTYPE:dance-double;
#DESCRIPTION:;
#CHARTSTYLE:;
#DIFFICULTY:Challenge;
#METER:15;
#RADARVALUES:0.791,0.941,0.299,0.177,0.149,542.000,32.000,19.000,0.000,0.000,0.000,0.000,0.000,0.791,0.941,0.299,0.177,0.149,542.000,32.000,19.000,0.000,0.000,0.000,0.000,0.000;
#CREDIT:;
#OFFSET:-0.116;
#BPMS:0.000=200.000
,107.500=800.002
,111.500=200.000
,123.500=100.000
,125.000=200.000
;
#STOPS:44.000=0.150
,44.500=0.150
,45.000=0.150
,45.500=0.150
,106.000=0.075
,106.250=0.075
,106.500=0.075
,106.750=0.075
,107.000=0.075
,107.250=0.075
,298.000=0.300
,298.500=0.300
;
#DELAYS:;
#WARPS:;
#TIMESIGNATURES:0.000=4=4
;
#TICKCOUNTS:0.000=4
;
#COMBOS:0.000=1
;
#SPEEDS:0.000=1.000=0.000=0
;
#SCROLLS:0.000=1.000
;
#FAKES:;
#LABELS:0.000=Song Start
;
#DISPLAYBPM:200.000;
#NOTES:
00000000
00000000
00000000
00000000
,
00000000
00000000
00000000
00000000
,
00000000
00000000
00000000
00000000
,
00000000
00000000
00000000
00000000
,
01000000
00000000
00000000
00010000
00100000
00010000
00100000
00000000
,
10000000
10000000
01000000
01000000
,
00010000
00010000
00001000
00001000
,
00000100
00000100
00000001
00000001
,
00000010
00000000
00000000
00000100
00001000
00000100
00001000
00000000
,
00000001
00000001
00000100
00000100
,
00001000
00001000
00010000
00010000
,
02000000
23000000
30020000
00230000
01300000
10000000
01000000
10000000
,
00010000
00100000
10000000
00100000
00010000
01000000
00001000
00010000
,
00000010
00001000
00000001
00000100
00000010
00001000
00000010
00001000
,
00000001
00000100
00001000
00000100
00000010
00010000
00001000
01000000
,
00100000
10000000
00010000
01000000
00100000
10000000
00100000
10000000
,
00010000
01000000
10000000
01000000
00100000
00001000
00010000
00000100
,
00000010
00001000
00000001
00000010
00000100
00001000
00000100
00001000
,
00000001
00000000
00000010
00000000
00001000
00000000
00010000
00000000
01000000
00010000
01000000
00000000
00010000
00001000
00010000
00000000
,
00000010
00001000
00000010
00000000
00000100
00000010
00000100
00000000
00000010
00000000
00001000
00000000
00000010
00000000
00000100
00000001
,
00000100
00000000
00000001
00000000
00000001
00000000
00000100
00000010
00000100
00000000
00000001
00000000
00000100
00000000
00000010
00000000
,
00010000
00000000
00001000
00000000
01000000
00000000
00100000
00000000
10000000
00000000
01000000
00000000
10000000
00000000
00010000
00100000
,
00010000
00000000
10000000
00000000
10000000
00000000
00100000
01000000
00100000
00000000
10000000
00000000
00100000
00000000
01000000
00000000
,
00001000
00000000
00010000
00000000
00000010
00000000
00000100
00000000
00000001
00000000
00001000
00000000
00000001
00000000
00001000
00000100
,
00001000
00000000
00000010
00000000
00000010
00000000
00000100
00000001
00000100
00000000
00000010
00000000
00010000
00000000
00001000
00000000
,
01000000
00000000
00001000
00000000
00100000
00000000
00000100
00000000
00010000
00000000
01000000
00000000
00100000
00000000
00010000
10000000
,
00010000
00000000
10000000
00000000
00010000
00000000
01000000
00000000
00200000
00320000
00032000
00003200
00002300
00023000
00230000
00000000
,
00000000
00000000
00000000
00000000
00000000
00300000
00000000
01000000
,
00010000
01000000
00100000
10000000
01000000
11000000
00000000
10000000
,
01000000
00010000
00001000
00000010
00000001
00001001
00000000
00000010
,
00001000
00000010
00000100
00000001
00000010
00000011
00000000
00000100
,
00000000
00010000
00001000
00100000
01000000
00000000
00000000
00000000
01000000
00000000
10000000
00000000
00100000
00000000
00010000
00000000
,
00001000
00000100
00000110
00000000
00000100
00000001
00000010
00001000
,
00010000
01000000
01100000
00000000
01000000
10000000
00100000
00010000
,
00001000
00000100
00000110
00000000
00002000
00000001
00000001
00003001
,
00000100
00010000
01000000
00000000
10100000
00000000
10000000
01000000
,
00000000
01000000
00100000
00000000
00110000
00000000
00001000
00010000
,
00000000
00010000
00001000
00000000
00001010
00000000
00000100
00000001
,
00000000
00000001
00000100
00000000
00000101
00000100
00001000
00001000
,
00011000
00010000
01000000
01000000
01100000
00000000
10000000
01000000
,
00000000
00100000
00010000
00000000
00011000
00000000
00001000
00000100
,
00000000
00000010
00000001
00000000
00000110
00000000
00000010
00010000
,
00000000
00000000
00001000
00000000
01000000
00000000
00000000
00000000
00100000
00000000
10000000
00010000
10000000
00000000
01000000
00100000
,
01000000
00000000
10000000
01000000
10000000
00000000
00010000
00100000
00010000
00000000
01000000
00000000
00100000
00000000
10000000
00000000
,
00010000
01000000
00100000
10000000
01000000
00010000
00001000
00010000
,
00000010
00000100
00000001
00000100
00000010
00001000
00000001
00000010
,
00000001
00000100
00001000
00010000
00000100
00001000
00000010
00001000
,
00000001
00000100
00000010
00000100
00001000
00010000
01000000
10000000
,
00010000
00100000
00001000
00010000
00000100
00001000
00000010
00000001
,
00001000
00010000
00100000
10000000
01000000
00000000
01200000
00000000
,
00000000
00000000
00000000
00000000
,
00010000
00010000
00310000
00000000
01000000
10000000
00100000
00000000
,
01100000
00000000
01000000
01000000
00000000
00100000
00010000
00001000
,
00010000
00000100
00000011
00000011
,
00000100
00001000
00000100
00001000
00000000
00000010
00000001
00000100
,
00001000
00000011
00001100
00001000
,
00010000
00000000
00100000
00100000
00000000
10000000
01000000
00010000
,
00001000
00010000
00010100
00001100
,
00000100
00000000
00000010
00000000
00001000
00000000
00000010
00000000
00000001
00000100
00000001
00000100
00000001
00000100
00000001
00000100
,
00000010
00001000
00000010
00001000
00000010
00001000
00000010
00001000
00000100
00000000
00001000
00000000
00001000
00000000
00001000
00000000
,
00000010
00000100
00000001
00000000
00000010
00000100
00000100
00000100
,
00010000
00001000
00100000
00000000
01000000
10000000
10000000
10000000
,
00010000
00100000
01000000
00000000
10000000
00100000
00100000
00100000
,
00010000
00000010
00001000
00000000
00000001
00000100
00000100
00000100
,
00000010
00010000
00001000
00000000
00100000
01000000
01000000
01000000
,
00100000
00001000
00010000
00000000
00000010
00000100
00000001
00000010
,
00000100
00010000
00001000
00100000
01000000
10000000
00010000
00100000
,
00001000
00010000
00000100
00000010
00000002
00000100
00000100
00000103
,
00000001
00001000
00000100
00000000
00001100
00000000
00000011
00000000
,
00001001
00000000
00000101
00000000
00000020
00001000
00001000
00001030
,
00000010
00000100
00001000
00000000
00012000
00000000
00100000
00000000
,
00010000
00000000
00003100
00000000
00020000
00100000
00100000
00130000
,
00010000
10000000
01000000
00000000
01010000
00000000
10100000
00000000
,
10010000
00000000
00000000
00000000
11000000
00000000
00000000
00000000
10000000
00000000
01000000
10000000
01000000
00000000
00100000
00001000
,
00100000
00000000
00000100
00010000
00000100
00000000
00000010
00000001
00000010
00000000
00011000
00000000
01000000
00000000
00000000
00000000
,
00000000
10000000
00100000
10000000
00010000
10000000
01000000
10000000
,
00100000
01000000
00100000
01000000
00010000
10000000
00200000
00000000
,
00300000
00010000
00001000
00010000
00000010
00010000
00000100
00001000
,
00000100
00001000
00000001
00000000
00000100
00000001
00001000
00000000
,
00000000
00000001
00000010
00000001
00001000
00000001
00000100
00000010
,
00000100
00000010
00001000
00000100
00010000
00001000
00010000
00000000
,
00000000
00001000
00010000
00001000
00100000
00001000
01000000
00010000
,
10000000
00000000
00000000
00100000
00010000
00001000
00000200
00000000
,
00000000
00000000
00000000
00000000
,
00000300
00000000
00000000
00000000
;

//---------------dance-double - ----------------
#NOTEDATA:;
#CHARTNAME:;
#STEPSTYPE:dance-double;
#DESCRIPTION:;
#CHARTSTYLE:;
#DIFFICULTY:Hard;
#METER:13;
#RADARVALUES:0.660,0.666,0.233,0.252,0.075,443.000,25.000,27.000,0.000,0.000,0.000,0.000,0.000,0.660,0.666,0.233,0.252,0.075,443.000,25.000,27.000,0.000,0.000,0.000,0.000,0.000;
#CREDIT:;
#OFFSET:-0.116;
#BPMS:0.000=200.000
,107.500=800.002
,111.500=200.000
,123.500=100.000
,125.000=200.000
;
#STOPS:44.000=0.150
,44.500=0.150
,45.000=0.150
,45.500=0.150
,106.000=0.075
,106.250=0.075
,106.500=0.075
,106.750=0.075
,107.000=0.075
,107.250=0.075
,298.000=0.300
,298.500=0.300
;
#DELAYS:;
#WARPS:;
#TIMESIGNATURES:0.000=4=4
;
#TICKCOUNTS:0.000=4
;
#COMBOS:0.000=1
;
#SPEEDS:0.000=1.000=0.000=0
;
#SCROLLS:0.000=1.000
;
#FAKES:;
#LABELS:0.000=Song Start
;
#DISPLAYBPM:200.000;
#NOTES:
00000000
00000000
00000000
00000000
,
00000000
00000000
00000000
00000000
,
00000000
00000000
00000000
00000000
,
00000000
00000000
00000000
00000000
,
01000000
00000000
00000000
00010000
10000000
00010000
10000000
00000000
,
00000000
00000000
00000000
00000000
,
00000000
00000000
00000000
00000000
,
00000000
00000000
00000000
00000000
,
00000010
00000000
00000000
00001000
00000001
00001000
00000001
00000000
,
00000000
00000000
00000000
00000000
,
00000000
00000000
00000000
00000000
,
02000000
23000000
30020000
00230000
01300000
10000000
01000000
10000000
,
00010000
00100000
10000000
00100000
00010000
00000000
01000000
00001000
,
00000000
00010000
00000010
00000000
00000100
00000001
00000100
00000001
,
00001000
00000010
00000001
00000010
00001000
00000000
00000100
00010000
,
00000000
00001000
00100000
00000000
00010000
01000000
00010000
01000000
,
00100000
10000000
00010000
00100000
01000000
00000000
00100000
00001000
,
00000000
00010000
00000100
00000000
00001000
00000100
00001000
00000100
,
00000010
00000001
00001000
00000010
00000200
00000000
00002300
00000000
,
00023000
00000000
00230000
00000000
10300000
00010000
10000000
00000000
,
01000000
10000000
01000000
00000000
10000000
00100000
00010000
00001000
,
00000100
00000001
00001000
00000000
00000001
00001000
00000001
00000000
,
00000100
00000001
00000100
00000000
00000001
00000010
00001000
00010000
,
02000000
13000000
00200000
10300000
01000000
00100000
00010000
00000000
,
01000000
00100000
10000000
00000000
00100000
00010000
00001000
00000100
,
00000010
00001000
00000001
00000000
00000100
00000010
00001000
00000000
,
00000100
00010000
00001000
00000000
00020000
02030000
23000000
30200000
,
00000000
00000000
00000000
00000000
00000000
00300000
00000000
01000000
,
00010000
01000000
00100000
10000000
01000000
00100000
00000000
10000000
,
00100000
00010000
00001000
00000100
00000001
00000100
00000000
00000010
,
00000001
00000010
00000100
00001000
00000010
00000100
00000000
00002000
,
00000000
00013000
01000000
00100000
10000000
00000000
00000000
00000000
01000000
00000000
10000000
00000000
00100000
00000000
00010000
00000000
,
00001000
00000100
00000110
00000000
00000100
00000001
00000010
00001000
,
00010000
01000000
01100000
00000000
01000000
10000000
00100000
00010000
,
00001000
00000100
00000110
00000000
00002000
00000001
00000001
00003001
,
00000100
00010000
01000000
00000000
00200000
00000000
10000000
10000000
,
00000000
01000000
01300000
00000000
00020000
00000000
00001000
00001000
,
00000000
00000100
00030100
00000000
00000020
00000000
00000001
00000001
,
00000000
00000100
00000130
00000000
00001100
00000000
00000011
00000000
,
00000101
00000000
00001010
00000000
00000002
00000000
00000100
00000100
,
00000000
00000010
00000013
00000000
00000200
00000000
00001000
00001000
,
00000000
00010000
00010300
00000000
02000000
00000000
00100000
00100000
,
00000000
00000000
10000000
00000000
13000000
00000000
00000000
00000000
00100000
00000000
10000000
00010000
10000000
00000000
01000000
00100000
,
01000000
00000000
10000000
01000000
10000000
00000000
00010000
00100000
00010000
00000000
00000000
00000000
01000000
00000000
00010000
00000000
,
01000000
00010000
01000000
00100000
00000000
10000000
00100000
01000000
,
00001000
00010000
00000010
00000000
00000100
00000000
00000110
00000000
,
00000100
00000001
00000100
00000010
00000000
00000001
00000010
00010000
,
00001000
01000000
00100000
00000000
10000000
00000000
01000000
10000000
,
01000000
00100000
00001000
00010000
00000000
00000100
00000010
00000001
,
00000100
00001000
00010000
00000000
01000000
00000000
01200000
00000000
,
00000000
00000000
00000000
00000000
,
00010000
00010000
00310000
00000000
01000000
10000000
00100000
00000000
,
01100000
00000000
01000000
01000000
00000000
00100000
00010000
00001000
,
00010000
00000100
00000011
00000011
,
00000100
00001000
00000100
00001000
00000000
00000010
00000001
00000100
,
00001000
00000011
00001100
00001000
,
00010000
00000000
00100000
00100000
00000000
10000000
01000000
00010000
,
00001000
00010000
00010100
00001100
,
00000100
00000000
00000010
00000000
00000001
00000000
00001000
00000000
00000001
00000000
00000000
00000001
00000100
00000000
00000000
00000010
,
00010000
00000000
00000000
00001000
01000000
00000000
00000000
00100000
10000000
00000000
01000000
00000000
01000000
00000000
00000000
00000000
,
10000000
00000000
00010000
00000000
00100000
00001000
00001000
00000000
,
00010000
00000000
00000100
00000000
00000010
00000001
00000001
00000000
,
00001000
00000000
00000010
00000000
00010000
00001000
00001000
00000000
,
01000000
00000000
00100000
00000000
10000000
01000000
01000000
01000000
,
00100000
00001000
00010000
00000000
00000010
00000100
00000100
00000100
,
00000001
00001000
00000100
00000000
00010000
00001000
00001000
00001000
,
00010000
00000000
01000000
00000000
10000000
00000000
00100000
00000000
01000000
00000000
00000000
01000000
00001000
00000000
00000000
00010000
,
00000010
00000000
00000000
00010000
00000100
00000000
00000000
00100000
00010000
00000000
01000000
00000000
00010000
00000000
10000000
00000000
,
00010000
00010000
10010000
00000000
11000000
00000000
00100000
00000000
,
00100000
00000000
00100000
00000000
01000000
00100000
00001000
00010000
,
00000100
00001000
00000010
00000100
00000220
00000000
00000000
00000000
,
00000000
00000000
00000330
00000000
00001000
00000001
00001000
00000010
,
00000100
00000001
00001001
00000000
00000100
00000000
00000100
00000000
,
00000100
00000000
00000100
00000000
00000001
00000100
00001000
00010000
,
00100000
00000000
10000000
00000000
00100000
10000000
00100000
10000000
00100000
00000000
10010000
00000000
02000000
00000000
00000000
00000000
,
03000000
10000000
01000000
10000000
00000000
10000000
00010000
10000000
,
00000000
10000000
00100000
00010000
00000000
00010000
00011000
00000000
,
00000000
00001000
00000100
00001000
00000000
00000100
00000001
00000100
,
00000010
00000100
00000110
00000000
00000000
00000001
00001001
00000000
,
00000000
00000001
00000100
00000010
00000000
00000100
00000010
00001000
,
00000000
00000100
00010000
00001000
00100000
00010000
10010000
00000000
,
00000000
10000000
01000000
00010000
00000000
00001000
00010000
00000010
,
00000100
00000000
00000000
00000001
00000100
00000001
00000200
00000000
,
00000000
00000000
00000000
00000000
,
00000300
00000000
00000000
00000000
;

//---------------dance-double - ----------------
#NOTEDATA:;
#CHARTNAME:;
#STEPSTYPE:dance-double;
#DESCRIPTION:;
#CHARTSTYLE:;
#DIFFICULTY:Medium;
#METER:10;
#RADARVALUES:0.499,0.510,0.196,0.149,0.000,337.000,21.000,16.000,0.000,0.000,0.000,0.000,0.000,0.499,0.510,0.196,0.149,0.000,337.000,21.000,16.000,0.000,0.000,0.000,0.000,0.000;
#CREDIT:;
#OFFSET:-0.116;
#BPMS:0.000=200.000
,107.500=800.002
,111.500=200.000
,123.500=100.000
,125.000=200.000
;
#STOPS:44.000=0.150
,44.500=0.150
,45.000=0.150
,45.500=0.150
,106.000=0.075
,106.250=0.075
,106.500=0.075
,106.750=0.075
,107.000=0.075
,107.250=0.075
,298.000=0.300
,298.500=0.300
;
#DELAYS:;
#WARPS:;
#TIMESIGNATURES:0.000=4=4
;
#TICKCOUNTS:0.000=4
;
#COMBOS:0.000=1
;
#SPEEDS:0.000=1.000=0.000=0
;
#SCROLLS:0.000=1.000
;
#FAKES:;
#LABELS:0.000=Song Start
;
#DISPLAYBPM:200.000;
#NOTES:
00000000
00000000
00000000
00000000
,
00000000
00000000
00000000
00000000
,
00000000
00000000
00000000
00000000
,
00000000
00000000
00000000
00000000
,
00000100
00000000
00000000
00000000
00001000
00000001
00001000
00000000
,
00000000
00000000
00000000
00000000
,
00000000
00000000
00000000
00000000
,
00000000
00000000
00000000
00000000
,
00100000
00000000
00000000
00000000
00010000
10000000
00010000
00000000
,
00000000
00000000
00000000
00000000
,
00000000
00000000
00000000
00000000
,
10000000
00010000
10000000
00010000
01000000
00000000
01000000
00000000
,
00100000
00000000
00100000
00000000
10000000
00000000
01000000
10000000
,
00000000
00010000
00100000
00000000
00001000
00000000
00001000
00000000
,
00010000
00000000
00010000
00000000
00001000
00000000
00000100
00000001
,
00000000
00001000
00000010
00000000
00000100
00000000
00000100
00000000
,
00000001
00000000
00000001
00000000
00000010
00000000
00000100
00010000
,
00000000
00001000
00100000
00000000
00010000
00000000
00010000
00000000
,
01000000
01000000
00200000
20300000
,
30020000
00000000
02030000
00000000
03100000
10000000
00100000
00000000
,
00100000
10000000
00100000
00000000
01000000
00000000
01010000
00000000
,
10010000
00000000
10010000
00000000
00100000
00001000
00100000
00000000
,
00100000
00010000
00100000
00000000
00001000
00000000
00011000
00000000
,
00010100
00000000
00010100
00000000
00001000
00000100
00001000
00000000
,
00001000
00000100
00001000
00000000
00000001
00000000
00000101
00000000
,
00001010
00000000
00001010
00000000
00010000
00000010
00010000
00000000
,
00010000
00001000
00010000
00000000
00020000
00032000
00023000
00032000
,
00000000
00000000
00000000
00000000
00000000
00003000
00000000
00010000
,
00000000
00100000
00010000
00100000
00000000
00100000
00000000
10000000
,
00000000
00010000
10000000
00010000
00000000
10000000
00000000
01000000
,
00000000
00010000
00001000
00010000
00000000
00001000
00000000
00000200
,
00000000
00000010
00000310
00000000
00001000
00000000
00000010
00001000
,
00000010
00000000
00000010
00000000
00000001
00000000
00001000
00000001
,
00001000
00000000
00000001
00000000
00000100
00000000
00001000
00010000
,
00001000
00010000
02000000
00100000
,
00100000
00000000
03100000
00000000
00010000
00000000
10000000
00100000
,
00000000
00000000
00100000
00000000
01000000
00000000
00001000
00010000
,
00000000
00000000
00001000
00000000
00000100
00000000
00000010
00001000
,
00000000
00001000
00000101
00001010
,
00000101
00000000
00001010
00000000
00000001
00000000
00000010
00000100
,
00000000
00000000
00001000
00000000
00000100
00000000
00010000
00001000
,
00000000
00000000
00100000
00000000
01000000
00000000
10000000
00100000
,
00000000
00000000
01000000
00000000
00010000
01000000
00010000
01000000
,
00010000
01000000
00010000
01000000
00100000
00000000
10000000
01000000
,
00010000
00000000
00001000
00010000
00000000
01000000
00100000
00001000
,
00000000
00010000
00001000
00000000
00011000
00000000
00011000
00000000
,
00000100
00000000
00001000
00000001
00000000
00000100
00000010
00000100
,
00001000
00000000
00010000
00000000
00001000
00000000
00100000
00010000
,
00100000
00000000
00010000
01000000
00000000
00001000
00010000
00001000
,
00000100
00000110
00001000
00002001
,
00000000
00000000
00000000
00000000
,
00000100
00000100
00003100
00000000
00000010
00000000
00000000
00000000
,
00000001
00000000
00001000
00000000
,
00000100
00000100
00001100
00001000
,
00000010
00000000
00000100
00000000
,
00000010
00000010
00000110
00000000
,
00000100
00000000
00000001
00000000
,
00001000
00001000
00001001
00000001
,
00000000
00000000
00000100
00000000
00000010
00001000
00000010
00001000
,
00000100
00001000
00000100
00001000
00000001
00000001
00000100
00000000
,
00000010
00000000
00000010
00000000
00001000
00001000
00000100
00000000
,
00010000
00000000
00010000
00000000
00001000
00001000
00010000
00000000
,
01000000
00000000
01000000
00000000
10000000
10000000
00100000
00000000
,
01000000
00000000
01000000
00000000
00100000
10000000
00100000
00000000
,
00010000
00000000
00001000
00000000
00000100
00000001
00000100
00000000
,
00001000
00000000
00010000
00000000
00100000
01000000
00100000
00000000
,
00010000
00000000
00001000
00000000
00000100
00000010
00000100
00000000
,
00001000
00000000
00010000
00000000
01000000
10000000
01000000
10000000
,
00010000
10000000
00010000
00000000
01000000
00000000
01000000
00000000
,
01000000
00000000
01000000
00000000
00100000
10000000
00100000
10000000
,
00100000
00010000
00022000
00000000
,
00000000
00000000
00033000
00000000
00000100
00000001
00000100
00000001
,
00001000
00000001
00001000
00000000
00000010
00000000
00000010
00000000
,
00000010
00000000
00000010
00000000
00001000
00000100
00001000
00000100
,
00001000
00000100
00010000
00001000
00200000
00302000
00013000
00000000
,
00000000
00000100
00000000
00000100
00000000
00000010
00000000
00000010
,
00000000
00000001
00000000
00000001
00000000
00001000
00000001
00000000
,
00000000
00000100
00000000
00000100
00000000
00000010
00000000
00000010
,
00000000
00010000
00001000
00000000
00000000
00001000
00010000
00000000
,
00000000
01000000
00000000
01000000
00000000
10000000
00000000
10000000
,
00000000
00010000
00000000
00010000
00000000
01000000
00100000
00000000
,
00000000
00010000
00000000
00010000
00000000
00001000
00000000
00001000
,
00010000
00000000
00000000
00000010
00001000
00000001
00000200
00000000
,
00000000
00000000
00000000
00000000
,
00000300
00000000
00000000
00000000
;
