#VERSION:0.81;
#TITLE:RAISE ME UP;
#SUBTITLE:Rock'n Pop;
#ARTIST:Planetboom;
#TITLETRANSLIT:;
#SUBTITLETRANSLIT:;
#ARTISTTRANSLIT:;
#GENRE:;
#ORIGIN:;
#CREDIT:;
#BANNER:RAISE ME UP.png;
#BACKGROUND:RAISE ME UP-bg.png;
#PREVIEWVID:;
#JACKET:;
#CDIMAGE:;
#DISCIMAGE:;
#LYRICSPATH:;
#CDTITLE:;
#MUSIC:RAISE ME UP.mp3;
#OFFSET:-2.007;
#SAMPLESTART:78.522;
#SAMPLELENGTH:12.000;
#SELECTABLE:YES;
#DISPLAYBPM:32.500:130.000;
#BPMS:0.000=65.000,
16.000=130.000;
#STOPS:;
#DELAYS:;
#WARPS:;
#TIMESIGNATURES:0.000=4=4;
#TICKCOUNTS:0.000=4;
#COMBOS:0.000=1;
#SPEEDS:0.000=1.000=0.000=0;
#SCROLLS:0.000=1.000;
#FAKES:;
#LABELS:0.000=Song Start;
#BGCHANGES:;
#KEYSOUNDS:;
#ATTACKS:
;

//---------------dance-single - ----------------
#NOTEDATA:;
#CHARTNAME:;
#STEPSTYPE:dance-single;
#DESCRIPTION:;
#CHARTSTYLE:;
#DIFFICULTY:Hard;
#METER:14;
#RADARVALUES:0.642,0.724,0.246,0.700,0.077,461.000,32.000,91.000,0.000,0.000,0.000,0.000,0.000,0.642,0.724,0.246,0.700,0.077,461.000,32.000,91.000,0.000,0.000,0.000,0.000,0.000;
#CREDIT:;
#OFFSET:-2.006;
#BPMS:0.000=32.500
,8.000=130.000
;
#STOPS:;
#DELAYS:;
#WARPS:;
#TIMESIGNATURES:0.000=4=4
;
#TICKCOUNTS:0.000=4
;
#COMBOS:0.000=1
;
#SPEEDS:0.000=1.000=0.000=0
;
#SCROLLS:0.000=1.000
;
#FAKES:;
#LABELS:0.000=Song Start
;
#DISPLAYBPM:32.500:130.000;
#NOTES:
0000
0000
0000
0000
,
0000
0000
0000
0000
,
1000
1000
1000
1000
1000
0001
1000
0001
,
0100
0100
0100
0100
0100
0100
0100
0100
,
0001
0001
0001
0001
0001
1000
0001
1000
,
0010
0010
0010
0010
0010
0010
0010
0010
,
1000
1000
1000
1000
1000
0001
1000
1000
,
0001
0001
0001
0001
0001
0001
0001
0001
,
0100
0001
0001
1000
0001
0010
0001
0001
,
0100
0001
0001
1000
0001
0010
0001
0001
,
1001
1000
1000
1000
1000
1000
1000
0002
,
0100
0100
0100
0100
0100
0100
0103
0200
,
0001
0001
0001
0001
0001
0001
0301
2000
,
0010
0010
0010
0010
0010
0010
3010
0020
,
1000
1000
1000
1000
1000
1000
1030
2000
,
0001
0001
0001
0001
0001
0001
3001
0001
,
0200
0001
0301
2000
3001
0020
0001
0031
,
0200
0001
0301
2000
3001
0020
0001
0031
,
2000
3020
0032
2003
3200
0302
2003
3200
,
0302
2003
3020
0032
2003
3020
0032
0013
,
0100
0001
0100
0001
0100
0010
0100
0020
,
1000
1030
0100
0010
0001
1000
0001
0100
,
0002
0203
2300
3002
0023
2030
3002
0023
,
2030
3002
0203
2300
3002
0203
2300
3200
,
0310
1000
0010
1000
0010
0100
0001
0100
,
0020
0000
0000
0000
,
0200
0000
0330
0000
,
0002
0000
0100
0000
0103
0000
0002
0000
0100
0000
0103
0000
0001
0000
1000
0010
,
2000
0000
0100
0000
3100
0000
2000
0000
0100
0000
3100
0000
1000
0000
0010
1000
,
0020
0000
1000
0000
1030
0000
0002
0000
1000
0000
1003
0000
0001
0000
0010
0001
,
0020
0000
0100
0000
0130
0000
2000
0000
0100
0000
3100
0000
0010
0000
0100
1000
,
0200
0000
0001
0000
0301
0000
0200
0000
0001
0000
0301
0000
1000
0000
0001
0100
,
2000
0000
0010
0000
3010
0000
0200
0000
0010
0000
0310
0000
1000
0000
0001
0010
,
0200
1000
1300
0002
1000
1003
0010
0100
,
0000
0000
0110
0000
0110
0000
1001
0000
1000
0000
0100
0000
0010
0001
0010
0001
,
0100
0000
0100
0000
0020
0000
0100
0000
0130
0000
0100
0000
0001
0010
0001
0010
,
0001
0000
0001
0000
2000
0000
0001
0000
3001
0000
0001
0000
1000
0010
1000
0010
,
0100
0000
0100
0000
0002
0000
0100
0000
0103
0000
0100
0000
0001
1000
0001
1000
,
0010
0000
0010
0000
2000
0000
0010
0000
3010
0000
0010
0000
1000
0100
1000
0100
,
1000
0000
1000
0000
0002
0000
1000
0000
1003
0000
1000
0000
0001
0100
0001
0100
,
0010
0000
0010
0000
2000
0000
0010
0000
3010
0000
0010
0000
1000
0001
1000
0001
,
0100
0001
1000
0010
0100
0001
1000
0010
,
1000
1000
0100
0100
0010
0010
0001
0001
,
0102
0100
0100
0100
0103
0100
0110
1020
,
1000
1000
1000
1000
1030
1001
1100
0210
,
0010
0010
0010
0010
0310
0010
0110
0010
,
0020
0032
2003
3200
2300
3002
0203
0302
,
2003
0010
0010
0010
0010
0010
3010
0100
,
0002
1000
1000
1000
1000
1000
1003
1000
,
1010
0010
0010
0101
0001
1001
1000
1000
,
0011
0001
0001
1001
1000
1010
0100
0100
,
2100
0100
0100
0100
3100
0100
0110
0021
,
0001
0001
0001
0001
0031
1001
0101
0210
,
0010
0010
0010
0010
0310
0010
0110
0010
,
0020
2030
3002
0203
0302
2003
3200
2300
,
3002
0010
0010
0010
0010
0010
0013
0100
,
2000
0001
0001
0001
0001
0001
3001
0001
,
0011
0010
0010
1100
1000
1001
0001
0001
,
1010
1000
1000
1001
0001
0011
0110
0110
;

//---------------dance-single - ----------------
#NOTEDATA:;
#CHARTNAME:;
#STEPSTYPE:dance-single;
#DESCRIPTION:;
#CHARTSTYLE:;
#DIFFICULTY:Medium;
#METER:6;
#RADARVALUES:0.181,0.181,0.000,0.023,0.000,162.000,0.000,3.000,0.000,0.000,0.000,0.000,0.000,0.181,0.181,0.000,0.023,0.000,162.000,0.000,3.000,0.000,0.000,0.000,0.000,0.000;
#CREDIT:;
#OFFSET:-2.006;
#BPMS:0.000=32.500
,8.000=130.000
;
#STOPS:;
#DELAYS:;
#WARPS:;
#TIMESIGNATURES:0.000=4=4
;
#TICKCOUNTS:0.000=4
;
#COMBOS:0.000=1
;
#SPEEDS:0.000=1.000=0.000=0
;
#SCROLLS:0.000=1.000
;
#FAKES:;
#LABELS:0.000=Song Start
;
#DISPLAYBPM:32.500:130.000;
#NOTES:
0000
0000
0000
0000
,
0000
0000
0000
0000
,
1000
0000
0000
0000
0000
0100
0000
0100
,
0000
0000
0000
0000
,
0001
0000
0000
0000
0000
0010
0000
0010
,
0000
0000
0000
0000
,
1000
0000
0000
0000
0000
0001
0000
0000
,
1000
0000
0000
0000
,
0100
0100
0100
0100
,
0010
0010
0010
0010
,
0001
0000
0000
0000
,
1000
0000
0000
0000
,
0010
0000
0000
0000
,
0100
0000
0000
0000
,
0001
0000
0000
0000
,
0100
0000
0000
0000
,
1000
1000
1000
1000
,
0001
0001
0001
0001
,
1000
0000
0001
0000
0000
0100
0000
0000
,
0001
0000
0000
0100
0000
0000
0001
0000
,
1000
1000
1000
1000
,
0001
0001
0001
0001
,
1000
0000
0100
0000
0000
1000
0000
0000
,
0100
0000
0000
1000
0000
0000
0100
0000
,
1000
1000
1000
1000
,
0002
0000
0000
0000
,
0000
0000
0000
0003
,
1000
0000
0000
0001
0000
0000
0100
0000
,
0100
0000
0000
0010
0000
0000
1000
0000
,
0001
0000
0000
0010
0000
0000
0100
0000
,
0100
0000
0000
1000
0000
0000
0001
0000
,
1000
0000
0000
0010
0000
0000
0100
0000
,
0100
0000
0000
0001
0000
0000
1000
0000
,
0100
0000
0000
1000
0000
0000
0001
0000
,
0100
0100
0100
0100
,
0010
1000
0010
1000
,
0001
0100
0001
0100
,
0010
1000
0001
1000
,
0100
1000
0001
1000
,
0100
0100
1000
1000
,
0001
0001
0100
0100
,
0010
1000
0100
0001
,
0010
0001
0100
1000
,
0010
0000
0000
0000
0000
0000
0100
0100
,
0000
0000
0000
0000
0000
1000
1000
1000
,
0000
0000
0000
0001
,
0100
0100
0100
0100
,
0020
0000
0000
0030
,
1000
0001
0001
0100
,
0010
1000
1000
0001
,
0010
0010
0001
1000
,
0100
0000
0000
0000
0000
0000
0001
0001
,
0000
0000
0000
0000
0000
0010
0010
0010
,
0000
0000
0000
0010
,
0001
0000
0001
0000
0001
0000
0001
2000
,
0000
0000
0000
3000
,
0100
0100
0100
0100
,
1000
0001
1000
0100
,
0100
0000
1000
0000
0001
0000
1000
1000
;

//---------------dance-single - ----------------
#NOTEDATA:;
#CHARTNAME:;
#STEPSTYPE:dance-single;
#DESCRIPTION:;
#CHARTSTYLE:;
#DIFFICULTY:Easy;
#METER:2;
#RADARVALUES:0.124,0.181,0.008,0.177,0.000,89.000,1.000,23.000,0.000,0.000,0.000,0.000,0.000,0.124,0.181,0.008,0.177,0.000,89.000,1.000,23.000,0.000,0.000,0.000,0.000,0.000;
#CREDIT:;
#OFFSET:-2.006;
#BPMS:0.000=32.500
,8.000=130.000
;
#STOPS:;
#DELAYS:;
#WARPS:;
#TIMESIGNATURES:0.000=4=4
;
#TICKCOUNTS:0.000=4
;
#COMBOS:0.000=1
;
#SPEEDS:0.000=1.000=0.000=0
;
#SCROLLS:0.000=1.000
;
#FAKES:;
#LABELS:0.000=Song Start
;
#DISPLAYBPM:32.500:130.000;
#NOTES:
0000
0000
0000
0000
,
0000
0000
0000
0000
,
0100
0000
0000
0000
,
0100
0000
0000
0000
,
0010
0000
0000
0000
,
0010
0000
0000
0000
,
1000
0000
0000
0000
,
1000
0000
0000
0000
,
0001
0000
0000
0000
,
0001
0000
0000
0000
,
1000
0000
0000
0000
,
0010
0000
0000
0000
,
0100
0000
0000
0000
,
0001
0000
0000
0000
,
1000
0000
0000
0000
,
0100
0000
0000
0000
,
0010
0000
0000
0000
,
0001
0000
0000
0000
,
2000
3000
2000
3000
,
0200
0300
0200
0300
,
2000
3000
0002
0003
,
0200
0300
0020
0030
,
0002
0003
0002
0003
,
2000
3000
2000
3000
,
0200
0300
0020
0030
,
2000
0000
0000
0000
,
0000
0000
3000
0000
,
1000
0000
1000
0000
,
0100
0000
1000
0000
,
0001
0000
0001
0000
,
0010
0000
0001
0000
,
0100
0000
0100
0000
,
0100
0000
0100
0000
,
0010
0000
0010
0000
,
0010
0000
1001
0000
,
1000
0000
0100
0000
,
1000
0000
0001
0000
,
0010
0000
0001
0000
,
1000
0000
0100
0000
,
1000
0000
1000
0000
,
0100
0000
0100
0000
,
0010
0000
0010
0000
,
0001
0000
0001
0000
,
0200
0000
0000
0300
,
0020
0000
0000
0030
,
2000
0000
0000
3000
,
0002
0000
0000
0003
,
1000
0000
1000
0000
,
0001
0000
0001
0000
,
1000
0000
1000
0000
,
0001
0000
0001
0000
,
0200
0000
0000
0300
,
0020
0000
0000
0030
,
2000
0000
0000
3000
,
0002
0000
0000
0003
,
0100
0000
0100
0000
,
0010
0000
0010
0000
,
0100
0000
0100
0000
,
0001
0001
0001
1000
;

//---------------dance-single - ----------------
#NOTEDATA:;
#CHARTNAME:;
#STEPSTYPE:dance-single;
#DESCRIPTION:;
#CHARTSTYLE:;
#DIFFICULTY:Beginner;
#METER:1;
#RADARVALUES:0.074,0.090,0.000,0.062,0.000,59.000,0.000,8.000,0.000,0.000,0.000,0.000,0.000,0.074,0.090,0.000,0.062,0.000,59.000,0.000,8.000,0.000,0.000,0.000,0.000,0.000;
#CREDIT:;
#OFFSET:-2.006;
#BPMS:0.000=32.500
,8.000=130.000
;
#STOPS:;
#DELAYS:;
#WARPS:;
#TIMESIGNATURES:0.000=4=4
;
#TICKCOUNTS:0.000=4
;
#COMBOS:0.000=1
;
#SPEEDS:0.000=1.000=0.000=0
;
#SCROLLS:0.000=1.000
;
#FAKES:;
#LABELS:0.000=Song Start
;
#DISPLAYBPM:32.500:130.000;
#NOTES:
0000
0000
0000
0000
,
0000
0000
0000
0000
,
0100
0000
0000
0000
,
0100
0000
0000
0000
,
0010
0000
0000
0000
,
0010
0000
0000
0000
,
0100
0000
0000
0000
,
0100
0000
0000
0000
,
0010
0000
0000
0000
,
0010
0000
0000
0000
,
1000
0000
0000
0000
,
1000
0000
0000
0000
,
0001
0000
0000
0000
,
0001
0000
0000
0000
,
1000
0000
0000
0000
,
1000
0000
0000
0000
,
0001
0000
0000
0000
,
0001
0000
0000
0000
,
0200
0000
0000
0300
,
0020
0000
0000
0030
,
2000
0000
0000
3000
,
0002
0000
0000
0003
,
0200
0000
0000
0300
,
0020
0000
0000
0030
,
2000
0000
0000
3000
,
0002
0000
0000
0000
,
0000
0000
0003
0000
,
0010
0000
0000
0000
,
0010
0000
0000
0000
,
0100
0000
0000
0000
,
0100
0000
0000
0000
,
0010
0000
0000
0000
,
0010
0000
0000
0000
,
1000
0000
0000
0000
,
1000
0000
0000
0000
,
0001
0000
0000
0000
,
0100
0000
0000
0000
,
0001
0000
0000
0000
,
1000
0000
0000
0000
,
0100
0000
0000
0000
,
1000
0000
0000
0000
,
0010
0000
0000
0000
,
1000
0000
0000
0000
,
0100
0000
0000
0000
,
0100
0000
0000
0000
,
0100
0000
0000
0000
,
1000
0000
0000
0000
,
0010
0000
0000
0000
,
1000
0000
0000
0000
,
0010
0000
0000
0000
,
0100
0000
0000
0000
,
0001
0000
0000
0000
,
0100
0000
0000
0000
,
0001
0000
0000
0000
,
1000
0000
0000
0000
,
1000
0000
0000
0000
,
0001
0000
0000
0000
,
0001
0000
0000
0000
,
0100
0100
0100
0100
;

//---------------dance-double - ----------------
#NOTEDATA:;
#CHARTNAME:;
#STEPSTYPE:dance-double;
#DESCRIPTION:;
#CHARTSTYLE:;
#DIFFICULTY:Hard;
#METER:14;
#RADARVALUES:0.620,0.724,0.400,0.354,0.077,466.000,52.000,46.000,0.000,0.000,0.000,0.000,0.000,0.620,0.724,0.400,0.354,0.077,466.000,52.000,46.000,0.000,0.000,0.000,0.000,0.000;
#CREDIT:;
#OFFSET:-2.006;
#BPMS:0.000=32.500
,8.000=130.000
;
#STOPS:;
#DELAYS:;
#WARPS:;
#TIMESIGNATURES:0.000=4=4
;
#TICKCOUNTS:0.000=4
;
#COMBOS:0.000=1
;
#SPEEDS:0.000=1.000=0.000=0
;
#SCROLLS:0.000=1.000
;
#FAKES:;
#LABELS:0.000=Song Start
;
#DISPLAYBPM:32.500:130.000;
#NOTES:
00000000
00000000
00000000
00000000
,
00000000
00000000
00000000
00000000
,
00001000
00010000
00010000
00010000
00010000
00000100
00010000
00000100
,
00001000
00001000
00001000
00001000
00001000
00001000
00001000
00001000
,
00000001
00000100
00000100
00000100
00000100
00000010
00001000
00000010
,
00001000
00001000
00001000
00001000
00001000
00001000
00001000
00000100
,
00010000
01000000
01000000
01000000
01000000
00100000
01000000
01000000
,
10000000
10000000
10000000
10000000
10000000
10000000
10000000
10000000
,
00100000
00010000
00010000
00001000
00010000
00000100
00001000
00001000
,
00010000
00100000
00100000
00001000
00010000
00000100
00001000
00001000
,
00000020
00000100
00000100
00000100
00000100
00000100
00000130
00000200
,
00000001
00000001
00000001
00000001
00000001
00000001
00000301
00002000
,
00000100
00000100
00000100
00000100
00000100
00000100
00003100
00000100
,
00020000
00001000
00001000
00001000
00001000
00001000
00031000
02000000
,
00010000
00010000
00010000
00010000
00010000
00010000
03010000
00020000
,
10000000
10000000
10000000
10000000
10000000
10000000
10030000
00100000
,
01000000
00100000
00100000
00010000
00001000
00010000
00001000
00001000
,
00000100
00000010
00000010
00001000
00000100
00001000
00000100
00000100
,
00002000
00003020
00000032
00002003
00003200
00000302
00002003
00003200
,
00000302
00002003
00003020
00000032
00000203
00002300
00003002
00000023
,
00000130
00001000
00010000
00001000
00100000
00010000
01000000
00020000
,
01000000
01030000
00100000
00010000
00001000
00010000
00100000
10000000
,
00020000
00230000
20300000
30020000
02030000
23000000
30020000
02030000
,
23000000
30020000
00230000
20300000
30020000
00230000
20300000
30020000
,
01030000
00100000
00001000
00010000
00001000
00000100
00000010
00002000
,
00000000
00000000
00000000
00000000
,
00000001
00000100
00000001
00000100
00000001
00000100
00003001
00000100
,
00000010
00000000
00000001
00000000
00000001
00000000
00000010
00000000
00000001
00000000
00000001
00000000
00000010
00000000
00000001
00001000
,
00000001
00000000
00001000
00000000
00001000
00000000
00000001
00000000
00001000
00000000
00001000
00000000
00000001
00000000
00000100
00000010
,
00000100
00000000
00001000
00000000
00001000
00000000
00000100
00000000
00001000
00000000
00001000
00000000
00000100
00000000
00001000
00010000
,
00001000
00000000
00010000
00000000
00010000
00000000
00001000
00000000
00010000
00000000
00010000
00000000
00001000
00000000
00010000
00001000
,
00010000
00000000
01000000
00000000
01000000
00000000
00010000
00000000
01000000
00000000
01000000
00000000
00010000
00000000
01000000
00100000
,
01000000
00000000
10000000
00000000
10000000
00000000
01000000
00000000
10000000
00000000
10000000
00000000
01000000
00000000
10000000
00010000
,
10000000
00100000
00100000
00010000
00100000
00100000
00100000
10010000
,
00000000
00000000
10100000
00000000
00100000
00000000
00010000
00000000
00001000
00000000
00010000
00000000
00001000
00000100
00001000
00000100
,
00000010
00000000
00000010
00000000
00000100
00000000
00000010
00000000
00000010
00000000
00000010
00000000
00000100
00000001
00000100
00000001
,
00001000
00000000
00001000
00000000
00000001
00000000
00001000
00000000
00001000
00000000
00001000
00000000
00000100
00010000
00000100
00010000
,
00001000
00000000
00001000
00000000
00100000
00000000
00001000
00000000
00001000
00000000
00001000
00000000
00100000
00010000
00100000
00010000
,
01000000
00000000
01000000
00000000
00010000
00000000
01000000
00000000
01000000
00000000
01000000
00000000
00100000
10000000
00100000
10000000
,
01000000
00000000
01000000
00000000
00100000
00000000
01000000
00000000
01000000
00000000
01000000
00000000
00100000
00010000
00100000
00010000
,
00001000
00000000
00001000
00000000
00010000
00000000
00001000
00000000
00001000
00000000
00001000
00000000
00010000
00000100
00010000
00000100
,
00000010
00000010
00000001
00000001
00001000
00001000
00000100
00000100
,
00010000
00001000
00010000
01000000
00100000
00010000
10000000
00000000
,
20100000
00100000
00100000
00100000
30100000
00100000
01100000
00110000
,
00010000
00010000
00010000
00010000
00010000
00110000
00011000
00010100
,
00000100
00000100
00000100
00000100
00000100
00000100
00000110
00000010
,
00000011
00001001
00001001
00001100
00001100
00000110
00000110
00001100
,
00020100
00000100
00000100
00000100
00000100
00030100
00100100
00002000
,
00010000
00010000
00010000
00010000
00010000
00010000
00013000
00010000
,
00010100
00000100
00000100
00001100
00000100
00000100
00000110
00011000
,
01001000
01000000
01000000
01010000
01000000
01000000
01100000
10010000
,
20100000
00100000
00100000
00100000
30100000
00100000
01100000
00110000
,
00010000
00010000
00010000
00010000
00010000
00110000
00011000
00010100
,
00000100
00000100
00000100
00000100
00000100
00000100
00000110
00000010
,
00000011
00001001
00001001
00001100
00001100
00000110
00000110
00001100
,
00020100
00000100
00000100
00000100
00000100
00030100
00100100
00002000
,
00010000
00010000
00010000
00010000
00010000
00010000
00013000
00010000
,
00010100
00000100
00000100
00001100
00000100
00000100
00000110
00011000
,
01001000
01000000
01000000
01010000
01000000
01000000
01100000
01100000
;

//---------------dance-double - ----------------
#NOTEDATA:;
#CHARTNAME:;
#STEPSTYPE:dance-double;
#DESCRIPTION:;
#CHARTSTYLE:;
#DIFFICULTY:Medium;
#METER:6;
#RADARVALUES:0.186,0.226,0.008,0.223,0.000,139.000,1.000,29.000,0.000,0.000,0.000,0.000,0.000,0.186,0.226,0.008,0.223,0.000,139.000,1.000,29.000,0.000,0.000,0.000,0.000,0.000;
#CREDIT:;
#OFFSET:-2.006;
#BPMS:0.000=32.500
,8.000=130.000
;
#STOPS:;
#DELAYS:;
#WARPS:;
#TIMESIGNATURES:0.000=4=4
;
#TICKCOUNTS:0.000=4
;
#COMBOS:0.000=1
;
#SPEEDS:0.000=1.000=0.000=0
;
#SCROLLS:0.000=1.000
;
#FAKES:;
#LABELS:0.000=Song Start
;
#DISPLAYBPM:32.500:130.000;
#NOTES:
// measure 0
00000000
00000000
00000000
00000000
,  // measure 1
00000000
00000000
00000000
00000000
,  // measure 2
00100000
00000000
00000000
00000000
00000000
00010000
00000000
00010000
,  // measure 3
00000000
00000000
00000000
00000000
,  // measure 4
10000000
00000000
00000000
00000000
00000000
00100000
00000000
00100000
,  // measure 5
00000000
00000000
00000000
00000000
,  // measure 6
00010000
00000000
00001000
00000000
,  // measure 7
00010000
00000000
00001000
00000000
,  // measure 8
00001000
00000000
00000000
00000001
00000000
00001000
00000000
00000000
,  // measure 9
00000010
00000000
00000000
00000100
00000000
00000001
00000000
00000000
,  // measure 10
00002000
00000000
00000000
00003000
00000020
00000000
00000000
00000030
,  // measure 11
00000200
00000000
00000000
00000300
00000002
00000000
00000000
00000003
,  // measure 12
00002000
00000000
00000000
00003000
00000200
00000000
00000000
00000300
,  // measure 13
00020000
00000000
00000000
00030000
00002000
00000000
00000000
00003000
,  // measure 14
00200000
00000000
00000000
00300000
02000000
00000000
00000000
03000000
,  // measure 15
20000000
00000000
00000000
30000000
00020000
00000000
00000000
00030000
,  // measure 16
10000000
00000000
00000000
00100000
00000000
01000000
00000000
00000000
,  // measure 17
00100000
00100000
00100000
00100000
,  // measure 18
20000000
00000000
00000000
30000000
,  // measure 19
00020000
00000000
00000000
00030000
,  // measure 20
00002000
00000000
00000000
00003000
,  // measure 21
00000002
00000000
00000000
00000003
,  // measure 22
00000002
00000000
00000000
00000003
,  // measure 23
00002000
00000000
00000000
00003000
,  // measure 24
00020000
00000000
00000000
00030000
,  // measure 25
02000000
00000000
00000000
00000000
,  // measure 26
00000000
00000000
00000000
03000000
,  // measure 27
10000000
00000000
00000000
00100000
00000000
00000000
10000000
00000000
,  // measure 28
00010000
00000000
00000000
00100000
00000000
00000000
00001000
00000000
,  // measure 29
00010000
00000000
00000000
00000010
00000000
00000000
00000100
00000000
,  // measure 30
00000001
00000000
00000000
00001000
00000000
00000000
00000100
00000000
,  // measure 31
00010000
00000000
00000000
00001000
00000000
00000000
00100000
00000000
,  // measure 32
00010000
00000000
00000000
01000000
00000000
00000000
00100000
00000000
,  // measure 33
01000000
00000000
00000000
00010000
00000000
00000000
10000000
00000000
,  // measure 34
00010000
00010000
00010000
00010000
,  // measure 35
01000000
00010000
01000000
00100000
,  // measure 36
10000000
00100000
00010000
00001000
,  // measure 37
00010000
00000100
00001000
00000100
,  // measure 38
00001000
00000010
00000001
00000010
,  // measure 39
00001000
00001000
00000001
00000100
,  // measure 40
00000010
00000010
00001000
00000100
,  // measure 41
00010000
00010000
00000100
00001000
,  // measure 42
01000000
01000000
00100000
00010000
,  // measure 43
02000000
00000000
00000000
00000000
00000000
00000000
03100000
00100000
,  // measure 44
00000000
00000000
00000000
00000000
00000000
10000000
10000000
10000000
,  // measure 45
00000000
00000000
00000000
00100000
,  // measure 46
00010000
00010000
00010000
00010000
,  // measure 47
00012000
00000000
00000000
00000000
00000000
00000000
00013000
00020000
,  // measure 48
00000000
00000000
00000000
00030000
,  // measure 49
00000100
00000100
00000100
00000100
,  // measure 50
00001000
00001000
00001000
00001000
,  // measure 51
00000002
00000000
00000000
00000003
,  // measure 52
00000200
00000000
00000000
00000300
,  // measure 53
00000020
00000000
00000000
00000030
,  // measure 54
00002000
00000000
00000000
00000000
00003000
00000000
00001000
00020000
,  // measure 55
00000000
00000000
00000000
00000000
00000000
00000000
00001000
00032000
,  // measure 56
00000000
00000000
00000000
00003000
,  // measure 57
01000000
01000000
01000000
01000000
,  // measure 58
00100000
00000000
00100000
00000000
00100000
00000000
00100000
00100000
;

//---------------dance-double - ----------------
#NOTEDATA:;
#CHARTNAME:;
#STEPSTYPE:dance-double;
#DESCRIPTION:;
#CHARTSTYLE:;
#DIFFICULTY:Easy;
#METER:2;
#RADARVALUES:0.091,0.090,0.000,0.100,0.000,70.000,0.000,13.000,0.000,0.000,0.000,0.000,0.000,0.091,0.090,0.000,0.100,0.000,70.000,0.000,13.000,0.000,0.000,0.000,0.000,0.000;
#CREDIT:;
#OFFSET:-2.006;
#BPMS:0.000=32.500
,8.000=130.000
;
#STOPS:;
#DELAYS:;
#WARPS:;
#TIMESIGNATURES:0.000=4=4
;
#TICKCOUNTS:0.000=4
;
#COMBOS:0.000=1
;
#SPEEDS:0.000=1.000=0.000=0
;
#SCROLLS:0.000=1.000
;
#FAKES:;
#LABELS:0.000=Song Start
;
#DISPLAYBPM:32.500:130.000;
#NOTES:
// measure 0
00000000
00000000
00000000
00000000
,  // measure 1
00000000
00000000
00000000
00000000
,  // measure 2
00100000
00000000
00000000
00000000
,  // measure 3
00010000
00000000
00000000
00000000
,  // measure 4
00100000
00000000
00000000
00000000
,  // measure 5
00010000
00000000
00000000
00000000
,  // measure 6
00001000
00000000
00000000
00000000
,  // measure 7
00000010
00000000
00000000
00000000
,  // measure 8
00001000
00000000
00000000
00000000
,  // measure 9
00000010
00000000
00000000
00000000
,  // measure 10
00001000
00000000
00000000
00000000
,  // measure 11
00000100
00000000
00000000
00000000
,  // measure 12
00010000
00000000
00000000
00000000
,  // measure 13
00001000
00000000
00000000
00000000
,  // measure 14
01000000
00000000
00000000
00000000
,  // measure 15
00010000
00000000
00000000
00000000
,  // measure 16
00100000
00000000
00000000
00000000
,  // measure 17
00100000
00000000
00000000
00000000
,  // measure 18
20000000
00000000
00000000
00000000
,  // measure 19
00000000
00000000
00000000
30000000
,  // measure 20
00100000
00000000
00100000
00000000
,  // measure 21
00100000
00000000
00000000
00000000
,  // measure 22
00020000
00000000
00000000
00000000
,  // measure 23
00000000
00000000
00000000
00030000
,  // measure 24
00001000
00000000
00001000
00000000
,  // measure 25
00002000
00000000
00000000
00000000
,  // measure 26
00000000
00000000
00003000
00000000
,  // measure 27
00000100
00000000
00000000
00000000
,  // measure 28
00000100
00000000
00000000
00000000
,  // measure 29
00000001
00000000
00000000
00000000
,  // measure 30
00000001
00000000
00000000
00000000
,  // measure 31
00001000
00000000
00000000
00000000
,  // measure 32
00001000
00000000
00000000
00000000
,  // measure 33
00000010
00000000
00000000
00000000
,  // measure 34
00000010
00000000
00000000
00000000
,  // measure 35
00000000
00000100
00000000
00000100
,  // measure 36
00000000
00001000
00000000
00001000
,  // measure 37
00000000
00000001
00000000
00000001
,  // measure 38
00000000
00000010
00000000
00000010
,  // measure 39
00000000
00000100
00000000
00000100
,  // measure 40
00000000
00010000
00000000
00010000
,  // measure 41
00000000
00001000
00000000
00001000
,  // measure 42
00000000
00100000
00000000
00100000
,  // measure 43
00200000
00000000
00000000
00300000
,  // measure 44
00020000
00000000
00000000
00030000
,  // measure 45
20000000
00000000
00000000
30000000
,  // measure 46
02000000
00000000
00000000
03000000
,  // measure 47
20000000
00000000
00000000
00000000
,  // measure 48
00000000
00000000
30000000
00000000
,  // measure 49
10000000
00000000
00100000
00000000
,  // measure 50
00010000
00000000
00001000
00000000
,  // measure 51
00000200
00000000
00000000
00000300
,  // measure 52
00002000
00000000
00000000
00003000
,  // measure 53
00000020
00000000
00000000
00000030
,  // measure 54
00000002
00000000
00000000
00000003
,  // measure 55
00000200
00000000
00000000
00000000
,  // measure 56
00000000
00000000
00000000
00000300
,  // measure 57
00001000
00001000
00001000
00001000
,  // measure 58
00010000
00010000
00010000
00010000
;
