#VERSION:0.81;
#TITLE:PLAY THE FUTURE;
#SUBTITLE:Electro House;
#ARTIST:Urbatronic Chopsticks;
#TITLETRANSLIT:;
#SUBTITLETRANSLIT:;
#ARTISTTRANSLIT:;
#GENRE:;
#ORIGIN:;
#CREDIT:;
#BANNER:PLAY THE FUTURE.png;
#BACKGROUND:PLAY THE FUTURE-bg.png;
#PREVIEWVID:;
#JACKET:;
#CDIMAGE:;
#DISCIMAGE:;
#LYRICSPATH:;
#CDTITLE:;
#MUSIC:PLAY THE FUTURE.mp3;
#OFFSET:-0.269;
#SAMPLESTART:22.676;
#SAMPLELENGTH:12.000;
#SELECTABLE:YES;
#DISPLAYBPM:128.000;
#BPMS:0.000=128.000;
#STOPS:;
#DELAYS:;
#WARPS:;
#TIMESIGNATURES:0.000=4=4;
#TICKCOUNTS:0.000=4;
#COMBOS:0.000=1;
#SPEEDS:0.000=1.000=0.000=0;
#SCROLLS:0.000=1.000;
#FAKES:;
#LABELS:0.000=Song Start;
#BGCHANGES:;
#KEYSOUNDS:;
#ATTACKS:
;

//---------------dance-single - ----------------
#NOTEDATA:;
#CHARTNAME:;
#STEPSTYPE:dance-single;
#DESCRIPTION:;
#CHARTSTYLE:;
#DIFFICULTY:Hard;
#METER:11;
#RADARVALUES:0.383,0.398,0.070,0.192,0.000,277.000,8.000,22.000,0.000,0.000,0.000,0.000,0.000,0.383,0.398,0.070,0.192,0.000,277.000,8.000,22.000,0.000,0.000,0.000,0.000,0.000;
#CREDIT:;
#OFFSET:-0.239;
#BPMS:0.000=128.000
;
#STOPS:;
#DELAYS:;
#WARPS:;
#TIMESIGNATURES:0.000=4=4
;
#TICKCOUNTS:0.000=4
;
#COMBOS:0.000=1
;
#SPEEDS:0.000=1.000=0.000=0
;
#SCROLLS:0.000=1.000
;
#FAKES:;
#LABELS:0.000=Song Start
;
#DISPLAYBPM:128.000;
#NOTES:
// measure 0
0000
0000
0000
0000
,  // measure 1
0000
0000
0000
0000
,  // measure 2
0000
0000
0000
0000
,  // measure 3
2200
3300
0202
0303
,  // measure 4
1000
0000
1000
0000
,  // measure 5
1000
0000
1000
0000
,  // measure 6
1000
0000
1000
0000
,  // measure 7
1000
0000
0000
0000
1000
0000
1000
1000
,  // measure 8
0001
1000
0001
1000
,  // measure 9
0001
1000
0001
1000
,  // measure 10
0001
1000
0001
1000
,  // measure 11
0001
1000
0001
1001
,  // measure 12
0100
1000
0001
0000
0001
1000
0010
0000
,  // measure 13
0100
0001
0010
0001
0100
0001
1000
0000
,  // measure 14
0010
1000
0001
0000
0001
1000
0100
0000
,  // measure 15
1000
0010
0100
0010
1000
0001
0010
0000
,  // measure 16
0100
1000
0010
0000
0010
1000
0001
0000
,  // measure 17
0100
0001
1000
0001
0100
0010
0100
0000
,  // measure 18
0010
0100
0001
0000
0001
1000
0100
0000
,  // measure 19
0010
0001
1000
0001
0010
0100
0010
0000
,  // measure 20
0002
0100
1000
0103
,  // measure 21
2000
0010
0001
3100
,  // measure 22
0020
0001
0100
1030
,  // measure 23
0002
0100
0100
0003
,  // measure 24
0000
0000
1001
0000
0010
1000
0001
0000
,  // measure 25
0100
0001
0100
0000
0010
1000
0010
0000
,  // measure 26
0100
0000
0110
0000
0100
0001
1000
0000
,  // measure 27
0001
0010
0001
0000
1000
0100
1000
0000
,  // measure 28
0010
0100
0001
0000
1000
0100
0001
0000
,  // measure 29
0100
1000
0010
0000
0001
0010
1000
0000
,  // measure 30
0010
0100
0001
0000
0001
0100
1000
0000
,  // measure 31
0200
0000
0020
0300
,  // measure 32
2030
0000
0000
3000
,  // measure 33
0002
0000
0000
0003
,  // measure 34
0200
0000
0000
0300
,  // measure 35
0020
0000
1000
1030
,  // measure 36
0001
0100
0001
0000
0100
0001
1000
0010
,  // measure 37
1000
0100
1000
0000
0100
1000
0001
0010
,  // measure 38
0001
1000
0001
0000
1000
0001
1000
0000
,  // measure 39
0100
1000
0010
0100
0001
0010
0100
0000
,  // measure 40
0100
1000
0001
1000
0100
1000
0001
1000
,  // measure 41
0010
0100
0001
0100
0010
0100
0001
0100
,  // measure 42
0010
1000
0100
1000
0010
1000
0100
1000
,  // measure 43
0001
0010
0001
1000
0001
0010
0001
1000
,  // measure 44
0010
0100
0001
0100
1000
0100
0010
0100
,  // measure 45
0001
0010
1000
0010
0100
0010
0001
0010
,  // measure 46
0100
1000
0001
1000
0100
1000
0001
1000
,  // measure 47
0010
0001
0010
0100
0010
1000
0010
0100
,  // measure 48
0001
0000
0001
0000
1000
0001
2000
0000
,  // measure 49
3010
0000
0010
0000
0100
0010
0200
0000
,  // measure 50
1300
0000
1000
0000
0001
1000
0002
0000
,  // measure 51
0103
0000
0100
0000
0010
0100
0020
0000
,  // measure 52
0031
0000
1001
0000
1000
0010
2000
0000
,  // measure 53
3010
0000
0110
0000
0100
0001
0200
0000
,  // measure 54
0310
0000
0101
0000
0010
1000
0020
0000
,  // measure 55
0130
0001
0100
0001
1000
0100
1000
0100
,  // measure 56
0020
0000
0000
0000
,  // measure 57
0030
0000
0000
0000
;

//---------------dance-single - ----------------
#NOTEDATA:;
#CHARTNAME:;
#STEPSTYPE:dance-single;
#DESCRIPTION:;
#CHARTSTYLE:;
#DIFFICULTY:Medium;
#METER:9;
#RADARVALUES:0.347,0.398,0.035,0.157,0.000,256.000,4.000,18.000,0.000,0.000,0.000,0.000,0.000,0.347,0.398,0.035,0.157,0.000,256.000,4.000,18.000,0.000,0.000,0.000,0.000,0.000;
#CREDIT:;
#DISPLAYBPM:64.000;
#NOTES:
0000
0000
0000
0000
,
0000
0000
0000
0000
,
0000
0000
0000
0000
,
2000
0000
3002
0000
,
0103
0000
0100
0000
,
0100
0000
0000
0000
0100
0000
0000
0010
,
2000
0000
3002
0000
,
0103
0000
0000
0000
0100
0000
0010
0010
,
0010
0010
0010
0010
,
0010
0010
0010
0010
,
0010
0010
0010
0010
,
0010
0010
0010
1001
,
1000
0000
0100
0000
1000
0001
1000
0000
,
0001
0000
0010
0000
0001
1000
0001
0000
,
0100
0000
0100
0000
0010
1000
0010
0000
,
0010
0000
0010
0000
0100
0001
0100
0000
,
0001
0000
1000
0000
0001
0010
0001
0000
,
1000
0000
0001
0000
1000
0100
1000
0000
,
0010
0000
0010
0000
1000
0001
1000
0000
,
0100
0000
0100
0000
0001
1000
0001
0000
,
1000
0100
1000
0001
,
0010
0001
1000
0001
,
0100
0010
1000
0001
,
0010
0100
1000
1001
,
0000
0000
0100
0000
0001
0010
0001
0010
,
0001
0000
0001
0000
1000
0100
1000
0100
,
1000
0000
1000
0000
0010
1000
0010
1000
,
0010
0000
0010
0000
0100
0001
0100
0001
,
0100
0000
0010
0000
1000
0001
1000
0001
,
1000
0000
0100
0000
0010
0001
0010
0001
,
0010
0000
0001
0000
1000
0100
1000
0100
,
2000
0000
0002
3000
,
1003
0000
0000
0000
0000
0000
0000
0001
,
1001
0000
0000
0000
,
0100
0000
0000
0000
0000
0000
0000
0010
,
0110
0000
0010
0010
,
0000
0001
0000
0001
0000
0001
0000
0001
,
0001
0010
0000
0010
0000
0010
0000
0010
,
0010
0100
0000
0100
0000
0100
0000
0100
,
0100
1000
0000
1000
0000
1000
0000
1000
,
1000
0001
1000
0001
1000
0100
1000
0100
,
0010
0001
0010
0001
1000
0001
1000
0001
,
0100
0001
0100
0001
1000
0010
1000
0010
,
0100
0010
0100
0010
1000
0001
1000
0001
,
2000
0000
0100
0000
0010
0010
3010
0000
,
0002
0000
0100
0000
0010
0010
0013
0000
,
0200
0000
1000
0000
0001
0001
0301
0000
,
0020
0000
0001
0000
1000
1000
1030
0000
,
0001
0000
0100
0001
0100
0001
0200
0000
,
0310
0000
1000
0001
1000
0001
2000
0000
,
3100
0000
0010
0001
0010
0001
0020
0000
,
0031
0000
0100
0010
0100
0010
0200
0000
,
0301
0000
1000
0010
1000
0010
0200
0000
,
0310
0000
0100
0001
0100
0001
0020
0000
,
0130
0000
1000
0100
1000
0100
0020
0000
,
0031
0000
0100
0000
0010
0100
0010
0100
,
0020
0000
0000
0000
,
0030
0000
0000
0000
;

//---------------dance-single - ----------------
#NOTEDATA:;
#CHARTNAME:;
#STEPSTYPE:dance-single;
#DESCRIPTION:;
#CHARTSTYLE:;
#DIFFICULTY:Easy;
#METER:6;
#RADARVALUES:0.263,0.299,0.183,0.079,0.000,181.000,21.000,9.000,0.000,0.000,0.000,0.000,0.000,0.263,0.299,0.183,0.079,0.000,181.000,21.000,9.000,0.000,0.000,0.000,0.000,0.000;
#CREDIT:;
#OFFSET:-0.298;
#BPMS:0.000=128.000
;
#STOPS:;
#DELAYS:;
#WARPS:;
#TIMESIGNATURES:0.000=4=4
;
#TICKCOUNTS:0.000=4
;
#COMBOS:0.000=1
;
#SPEEDS:0.000=1.000=0.000=0
;
#SCROLLS:0.000=1.000
;
#FAKES:;
#LABELS:0.000=Song Start
;
#DISPLAYBPM:64.000;
#NOTES:
0000
0000
0000
0000
,
0000
0000
0000
0000
,
0000
0000
0000
0000
,
1000
0000
0001
0000
,
0100
0000
0100
0000
,
0100
0000
0100
0000
,
0010
0000
0010
0000
,
0100
0000
0001
1001
,
1000
0000
0100
0100
,
0010
0000
0010
0010
,
0001
0000
0001
0001
,
1000
0000
0100
0110
,
0100
1000
0001
1000
,
0010
0100
0001
0100
,
0001
1000
0001
0100
,
0010
1000
0100
0010
,
0001
0010
1000
0100
,
1000
0010
0001
0100
,
0001
0100
1000
0010
,
1000
0100
0001
0010
,
0002
0000
0203
0000
,
0320
0000
2030
0000
,
3200
0000
0320
0000
,
0032
0000
2003
0000
,
3000
0001
0100
0100
,
0010
1000
0100
0100
,
1000
0001
0010
0010
,
0001
1000
0010
0010
,
0100
0001
0010
0110
,
0100
1000
0010
0110
,
0010
1000
0001
1001
,
0010
0001
1000
1001
,
0100
0000
0000
0000
,
0010
0000
0000
0000
,
1000
0000
0000
0000
,
0001
0000
0001
0001
,
0100
0010
0100
0010
,
1000
0100
1000
0100
,
0010
0001
0010
0001
,
0100
0010
0100
0010
,
1000
1001
1000
1001
,
0001
1001
0001
1001
,
1000
1100
1000
1100
,
0010
0011
0010
0011
,
0010
0100
1000
0001
,
0100
0010
1000
0001
,
0100
0001
1000
0100
,
0010
0001
1000
0100
,
1000
0010
0100
0110
,
0001
0010
0100
0110
,
1000
0001
0010
0011
,
0001
1000
0100
1100
,
1000
0010
0100
0101
,
0001
0010
0100
1100
,
0010
0001
1000
1001
,
1000
0010
0001
0100
,
0020
0000
0000
0000
,
0030
0000
0000
0000
;

//---------------dance-single - ----------------
#NOTEDATA:;
#CHARTNAME:;
#STEPSTYPE:dance-single;
#DESCRIPTION:;
#CHARTSTYLE:;
#DIFFICULTY:Beginner;
#METER:3;
#RADARVALUES:0.171,0.199,0.017,0.096,0.000,124.000,2.000,11.000,0.000,0.000,0.000,0.000,0.000,0.171,0.199,0.017,0.096,0.000,124.000,2.000,11.000,0.000,0.000,0.000,0.000,0.000;
#CREDIT:;
#DISPLAYBPM:64.000;
#NOTES:
0000
0000
0000
0000
,
0000
0000
0000
0000
,
0000
0000
0000
0000
,
1000
0000
1000
0000
,
0001
0000
0000
0000
,
0001
0000
0000
0000
,
0001
0000
0001
0000
,
0100
0000
0000
0000
,
0100
0000
0100
0000
,
0100
0000
0100
0000
,
0010
0000
0010
0000
,
0010
0000
0010
0000
,
1000
0000
0001
0001
,
0001
0000
0100
0100
,
0100
0000
0010
0010
,
0010
0000
1000
1000
,
0001
0000
0001
0001
,
0010
0000
0010
0010
,
0100
0000
0100
0100
,
1000
0000
1000
1000
,
1000
0000
0000
0000
,
0100
0000
0000
0000
,
0001
0000
0000
0000
,
0010
0000
0000
0100
,
0000
0000
0001
0000
,
0001
0000
0100
0000
,
0100
0000
0001
0000
,
0001
0000
0100
0000
,
0100
0000
0010
0000
,
0010
0000
1000
0000
,
1000
0000
0010
0000
,
2000
0000
0000
0000
,
3001
0000
0000
0000
,
1001
0000
0000
0000
,
1000
0000
0000
0000
,
1001
0000
0000
0000
,
0001
0001
0001
0001
,
1000
1000
1000
1000
,
0001
0001
0001
0001
,
2000
0000
0000
3000
,
0010
0010
0010
0000
,
0100
0100
0100
0000
,
0001
0001
0001
0000
,
1000
1000
1000
0000
,
0100
0010
0100
0000
,
1000
0001
1000
0000
,
0010
0100
0010
0000
,
0001
1000
0001
0000
,
0100
0100
0200
0300
,
0001
0001
0002
0003
,
0010
0010
0020
0030
,
1000
1000
2000
3000
,
0001
0010
0002
0003
,
1000
0100
2000
3000
,
0010
1000
0020
0030
,
0100
0001
0200
0300
,
0020
0000
0000
0000
,
0030
0000
0000
0000
;

//---------------dance-double - ----------------
#NOTEDATA:;
#CHARTNAME:;
#STEPSTYPE:dance-double;
#DESCRIPTION:;
#CHARTSTYLE:;
#DIFFICULTY:Easy;
#METER:6;
#RADARVALUES:0.227,0.249,0.044,0.087,0.000,167.000,5.000,10.000,0.000,0.000,0.000,0.000,0.000,0.227,0.249,0.044,0.087,0.000,167.000,5.000,10.000,0.000,0.000,0.000,0.000,0.000;
#CREDIT:;
#DISPLAYBPM:64.000;
#NOTES:
00000000
00000000
00000000
00000000
,
00000000
00000000
00000000
00000000
,
00000000
00000000
00000000
00000000
,
01000000
00000000
00100000
00000000
,
00010000
00000000
00010000
00000000
,
00010000
00000000
00010000
00000000
,
00011000
00000000
00011000
00000000
,
00001000
00000000
00001000
00000000
,
00000100
00000100
00000100
00000000
,
00000001
00000001
00000001
00000000
,
00001000
00001000
00001000
00000000
,
00000100
00000100
00000100
00011000
,
00100000
00100000
00100000
00000000
,
01000000
01000000
01000000
00000000
,
10000000
10000000
10000000
00000000
,
00010000
00010000
00010000
00000000
,
01000000
01000000
01000000
00000000
,
00100000
00100000
00100000
00000000
,
10000000
10000000
10000000
00000000
,
01000000
01000000
01000000
00000000
,
00010000
00000000
00001000
00000000
,
00000010
00000000
00001000
00000000
,
00010000
00000000
00000100
00000000
,
00001000
00000000
00000001
00000000
,
00000000
00000010
00000010
00000000
,
00000010
00001000
00001000
00000000
,
00000001
00000100
00000100
00000000
,
00000100
00001000
00001000
00010000
,
00100000
00100000
10000000
00000000
,
10000000
00010000
00010000
00000000
,
00010000
00100000
00100000
00001000
,
00022000
00000000
00000000
00033000
,
00010000
00000000
00000000
00000000
00000000
00000000
00000000
01000000
,
01000000
00000000
00000000
00000000
,
10010000
00000000
00000000
00000000
00000000
00000000
00000000
00001000
,
00001000
00000000
00000100
00000100
,
00000010
00000001
00000010
00000001
,
00001000
00000100
00001000
00000100
,
00010000
00000010
00010000
00000010
,
00001000
00000100
00010000
00001000
,
00100000
00010000
01000000
00010000
,
10000000
01000000
00010000
01000000
,
00100000
00010000
00001000
00000100
,
00001000
00000010
00000100
00000001
,
00001000
00000001
00000100
00001000
,
00010000
00100000
01000000
00010000
,
10000000
01000000
00010000
00001000
,
00000010
00000001
00000100
00000010
,
00000100
00000001
00001000
00002000
,
00003001
00000100
00001000
00020000
,
00031000
00100000
00010000
20000000
,
31000000
00010000
00001000
00000020
,
00000031
00000100
00000001
00000020
,
00000130
00001000
00010000
00200000
,
01300000
10000000
00010000
02000000
,
03001000
00010000
00000010
00000100
,
00002000
00000000
00000000
00000000
,
00003000
00000000
00000000
00000000
;

//---------------dance-double - ----------------
#NOTEDATA:;
#CHARTNAME:;
#STEPSTYPE:dance-double;
#DESCRIPTION:;
#CHARTSTYLE:;
#DIFFICULTY:Medium;
#METER:10;
#RADARVALUES:0.329,0.348,0.166,0.105,0.000,233.000,19.000,12.000,0.000,0.000,0.000,0.000,0.000,0.329,0.348,0.166,0.105,0.000,233.000,19.000,12.000,0.000,0.000,0.000,0.000,0.000;
#CREDIT:;
#DISPLAYBPM:128.000;
#NOTES:
00000000
00000000
00000000
00000000
,
00000000
00000000
00000000
00000000
,
00000000
00000000
00000000
00000000
,
00000020
00000000
00000230
00000000
,
00001300
00000000
00001000
00000000
,
00001000
00000000
00000000
00000000
00001000
00000000
00000000
00001000
,
00001002
00000000
00000203
00000000
,
00000310
00000000
00000000
00000000
00000010
00000000
00000100
00000100
,
00000100
00000100
00000100
00000100
,
00000100
00000100
00000100
00000100
,
00000100
00000100
00000100
00000100
,
00000100
00000100
00000100
00001001
,
00000001
00000000
00000100
00000000
00000010
00001000
00000010
00000000
,
00010000
00000000
00000100
00000000
00010000
00001000
00010000
00000000
,
00001000
00000000
00100000
00000000
00010000
00100000
00010000
00000000
,
10000000
00000000
00010000
00000000
01000000
00010000
01000000
00000000
,
00100000
00000000
10000000
00000000
01000000
10000000
01000000
00000000
,
00100000
00000000
00001000
00000000
00010000
00001000
00010000
00000000
,
00001000
00000000
00000100
00000000
00000010
00001000
00000010
00000000
,
00001000
00000000
00000001
00000000
00000010
00000100
00000010
00000000
,
00000001
00000101
00000100
00000110
,
00000010
00010010
00010000
00011000
,
00001000
01001000
01000000
01100000
,
00100000
10100000
10000000
10010000
,
00000000
00000000
01000000
00000000
00100000
00010000
10000000
00000000
,
01000000
00000000
10000000
00000000
00100000
01000000
00010000
00000000
,
00100000
00000000
00001000
00000000
00010000
00000100
00001000
00000000
,
00000100
00000000
00000010
00000000
00000001
00000100
00000010
00000000
,
00000100
00000000
00000001
00000000
00001000
00000001
00000100
00000000
,
00000010
00000000
00010000
00000000
00001000
00010000
01000000
00000000
,
00100000
00000000
00010000
00000000
10000000
00010000
10000000
00000000
,
01000000
10000000
00100000
00010000
00001000
00010000
00001000
00000100
,
00000010
00000000
00000000
00000000
,
00001001
00000000
00000000
00000000
,
00000100
00000000
00000000
00000000
,
00000010
00000000
00000100
00000100
,
00000001
00000100
00000001
00000100
,
00000010
00001000
00000010
00001000
,
00000100
00010000
00000100
00010000
,
00001000
00100000
00001000
00100000
,
00010000
10000000
00010000
00000000
01000000
00010000
01000000
00000000
,
00010000
00100000
00010000
00000000
10000000
00010000
10000000
00000000
,
01000000
01100000
00100000
00101000
,
00001000
00011000
00010000
00010100
,
00000100
00000010
00000100
00000000
00001000
00000100
00001000
00000000
,
00000010
00001000
00000010
00000000
00001000
00000001
00001000
00000000
,
00000001
00000101
00000100
00000110
,
00000010
00001010
00001000
00001100
,
00001000
00000000
00000100
00000000
00010000
00001000
00020000
00000000
,
00031000
00000000
01000000
00000000
00100000
10000000
00200000
00000000
,
01300000
00000000
00010000
00000000
10000000
00010000
20000000
00000000
,
31000000
00000000
00100000
00000000
00010000
10000000
00020000
00000000
,
00130000
00000000
00001000
00000000
00010000
00000100
00002000
00000000
,
00003001
00000000
00000100
00000000
00000010
00000100
00000002
00000000
,
00000103
00000000
00000010
00000000
00001000
00000100
00020000
00000000
,
00031000
00010000
00001000
00010000
01000000
00100000
00010000
00100000
,
02000000
00000000
00000000
00000000
,
03000000
00000000
00000000
00000000
;

//---------------dance-double - ----------------
#NOTEDATA:;
#CHARTNAME:;
#STEPSTYPE:dance-double;
#DESCRIPTION:;
#CHARTSTYLE:;
#DIFFICULTY:Hard;
#METER:11;
#RADARVALUES:0.390,0.398,0.157,0.131,0.000,280.000,18.000,15.000,0.000,0.000,0.000,0.000,0.000,0.390,0.398,0.157,0.131,0.000,280.000,18.000,15.000,0.000,0.000,0.000,0.000,0.000;
#CREDIT:;
#DISPLAYBPM:128.000;
#NOTES:
00000000
00000000
00000000
00000000
,
00000000
00000000
00000000
00000000
,
00000000
00000000
00000000
00000000
,
22000000
33000000
02020000
03030000
,
00010000
00000000
00010000
00000000
,
00010000
00000000
00010000
00000000
,
00010000
00000000
00010000
00000000
,
00010000
00000000
00000000
00000000
00010000
00000000
00001000
00001000
,
00010000
00001000
00010000
00001000
,
00010000
00001000
00010000
00001000
,
00010000
00001000
00010000
00001000
,
00010000
00001000
00010000
00011000
,
00010000
01000000
00100000
00000000
00100000
00001000
00010000
00000000
,
00001000
00010000
00001000
00000100
00000010
00000100
00000001
00000000
,
00000100
00001000
00010000
00000000
00001000
00010000
00100000
00000000
,
01000000
00010000
01000000
00100000
10000000
01000000
00100000
00000000
,
01000000
00010000
00001000
00000000
00100000
00001000
00010000
00000000
,
00001000
00000100
00000010
00010000
00001000
00000100
00000001
00000000
,
00000100
00001000
00010000
00000000
00000010
00010000
00001000
00000000
,
00010000
01000000
00100000
00010000
10000000
01000000
00010000
00000000
,
01000000
10000000
00100000
00010000
,
00001000
00000100
00000001
00000010
,
00001000
00010000
01000000
00100000
,
00010000
00001000
00000010
00000100
,
00000000
00000000
00001001
00000000
00000001
00000100
00000010
00000000
,
00000101
00000000
00001010
00000000
00000010
00010000
00001000
00100000
,
00010000
00000000
10010000
00000000
10000000
01000000
00100000
00000000
,
11000000
00000000
00110000
00000000
00100000
00001000
00010000
00000010
,
00000100
00000000
00000001
00000100
00000001
00000100
00000010
00001000
,
00000100
00000000
00010000
00001000
00010000
00001000
00100000
00010000
,
01000000
00000000
00100000
10000000
00010000
10000000
00010000
00100000
,
02000000
00000000
00100000
03000000
,
00011000
00000000
00000000
00000000
00000000
00000000
00000000
00001000
,
00010000
00000000
00000000
00000000
,
02010000
00000000
00000000
03000000
,
00200000
00000000
00010000
00310000
,
00100000
10000000
00100000
00000000
01000000
00010000
01000000
00000000
,
00001000
00100000
00001000
00000000
00010000
00000100
00010000
00000000
,
00000010
00001000
00000010
00000000
00000100
00000001
00000100
00000000
,
00000010
00001000
00000001
00001000
00000100
00000010
00000100
00000000
,
00000100
00001000
00000100
00001000
00000001
00000010
00000001
00000010
,
00000100
00010000
00000100
00010000
00001000
00100000
00001000
00100000
,
00010000
01000000
00010000
01000000
00100000
10000000
00100000
10000000
,
01000000
00100000
00010000
00001000
00000100
00000010
00000001
00000100
,
00000010
00001000
00000010
00001000
00000001
00000100
00000001
00000100
,
00000010
00010000
00000100
00010000
00001000
00100000
00001000
00010000
,
01000000
10000000
01000000
10000000
00010000
00100000
00010000
00100000
,
01000000
00100000
00001000
00010000
00000100
00000010
00001000
00010000
,
01000000
00000000
01100000
00000000
01000000
10000000
00020000
00000000
,
01030000
00000000
01100000
00000000
00100000
10000000
00020000
00000000
,
01030000
00000000
01001000
00000000
00001000
00010000
00002000
00000000
,
00013000
00000000
00010100
00000000
00010000
00001000
00020000
00000000
,
00030010
00000000
00000110
00000000
00000100
00000001
00002000
00000000
,
00003100
00000000
00000110
00000000
00000100
00001000
00000002
00000000
,
00000103
00000000
00001100
00000000
00001000
00010000
00200000
00000000
,
01300000
00010000
01000000
00010000
00100000
00001000
00100000
00001000
,
00020000
00000000
00000000
00000000
,
00030000
00000000
00000000
00000000
;
