#TITLE:Oblivion;
#SUBTITLE:MELODIC TRANCE;
#ARTIST:ESTi;
#TITLETRANSLIT:;
#SUBTITLETRANSLIT:;
#ARTISTTRANSLIT:;
#GENRE:;
#CREDIT:;
#BANNER:Oblivion.png;
#BACKGROUND:Oblivion-bg.png;
#LYRICSPATH:;
#CDTITLE:;
#MUSIC:Oblivion.mp3;
#OFFSET:-0.108;
#SAMPLESTART:69.954;
#SAMPLELENGTH:12.000;
#SELECTABLE:YES;
#DISPLAYBPM:70.500:141.000;
#BPMS:0.000=70.500
,28.000=141.000
;
#STOPS:
;
#BGCHANGES:;
#KEYSOUNDS:;
#ATTACKS:;

//---------------dance-single - ----------------
#NOTES:
     dance-single:
     :
     Hard:
     13:
     0.443,0.492,0.211,0.178,0.211,335.000,26.000,22.000,0.000,0.000,0.000,0.443,0.492,0.211,0.178,0.211,335.000,26.000,22.000,0.000,0.000,0.000:
0000
0000
0000
0000
,
0000
0000
0000
0000
,
0000
0000
0000
0000
,
0000
0000
0000
0000
0000
0000
0000
0000
0000
0000
0000
0000
0001
0100
0001
0100
,
0020
0000
0100
0000
1030
0010
0001
0100
,
2000
0000
0001
0000
3100
0001
0010
1000
,
0200
0000
0000
0000
0000
0000
0010
0010
0310
0000
0000
0000
0010
0000
0001
0000
,
1100
0000
0011
0000
,
1001
1001
1001
1001
,
1000
0000
0000
0100
1000
0000
0000
0000
0001
0000
0000
0010
0001
0000
0000
0000
,
0100
0000
0000
0010
1000
0000
0000
0000
0100
0000
0000
0010
0001
0000
0000
0000
,
1000
0000
0000
0010
1000
0000
0000
0000
0001
0000
0000
0100
0001
0000
0000
0000
,
0010
0000
0000
0001
0100
0000
0000
0000
0010
0000
0000
1000
0100
0000
0000
0000
,
0010
0000
0000
0001
0100
0000
0000
0001
1000
0000
0000
0001
0010
0000
0000
0010
,
0100
0000
0000
1000
0100
0000
0000
1000
0001
0000
0000
1000
0010
0000
0000
0010
,
0100
0000
0000
0100
0010
0000
0000
1000
0001
0000
0000
0001
1000
0000
0000
1000
,
0100
0000
0010
0000
0001
0000
1000
0000
0100
0010
0100
0010
0100
0010
0100
0000
,
2002
3003
0000
0000
0000
0000
0000
0000
0000
0000
0000
0000
0001
0000
0000
0000
0000
0000
0100
0000
0000
0000
0000
0000
0001
0000
0000
0000
0000
0000
0000
0000
0000
1000
0000
0000
0000
0000
0000
0001
0000
0000
0000
0000
0000
0000
0000
0000
,
0010
0000
0100
0000
1000
0000
0100
0000
1000
0000
0000
0001
0000
1000
0000
0000
,
0010
0000
0100
0000
1001
0000
0000
0001
0000
0000
0100
0000
0101
0000
0000
0010
,
0000
0000
1000
0000
1100
0000
0000
1000
0000
0000
0010
0000
0110
0000
0100
0000
,
0001
0000
0100
0000
0010
0000
1000
0000
0010
0000
0000
1000
0000
0100
0000
0000
,
1000
0000
0001
0000
0010
0000
0001
0000
0010
0000
0000
0001
0000
0100
0000
0000
,
0001
0000
1000
0000
0110
0000
0000
1000
0000
0000
0010
0000
1010
0000
0000
0100
,
0000
0000
0001
0000
0101
0000
0000
0001
0000
0000
0010
0000
0110
0000
0100
0000
,
1000
0001
0100
0100
0010
1000
0001
1000
,
0001
0100
0010
0010
0100
0001
1000
0001
,
1000
0100
1000
0010
0001
1000
0001
0010
,
1000
0001
0010
0001
0100
1000
0100
0001
,
0100
0100
0000
0001
1000
0001
0100
0001
,
0000
0000
0000
1000
0001
1000
0100
1000
,
0000
0110
0010
0010
,
0100
2002
0000
0000
,
3003
0000
1000
0010
0100
0001
1000
0001
,
0100
1020
0100
0001
,
0130
0000
0010
1000
0001
1000
0010
0001
,
0010
1000
0200
0000
1000
0000
0010
0000
,
0301
0000
0100
1000
0001
1000
0010
0100
,
0010
1000
2001
0000
0000
0000
3100
0000
,
0100
0000
1000
0010
0001
0000
0001
0100
,
1000
0000
1000
0010
0100
0010
0001
0010
,
1000
0000
0100
0000
0020
0000
0000
0000
0130
0000
0000
0000
0010
0000
0000
0001
,
0100
0000
0011
1000
0100
0000
1010
0001
,
0100
0000
0000
0000
0010
0000
1000
0000
0010
0000
1000
0000
0010
0000
0000
1000
,
0010
0000
0101
1000
0010
0000
1100
0001
,
0010
0220
0000
0330
,
0100
1000
0001
0000
0011
0000
0010
0001
,
1000
0001
0100
0010
1000
0100
1000
0001
,
0100
0010
0100
0001
0010
1000
0010
0100
,
1000
0000
0010
0000
0100
0000
0000
0000
0000
0000
0001
0100
0001
0000
1000
0000
,
0001
0000
1000
0000
0100
0000
0000
0000
0000
0000
0010
0100
0020
0000
0000
0000
,
0030
0000
0000
0000
0001
0000
0000
0000
0000
0000
1000
0100
1000
0000
0010
0000
,
1000
0000
0001
0000
0100
0000
0000
0000
0000
0000
0100
0010
0200
0000
0000
0000
,
0300
0000
0000
0000
0010
0000
0000
0000
0000
0000
1000
0001
1000
0000
0010
0000
,
1000
0000
0100
0000
0010
0000
0000
0000
0000
0000
0001
0100
0002
0000
0000
0000
,
0003
0000
2000
3000
0020
0030
0002
0003
,
0200
0000
0300
0000
0002
0000
0003
0000
0000
0000
1000
0100
0001
0000
0000
0000
,
0000
0000
0001
0100
2000
0000
0000
0000
0000
0000
0000
0000
0000
0000
0000
0000
,
0000
0000
0000
0000
,
0000
0000
0000
0000
,
3000
0000
0000
1001
0000
0000
1000
0001
1000
0001
0000
0000
;

//---------------dance-single - ----------------
#NOTES:
     dance-single:
     :
     Easy:
     5:
     0.207,0.222,0.194,0.138,0.000,138.000,24.000,17.000,0.000,0.000,0.000,0.207,0.222,0.194,0.138,0.000,138.000,24.000,17.000,0.000,0.000,0.000:
0000
0000
0000
0000
,
0000
0000
0000
0000
,
0000
0000
0000
0000
,
0000
0000
0000
0000
,
0200
0000
0010
0010
,
0320
0000
1000
1000
,
2030
0000
0001
0000
,
3001
0000
0001
0000
,
0100
0100
0100
0100
,
0010
0000
0010
0000
,
1000
0000
1000
0000
,
0001
0000
0001
0000
,
0100
0000
0100
0000
,
0010
0000
1001
0000
,
0100
0000
1001
0000
,
1000
0000
0110
0000
,
0001
0000
0110
0000
,
1001
0100
0100
0001
,
0000
0001
0001
0001
,
0000
1000
0000
1001
,
0000
0001
0000
1001
,
0000
0010
0010
0100
,
0000
0100
0100
1000
,
0000
0010
0000
0110
,
0000
0100
0000
0110
,
0000
0001
0001
1000
,
0000
1000
0100
0100
,
0000
0001
0000
1001
,
0000
1000
0000
1001
,
0000
0010
0010
0010
,
0000
0100
0100
0100
,
0000
2002
0000
0000
,
3003
0220
0000
0000
,
0330
0200
0001
0000
,
0301
0002
0010
0000
,
0013
0010
0100
0010
,
0100
0020
0000
0000
,
0030
0001
1000
0001
,
1000
0002
0000
0100
,
0103
0200
0000
0000
,
0310
1001
0000
0100
,
0100
0020
0000
0000
,
0000
1030
1000
1000
,
1000
1002
0000
0000
,
0000
0103
0100
0100
,
0100
0120
0000
1030
,
1001
0002
0000
0103
,
0110
0010
0000
0010
,
0000
0100
0100
0100
,
0100
1001
0000
0001
,
0100
1000
0000
1000
,
0000
1001
0000
1000
,
0100
0001
0000
0001
,
0000
0110
0000
0010
,
1000
0100
0000
0100
,
0000
0001
0100
1000
,
0010
0001
0000
1000
,
0000
2001
0000
0000
,
0000
0000
0000
0000
,
0000
0000
0000
3000
,
0000
1001
0000
0110
;

//---------------dance-single - ----------------
#NOTES:
     dance-single:
     :
     Medium:
     9:
     0.318,0.320,0.057,0.438,0.000,214.000,7.000,54.000,0.000,0.000,0.000,0.318,0.320,0.057,0.438,0.000,214.000,7.000,54.000,0.000,0.000,0.000:
0000
0000
0000
0000
,
0000
0000
0000
0000
,
0000
0000
0000
0000
,
0000
0000
0000
0000
0000
0000
1000
0001
,
2000
0000
0000
0000
3001
0100
0010
1000
,
0200
0000
0000
0000
1300
0100
0010
0001
,
2000
0000
0000
0000
3002
0000
0103
0010
,
2000
0000
0001
3000
,
0102
0100
1000
1003
,
1000
0000
0100
0000
0010
0001
0010
0000
,
0001
0000
0100
0000
0010
1000
0010
0000
,
1000
0000
0001
0000
0100
0001
0100
0000
,
0001
0000
1000
0000
0100
1000
0100
0000
,
0010
0000
0100
0000
1000
0001
1000
0000
,
0010
0000
0100
0000
0001
1000
0001
0000
,
1000
0000
0010
0000
0100
0001
0100
0000
,
0001
0000
0010
0000
0100
1000
0100
0000
,
1001
2000
0100
0100
,
0100
0001
0001
0001
,
3001
0020
1000
0100
,
1000
1000
0100
1000
,
1030
0200
0001
0001
,
0001
0010
0010
0010
,
0310
0002
0010
1000
,
0010
0010
1000
1000
,
0013
2000
0010
0010
,
3010
0002
0100
0100
,
0103
0020
1000
1000
,
0130
0200
0001
0001
,
0310
0000
0000
0001
1000
0001
1000
0001
,
1000
0000
0000
1000
0001
1000
0001
1000
,
0100
0220
0000
0300
,
0000
0100
0100
0130
,
0100
0000
1002
0000
0100
0100
0100
0000
,
0100
0020
0000
0000
,
0033
2000
3002
0203
,
0320
0230
0001
0001
,
0301
2000
3020
0230
,
0302
0023
0100
0000
,
0130
2000
0000
0000
,
3001
0001
0002
0000
1000
0000
1003
0001
,
1000
0001
0200
0000
0010
0000
0000
0000
,
0310
0002
0203
0320
,
2030
0200
0000
3300
,
0000
0020
0032
2003
,
3020
0230
0001
0000
,
0001
0001
0302
0000
1000
0000
0000
0000
,
1000
2003
0100
0000
,
0010
0010
3020
0000
0000
0000
0100
0000
,
0000
0000
0130
0000
0000
0000
0001
1000
,
0001
1000
0002
0000
0000
0000
1000
0000
,
0003
0000
0010
0000
0000
0000
1000
0001
,
1000
0001
2000
0000
0000
0000
0010
0000
,
3000
0000
0100
0000
0000
0000
0001
0010
,
0001
0010
0002
0000
0000
0000
1003
0000
,
0000
2000
3020
0230
,
0302
2003
0000
0002
,
3000
0203
0000
0000
,
0000
0000
0000
0000
,
0000
0000
0000
0300
,
0000
1001
1001
0110
;

//---------------dance-single - ----------------
#NOTES:
     dance-single:
     :
     Beginner:
     1:
     0.076,0.098,0.024,0.024,0.000,60.000,3.000,3.000,0.000,0.000,0.000,0.076,0.098,0.024,0.024,0.000,60.000,3.000,3.000,0.000,0.000,0.000: // measure 0
0000
0000
0000
0000
,  // measure 1
0000
0000
0000
0000
,  // measure 2
0000
0000
0000
0000
,  // measure 3
0000
0000
0000
0000
,  // measure 4
1000
0000
0000
0000
,  // measure 5
0001
0000
0000
0000
,  // measure 6
1000
0000
0000
0000
,  // measure 7
0001
0000
0000
0000
,  // measure 8
0001
0000
0000
0000
,  // measure 9
0100
0000
0000
0000
,  // measure 10
0100
0000
0000
0000
,  // measure 11
0100
0000
0000
0000
,  // measure 12
0100
0000
0000
0000
,  // measure 13
0010
0000
0000
0000
,  // measure 14
0010
0000
0000
0000
,  // measure 15
0010
0000
0000
0000
,  // measure 16
0010
0000
0000
0000
,  // measure 17
1001
1000
0000
0000
,  // measure 18
0000
1000
0000
0000
,  // measure 19
0000
0100
0000
0000
,  // measure 20
0000
0001
0000
0000
,  // measure 21
0000
0010
0000
0000
,  // measure 22
0000
0010
0000
0000
,  // measure 23
0000
0001
0000
0000
,  // measure 24
0000
0100
0000
0000
,  // measure 25
0000
0001
0000
0000
,  // measure 26
0000
1000
0000
0000
,  // measure 27
0000
0100
0000
0000
,  // measure 28
0000
1000
0000
0000
,  // measure 29
0000
0010
0000
0000
,  // measure 30
0000
0010
0000
0000
,  // measure 31
0000
0200
0000
0000
,  // measure 32
0000
0000
0000
0300
,  // measure 33
0000
0100
0000
0000
,  // measure 34
0000
0100
0000
0000
,  // measure 35
0000
0001
0000
0001
,  // measure 36
0000
0001
0000
0000
,  // measure 37
0000
1000
0000
1000
,  // measure 38
0000
1000
0000
0000
,  // measure 39
0000
0100
0000
0000
,  // measure 40
0000
0100
0000
0000
,  // measure 41
0000
0010
0000
0000
,  // measure 42
0000
1000
0000
1000
,  // measure 43
0000
1000
0000
0000
,  // measure 44
0000
0001
0000
0001
,  // measure 45
0000
0001
0000
0000
,  // measure 46
0000
0100
0000
0000
,  // measure 47
0000
0100
0000
0000
,  // measure 48
0000
0020
0000
0000
,  // measure 49
0030
1000
0000
0000
,  // measure 50
0000
0001
0000
0000
,  // measure 51
0000
0100
0000
0000
,  // measure 52
0000
0010
0000
0000
,  // measure 53
0000
1000
0000
0000
,  // measure 54
0000
0001
0000
0000
,  // measure 55
0000
0100
0000
0000
,  // measure 56
0000
0010
0000
0000
,  // measure 57
0000
2000
0000
0000
,  // measure 58
0000
0000
0000
0000
,  // measure 59
0000
0000
0000
3000
,  // measure 60
0000
1001
0000
1001
;

//---------------dance-double - ----------------
#NOTES:
     dance-double:
     :
     Hard:
     13:
     0.462,0.492,0.170,0.284,0.296,343.000,21.000,35.000,0.000,0.000,0.000,0.462,0.492,0.170,0.284,0.296,343.000,21.000,35.000,0.000,0.000,0.000:
00000000
00000000
00000000
00000000
,
00000000
00000000
00000000
00000000
,
00000000
00000000
00000000
00000000
,
00000000
00000000
00000000
00000000
00000000
00000000
00000000
00000000
00000000
00000000
00000000
00000000
00010000
00000100
00001000
00000100
,
00000020
00000000
00000000
00000000
00000000
00000000
00000000
00000000
00000031
00000100
00000010
00001000
00000100
00010000
00001000
01000000
,
00200000
00000000
00000000
00000000
00000000
00000000
00000000
00000000
10300000
00100000
01000000
00010000
00100000
00001000
00010000
00000010
,
00000200
00000000
00000000
00000000
00000000
00000000
00000010
00000010
00000320
00000000
00000000
00000000
00001000
00000000
00001000
00000000
,
00001030
00000010
00001000
00000010
00010000
00000100
00010000
00000100
,
01000000
00001000
01000000
00001000
10000000
00100000
10000000
00100000
,
01000000
00000000
00000000
00010000
01000000
00000000
00000000
01000000
10000000
00000000
00000000
10000000
00100000
00000000
00000000
00100000
,
01000000
00000000
00000000
01000000
00010000
00000000
00000000
00010000
00001000
00000000
00000000
00001000
00000100
00000000
00000000
00000100
,
00000010
00000000
00000000
00000010
00000001
00000000
00000000
00000001
00000100
00000000
00000000
00000100
00001000
00000000
00000000
00001000
,
00000001
00000000
00000000
00000001
00001000
00000000
00000000
00001000
00010000
00000000
00000000
00010000
10000000
00000000
00000000
10000000
,
01000000
00000000
00000000
01000000
00100000
00000000
00000000
00100000
10000000
00000000
00000000
00010000
01000000
00000000
00000000
00010000
,
00001000
00000000
00000000
00001000
01000000
00000000
00000000
01000000
00010000
00000000
00000000
00001000
00000010
00000000
00000000
00001000
,
00000100
00000000
00000000
00000010
00001000
00000000
00000000
00000001
00000100
00000000
00000000
00000100
00001000
00000000
00000000
00001000
,
00000010
00000000
00000000
00000100
00001000
00000000
00000000
00001000
00010000
00000000
00000000
00010000
00100000
00000000
00000000
00000000
,
20020000
30030000
00000000
00000000
00000000
00000000
00000000
00000000
00000000
00000000
00000000
00000000
10000000
00000000
00000000
00000000
00000000
00000000
00100000
00000000
00000000
00000000
00000000
00000000
00010000
00000000
00000000
00000000
00000000
00000000
00000000
00000000
00000000
00001000
00000000
00000000
00000000
00000000
00000000
00010000
00000000
00000000
00000000
00000000
00000000
00000000
00000000
00000000
,
00001000
00000000
00000100
00000000
00000001
00000000
00000010
00000000
00001000
00000000
00000000
00010000
00000000
00001000
00000000
00000000
,
00010000
00000000
01000000
00000000
00100000
00000000
00000000
00110000
00000000
00000000
10000000
00000000
00100000
00000000
00000000
10100000
,
00000000
00000000
01000000
00000000
10000000
00000000
00000000
11000000
00000000
00000000
00010000
00000000
00100000
00000000
00010000
00000000
,
00001000
00000000
00010000
00000000
00001000
00000000
00000100
00000000
00000010
00000000
00000000
00000100
00000000
00000001
00000000
00000000
,
00000010
00000000
00001000
00000000
00010000
00000000
01000000
00000000
00100000
00000000
00000000
01000000
00000000
10000000
00000000
00000000
,
00100000
00000000
00010000
00000000
00001000
00000000
00000000
00101000
00000000
00000000
00100000
00000000
00010000
00000000
00000000
11000000
,
00000000
00000000
00010000
00000000
00001000
00000000
00000000
00010100
00000000
00000000
00001000
00000000
00000100
00000000
00000010
00000000
,
00000001
00000100
00000010
00001000
00000100
00001000
00000001
00001000
,
00000001
00000100
00001000
00010000
00100000
01000000
00100000
10000000
,
00010000
10000000
01000000
10000000
00100000
00010000
10000000
00010000
,
00100000
10000000
01000000
00010000
00001000
00000010
00000100
00001000
,
00000001
00000000
00000000
00000100
00001000
00010000
00200000
00000000
,
10300000
00000000
00000000
01000000
00010000
00001000
00000020
00000000
,
00000031
00000101
00000001
00000100
,
00000100
00001010
00010100
00101000
,
01010000
00000000
00100000
10000000
00010000
00000000
01000000
00010000
,
10000000
10200000
01000000
00010000
,
00301000
00000000
00000020
00001030
00000200
00000301
00000200
00001300
,
00000020
00000130
00000002
00000000
00000010
00000000
00000100
00000000
,
00001003
00000000
00000200
00001300
00020000
00130000
20000000
31000000
,
00200000
00310000
00002000
00000000
00000000
00000000
00010000
00000000
,
00103000
00021000
00000000
00000000
,
00031000
00000100
00000020
00000000
00000100
00000000
00001030
00000100
,
00010000
00001000
00020000
00000000
00001000
00000000
00000100
00000000
,
00031000
00000000
00000000
00000000
00001000
00000000
00000000
01000000
00010000
00000000
00000000
10000000
00010000
00000000
00000000
00100000
,
00010000
20010000
00100000
00010000
,
31000000
00000000
00000000
00000000
00100000
00000000
00000000
01000000
10000000
00000000
00000000
00001000
00100000
00000000
00000000
00000100
,
00010000
00000000
00000000
00000001
00000020
00000000
00000000
00000000
00000100
00000000
00000000
00000000
00001030
00000000
00000000
00000000
,
00000001
00000100
00001020
00000000
00000000
00000000
00000100
00000000
,
00000130
00001010
00000000
00000101
,
00000000
00000000
00000100
00001000
00010000
00001000
00010000
01000000
,
00100000
00000000
00010000
00000000
00200000
00000000
00300000
00000000
00000000
00000000
00010000
01000000
00010000
00000000
10000000
00000000
,
00100000
00000000
00010000
00000000
00001000
00000000
00000000
00000000
00000000
00000000
00010000
00001000
00020000
00000000
00000000
00000000
,
00030000
00000000
00000000
00000000
00101000
00000000
00000000
00000000
00000000
00000000
00010000
00001000
00010000
00000000
00000100
00000000
,
00001000
00000000
00000001
00000000
00000100
00000000
00000000
00000000
00000000
00000000
00000010
00000001
00000020
00000000
00000000
00000000
,
00000030
00000000
00000000
00000000
00001100
00000000
00000000
00000000
00000000
00000000
00000100
00010000
00000100
00000000
00010000
00000000
,
00001000
00000000
01000000
00000000
00100000
00000000
00000000
00000000
00000000
00000000
00100000
10000000
00200000
00000000
00000000
00000000
,
00300000
20000000
30200000
00320000
,
00032000
00000000
00000000
00000000
00003200
00000000
00000000
00000000
00000300
00000000
00000001
00000100
00001000
00000000
00000000
00000000
,
00000000
00000000
00010000
01000000
20000000
00000000
00000000
00000000
00000000
00000000
00000000
00000000
00000000
00000000
00000000
00000000
,
00000000
00000000
00000000
00000000
,
00000000
00000000
00000000
00000000
,
30000000
00000000
00000000
10010000
00000000
00000000
10000000
00010000
10000000
00010000
00000000
00000000
;

//---------------dance-double - ----------------
#NOTES:
     dance-double:
     :
     Medium:
     10:
     0.340,0.345,0.089,0.429,0.000,230.000,11.000,53.000,0.000,0.000,0.000,0.340,0.345,0.089,0.429,0.000,230.000,11.000,53.000,0.000,0.000,0.000:
00000000
00000000
00000000
00000000
,
00000000
00000000
00000000
00000000
,
00000000
00000000
00000000
00000000
,
00000000
00000000
00000000
00000000
00000000
00000000
00010000
00001000
,
00020000
00000000
00000000
00000000
00031000
00000100
00000010
00001000
,
00000002
00000000
00000000
00000000
00000103
00000010
00001000
00000100
,
00020000
00000000
00000000
00031000
01000000
00000000
00100000
10000000
,
02000000
00000000
00100000
03000000
,
10010000
00010000
00010000
00010000
,
01000000
00010000
01000000
00000000
00100000
10000000
00010000
00000000
,
01000000
00001000
00010000
00000000
00001000
00100000
00010000
00000000
,
00100000
01000000
00010000
00000000
00001000
00000100
00000010
00000000
,
00000100
00000001
00001000
00000001
00001000
00000001
00001000
00000000
,
00000100
00001000
00000001
00000000
00000010
00000001
00000100
00000000
,
00000010
00000100
00001000
00000000
00010000
00100000
10000000
00000000
,
01000000
10000000
00100000
00000000
01000000
00010000
01000000
00000000
,
00100000
10000000
00010000
10000000
00010000
10000000
01000000
00000000
,
10010000
20100000
00010000
00010000
,
30010000
02000000
00100000
00100000
,
03100000
00020000
00001000
00000100
,
00001000
00000000
00000010
00000000
00030010
00000000
00000010
00001000
,
00000010
00000102
00001000
00001000
,
00001003
00000200
00000010
00001000
,
00010300
00002000
00000010
00000001
,
00000100
00000000
00000001
00000000
00003001
00000000
00010000
00001000
,
00010000
00102000
00010000
00010000
,
00013000
02000000
00010000
00001000
,
03010000
00002000
00100000
00010000
,
01000000
00000000
01000000
00000000
00013000
00000000
00000100
00001000
,
00000100
00000000
00000000
00000010
00000001
00000010
00000000
00000100
,
00000100
00000000
00000000
00001000
00000100
00001000
00000000
00010000
,
00010000
00220000
00000000
00000000
,
00030000
01000000
01000000
01300000
,
01000000
00000000
10020000
00000000
01000000
01000000
01000000
00000000
,
01000000
20000000
00000000
00000000
,
30030000
20000000
30200000
00320000
,
00032000
00003200
00000001
00000001
,
00000301
00000020
00002030
00003002
,
00000203
00020300
00001000
00000000
,
00031000
00001000
02000000
00000000
00000000
00000000
00000000
00000000
,
03010000
00010000
00020000
00000000
00100000
00030000
00100000
00010000
,
00100000
00010000
02000000
00000000
00100000
00000000
00000000
00000000
,
03100000
02000000
03200000
00320000
,
00032000
00003200
00000010
00000000
,
00000310
00000200
00000320
00002030
,
00023000
02030000
00010000
00000000
,
00010000
00010000
03020000
00000000
00100000
00000000
00000000
00000000
,
10000000
20030000
01000000
00000000
,
00010000
00010000
30020000
00000000
00100000
00000000
00000000
00000000
,
00130000
00000000
00011000
00000000
00000000
00000000
00010000
00001000
,
00010000
00001000
00020000
00000000
00000000
00000000
00001000
00000000
,
00030000
00000000
00000100
00000000
00000000
00000000
00000010
00001000
,
00000010
00001000
00000020
00000000
00000000
00000000
00000001
00000000
,
00000030
00000000
00001000
00000000
00000000
00000000
00000100
00010000
,
00000100
00010000
00000200
00000000
00000000
00000000
00001300
00000000
,
00000000
00000200
00002300
00003002
,
00000203
00002300
00003000
00020000
,
00030000
02000000
00000000
00000000
,
00000000
00000000
00000000
00000000
,
00000000
00000000
00000000
03000000
,
00000000
10010000
10010000
01100000
;

//---------------dance-double - ----------------
#NOTES:
     dance-double:
     :
     Easy:
     5:
     0.210,0.271,0.227,0.154,0.000,134.000,28.000,19.000,0.000,0.000,0.000,0.210,0.271,0.227,0.154,0.000,134.000,28.000,19.000,0.000,0.000,0.000:
00000000
00000000
00000000
00000000
,
00000000
00000000
00000000
00000000
,
00000000
00000000
00000000
00000000
,
00000000
00000000
00000000
00000000
,
02000000
00000000
00010000
00010000
,
03020000
00000000
00000100
00000100
,
00030200
00000000
00000320
00000000
,
00001030
00000000
00001000
00000000
,
00000001
00000001
00000001
00000001
,
00000100
00000000
00000100
00000000
,
00000010
00000000
00000010
00000000
,
00010000
00000000
00010000
00000000
,
00001000
00000000
00001000
00000000
,
00100000
00000000
10010000
00000000
,
01000000
00000000
10010000
00000000
,
00100000
00000000
00011000
00000000
,
00000100
00000000
00011000
00000000
,
10010000
10000000
10000000
01000000
,
00000000
00100000
00100000
01000000
,
00000000
10000000
00000000
10010000
,
00000000
00010000
00000000
00011000
,
00000000
00000100
00000100
00000010
,
00000000
00001000
00001000
00000001
,
00000000
00000010
00000000
00000110
,
00000000
00000100
00000000
00011000
,
00000000
00010000
00010000
01000000
,
00000000
00100000
00100000
00010000
,
00000000
00001000
00000000
00011000
,
00000000
00010000
00000000
00011000
,
00000000
00000100
00000100
00000100
,
00000000
00010000
00010000
00010000
,
00000000
00022000
00000000
00033000
,
00000000
02200000
00000000
00000000
,
03300000
02000000
00100000
00000000
,
03100000
20000000
00100000
00000000
,
30100000
01000000
00010000
01000000
,
00010000
00200000
00000000
00000000
,
00300000
00001000
00010000
00001000
,
00010000
00000200
00000000
00000000
,
00000300
00000020
00000000
00000000
,
00000031
00000002
00000000
00001003
,
00001000
00001002
00000000
00000000
,
00000003
00000100
00000100
00000100
,
00000100
00000120
00000000
00000000
,
00000000
00001030
00001000
00001000
,
00001000
00021000
00000000
00000000
,
00031000
00002000
00000000
01003000
,
00000000
01100000
00000000
01100000
,
00000000
10010000
10010000
10010000
,
10010000
10010000
00000000
10000000
,
01000000
00010000
00000000
00001000
,
00000000
00011000
00000000
00001000
,
00000100
00000001
00000000
00001000
,
00000000
00000110
00000000
00000100
,
00001000
00010000
00000000
00100000
,
00000000
00010000
00100000
10000000
,
01000000
00010000
00000000
10000000
,
00000000
20010000
00000000
00000000
,
00000000
00000000
00000000
00000000
,
00000000
00000000
00000000
30000000
,
00000000
10010000
00000000
01100000
;
