#TITLE:My Heart, My Soul;
#SUBTITLE:R&B Slow;
#ARTIST:3rd coast;
#TITLETRANSLIT:;
#SUBTITLETRANSLIT:;
#ARTISTTRANSLIT:;
#GENRE:;
#CREDIT:;
#BANNER:My Heart, My Soul.png;
#BACKGROUND:My Heart, My Soul-bg.png;
#LYRICSPATH:;
#CDTITLE:;
#MUSIC:My Heart, My Soul.mp3;
#OFFSET:1.673;
#SAMPLESTART:101.475;
#SAMPLELENGTH:12.000;
#LASTBEATHINT:1.348;
#SELECTABLE:YES;
#DISPLAYBPM:123.000;
#BPMS:0.000=122.990
;
#STOPS:
;
#BGCHANGES:;
#KEYSOUNDS:;
#ATTACKS:;

//---------------dance-single - ----------------
#NOTES:
     dance-single:
     :
     Hard:
     10:
     0.412,0.402,0.122,0.521,0.077,275.000,15.000,64.000,0.000,0.000,0.000,0.412,0.402,0.122,0.521,0.077,275.000,15.000,64.000,0.000,0.000,0.000:
0000
0000
0000
0000
,
0000
0000
0000
0000
,
0000
0000
0000
0000
,
0000
0000
0000
0000
,
0000
0000
0000
0000
,
0001
0100
1000
0100
0001
1000
0100
0000
,
0010
0010
0100
0100
,
1000
0010
0001
0010
1000
0001
0010
0000
,
0100
0100
0010
0010
,
0100
1000
0010
1000
0001
0010
1000
0000
,
0010
0010
0001
0001
,
0100
0010
0100
0000
0010
0100
0010
0000
,
2000
0001
0001
3001
,
0200
0000
0000
0020
0000
0000
0330
0000
,
0001
0000
0000
1000
0000
0000
0002
0000
0000
0000
0000
0000
1003
0000
0000
0000
,
0100
0000
0000
0100
0000
0000
0200
0000
0000
0000
0000
0000
0310
0000
0000
0000
,
0001
0100
0001
0100
0010
0100
0010
0000
,
2000
0000
0000
0002
0000
0000
3003
0000
,
0100
0001
1000
0010
,
0100
0000
0001
0100
1000
0100
0001
0000
,
1001
0110
1010
0101
,
1000
0000
0000
2002
0000
0000
3003
0000
,
0001
0000
0000
2002
0000
0000
3003
0000
,
1000
0010
0001
0010
1000
0001
1000
0000
,
0100
0000
0010
0000
0100
0010
0010
0000
,
0001
0000
0000
0220
0000
0000
0330
0000
,
1000
0000
0000
0220
0000
0000
0330
0000
,
0010
1000
0100
0000
0010
0001
0100
0000
,
0010
0100
0010
0100
0010
0100
0010
0000
,
1000
0000
0200
0000
0001
0001
0301
0000
,
0001
0000
0000
0100
0000
0000
2000
0000
0000
0000
0000
0000
3001
0000
0000
0000
,
0001
0000
0200
0000
1000
1000
1300
0000
,
1000
0000
0000
0100
0000
0000
0002
0000
0000
0000
0000
0000
1003
0000
0000
0000
,
1000
0010
0002
0000
0010
0010
0013
0000
,
0001
0000
0000
0010
0000
0000
2000
0000
0000
0000
0000
0000
3001
0000
0000
0000
,
0001
0010
1000
0000
1000
1000
1000
0000
,
1000
0010
0001
1000
0001
0100
1000
0100
,
0002
0000
0000
0203
0000
0000
0320
0000
0000
0000
0030
0000
0100
0010
0000
0000
,
2000
0000
0000
3200
0000
0000
0320
0000
0000
0000
0030
0000
0100
0010
0000
0000
,
0002
0000
0000
2003
0000
0000
3002
0000
0000
0000
0003
0000
1000
0010
0000
0000
,
2000
0000
0000
3002
0000
0000
2003
0000
0000
0000
3000
0000
0001
0010
0000
0000
,
0200
0000
0000
2300
0000
0000
3020
0000
0000
0000
0030
0000
0001
0010
0000
0000
,
0200
0000
0000
0302
0000
0000
0023
0000
0000
0000
0030
0000
1000
0010
0000
0000
,
0002
0000
0000
2003
0000
0000
3020
0000
0000
0000
0030
0000
0100
0001
0000
0000
,
2000
3002
2003
3020
,
0130
0000
0100
2002
0000
0000
3003
0000
,
0010
0000
0010
2002
0000
0000
3003
0000
,
1000
0010
0100
0010
1000
0001
0010
0000
,
0100
0010
0001
0000
1001
0000
0110
0000
,
1000
0000
1000
0220
0000
0000
0330
0000
,
0001
0000
0001
0220
0000
0000
0330
0000
,
0010
0100
0010
0100
0010
0100
0010
0000
,
2000
3020
0230
0302
,
1003
0100
1000
0002
0000
1000
1003
0000
,
0001
0010
0001
2000
0000
0001
3001
0000
,
0100
0000
0001
0000
0100
0010
0100
0000
,
0010
1000
0001
1000
0001
0010
0100
0000
,
0010
0001
0100
2000
0000
0100
3100
0000
,
0100
0001
0010
2000
0000
0010
3010
0000
,
0010
0001
1000
0000
0100
1000
0001
0000
,
1000
0010
0001
0010
0100
0010
1000
0000
,
2002
0000
0000
3003
;

//---------------dance-single - ----------------
#NOTES:
     dance-single:
     :
     Medium:
     6:
     0.259,0.251,0.114,0.277,0.000,175.000,14.000,34.000,0.000,0.000,0.000,0.259,0.251,0.114,0.277,0.000,175.000,14.000,34.000,0.000,0.000,0.000:
0000
0000
0000
0000
,
0000
0000
0000
0000
,
0000
0000
0000
0000
,
0000
0000
0000
0000
,
0000
0000
0000
0000
,
0010
0100
0010
1000
,
0001
0001
1001
0000
,
1000
0100
1000
0010
,
0100
0100
0110
0000
,
0001
0010
1000
0010
,
0100
1000
1010
0000
,
0010
0010
0100
0100
,
0001
1000
1001
1001
,
0001
0000
0000
0200
0000
0000
0300
0000
,
0010
0000
0110
0010
,
2000
0000
0001
3001
,
0100
0010
0010
0010
,
0100
0000
0000
0002
0000
0000
0003
0000
,
1000
1000
1010
0000
,
0100
0001
0100
0010
,
2000
0000
3002
0000
,
1003
0000
0000
0200
0000
0000
0310
0000
,
0100
0000
0000
0020
0000
0000
0030
0000
,
0001
0100
1000
0100
,
0001
0001
1001
0000
,
0001
0000
0000
0200
0000
0000
0310
0000
,
1000
0000
0000
0002
0000
0000
0003
0000
,
1000
0100
0001
0100
,
1000
1000
0001
0001
,
0100
0110
2000
0000
,
3001
0001
0002
0000
,
0103
0010
2000
0000
,
3001
0001
0002
0000
,
0103
0110
0020
0000
,
1030
1000
1002
0000
,
0103
0110
2000
0000
,
3010
0010
0010
0010
,
0100
0000
0000
0200
0000
0000
0300
0000
,
0010
0000
0000
0020
0000
0000
0030
0000
,
1000
0000
0000
2000
0000
0000
3000
0000
,
0001
0000
0000
0002
0000
0000
0003
0000
,
1000
0000
0000
0020
0000
0000
0030
0000
,
0100
0000
0000
0002
0000
0000
0003
0000
,
0001
0000
0000
0020
0000
0000
0030
0000
,
0100
0000
0000
2000
0000
0000
3000
0000
,
0001
0000
0001
0002
0000
0000
0003
0000
,
1000
0000
1000
2000
0000
0000
3000
0000
,
0010
0100
0001
0100
,
0010
1000
1001
0000
,
1000
0000
0010
0020
0000
0000
0030
0000
,
0001
0000
0100
0200
0000
0000
0300
0000
,
1000
0010
0100
0001
,
1000
0001
1000
0001
,
0010
0000
0100
2000
0000
0000
3000
0000
,
0010
0000
0100
0002
0000
0000
0003
0000
,
1000
0010
0100
0010
,
0100
0001
0010
0001
,
1000
0000
0010
0200
0000
0000
0300
0000
,
0001
0000
0010
0200
0000
0000
0300
0000
,
1000
0001
0100
0010
,
0100
0000
0001
0000
1000
0001
1000
0000
,
2002
0000
0000
3003
;

//---------------dance-single - ----------------
#NOTES:
     dance-single:
     :
     Easy:
     3:
     0.201,0.201,0.073,0.277,0.000,130.000,9.000,34.000,0.000,0.000,0.000,0.201,0.201,0.073,0.277,0.000,130.000,9.000,34.000,0.000,0.000,0.000:
0000
0000
0000
0000
,
0000
0000
0000
0000
,
0000
0000
0000
0000
,
0000
0000
0000
0000
,
0000
0000
0000
0000
,
0001
0000
0001
0000
,
0100
0000
1000
1000
,
0010
0000
0010
0000
,
1000
0000
0100
0100
,
0001
0000
1000
0000
,
0001
0000
0010
0010
,
0100
0000
0100
0000
,
1000
0000
0001
0001
,
0100
0100
0200
0300
,
0010
0000
1001
0000
,
1000
1000
2000
3000
,
0001
0000
0110
0000
,
0010
0010
0020
0030
,
0001
0000
0110
0000
,
0001
0001
0002
0003
,
0100
0100
0100
0100
,
0020
0000
0030
0000
,
0200
0000
0300
0000
,
1000
0010
0001
0010
,
1000
1000
1001
0000
,
2000
0000
3000
0000
,
0002
0000
0003
0000
,
1000
0100
0001
0100
,
1000
0001
1000
0001
,
0100
0010
0200
0300
,
0001
0000
1000
0000
,
0001
1000
0002
0003
,
0010
0000
0100
0000
,
1000
0010
0200
0300
,
0001
0000
1000
0000
,
0001
0010
0200
0300
,
0010
0010
0010
0010
,
0200
0000
0300
0000
,
0020
0000
0030
0000
,
2000
0000
3000
0000
,
0002
0000
0003
0000
,
2000
0000
3000
0000
,
0020
0000
0030
0000
,
0200
0000
0300
0000
,
0002
1000
1003
1000
,
2000
0000
3000
0000
,
0220
0000
0330
0000
,
0001
0001
1000
1000
,
0010
0000
0010
0000
,
0002
0000
0003
0000
,
0220
0000
0330
0000
,
1000
1000
0001
0001
,
0100
0000
0100
0000
,
0020
0000
0030
0000
,
2002
0000
3003
0000
,
1000
1000
0001
0001
,
0100
0100
0010
0010
,
0200
0000
0300
0000
,
2002
0000
3003
0000
,
0010
0010
0100
0100
,
1000
0000
0001
0100
,
2002
0000
0000
3003
;

//---------------dance-single - ----------------
#NOTES:
     dance-single:
     :
     Beginner:
     2:
     0.123,0.151,0.033,0.163,0.000,82.000,4.000,20.000,0.000,0.000,0.000,0.123,0.151,0.033,0.163,0.000,82.000,4.000,20.000,0.000,0.000,0.000:
0000
0000
0000
0000
,
0000
0000
0000
0000
,
0000
0000
0000
0000
,
0000
0000
0000
0000
,
0000
0000
0000
0000
,
0001
0000
0000
0000
,
0001
0000
0000
0000
,
0001
0000
0000
0000
,
0001
0000
0000
0000
,
1000
0000
0000
0000
,
1000
0000
0000
0000
,
1000
0000
0000
0000
,
1000
0000
0000
0000
,
0200
0000
0300
0000
,
0200
0000
0300
0000
,
0020
0000
0030
0000
,
0020
0000
0030
0000
,
2000
0000
3000
0000
,
2000
0000
3000
0000
,
0002
0000
0003
0000
,
0001
0001
1000
1000
,
0100
0000
0000
0000
,
0100
0000
0000
0000
,
0010
0000
0010
0000
,
0100
0000
0100
0000
,
0001
0000
0000
0000
,
1000
0000
0000
0000
,
1000
0000
1000
0000
,
0001
0000
0001
0000
,
0100
0000
0000
0000
,
0010
0010
0010
0000
,
1000
0000
0000
0000
,
0001
0001
0001
0000
,
0100
0000
0000
0000
,
1000
1000
1000
0000
,
0001
0000
0000
0000
,
0010
0010
0010
0010
,
0020
0000
0000
0030
,
0002
0000
0000
0003
,
2000
0000
0000
3000
,
0200
0000
0000
0300
,
2000
0000
0000
3000
,
0020
0000
0000
0030
,
0200
0000
0000
0300
,
0002
0000
0000
0003
,
1001
0000
0000
0000
,
1001
0000
0000
0000
,
1000
0000
1000
0000
,
0001
0000
0001
0000
,
0110
0000
0000
0000
,
0110
0000
0000
0000
,
1000
0000
1000
0000
,
0001
0000
0001
0000
,
2000
0000
3000
0000
,
0002
0000
0003
0000
,
0100
0000
0100
0000
,
0010
0000
0010
0000
,
2000
0000
3000
0000
,
0002
0000
0003
0000
,
1000
0000
0001
0000
,
0100
0000
0010
0010
,
0020
0000
0000
0030
;

//---------------dance-double - ----------------
#NOTES:
     dance-double:
     :
     Hard:
     9:
     0.335,0.302,0.195,0.269,0.000,231.000,24.000,33.000,0.000,0.000,0.000,0.335,0.302,0.195,0.269,0.000,231.000,24.000,33.000,0.000,0.000,0.000:
00000000
00000000
00000000
00000000
,
00000000
00000000
00000000
00000000
,
00000000
00000000
00000000
00000000
,
00000000
00000000
00000000
00000000
,
00000000
00000000
00000000
00000000
,
00001000
00000100
00000010
00000000
00000100
00000000
00000010
00000000
,
00000001
00000100
00000010
00000000
00000100
00000000
00000010
00000000
,
00000100
00001000
00010000
00000000
00001000
00000000
00010000
00000000
,
00001000
00010000
01000000
00000000
00100000
00000000
01000000
00000000
,
10000000
01000000
00010000
00000000
01000000
00000000
00100000
00000000
,
00010000
00100000
00001000
00000000
00010000
00000000
00000100
00000000
,
00001000
00000001
00000100
00000000
00000010
00000000
00000100
00000000
,
00000001
00000100
00001000
00000000
00010000
00000000
00001000
00000000
,
00020000
00000000
00000000
00000200
00030000
00000000
00001300
00000000
,
00000100
00000000
00000010
00000000
00000001
00001000
00000001
00000000
,
00000200
00001000
00001000
00001300
,
00001000
00010000
00001000
00000000
00010000
00000000
00011000
00000000
,
00001000
00010000
01000000
00000000
01000000
00000000
01000000
00000000
,
01000000
10000000
00100000
00000000
00010000
00000000
00010000
00000000
,
00001000
00011000
00010000
00010100
,
00000100
00000010
00000100
00000010
,
00001001
00000000
00000000
00000202
00000000
00000000
00000303
00000000
,
00001001
00000000
00000000
00002200
00000000
00000000
00003300
00000000
,
00001000
00000100
00001000
00000000
00000100
00010000
00000100
00000000
,
00010000
00001000
00010000
00000000
01000000
00000000
00100000
00000000
,
10010000
00000000
00000000
20200000
00000000
00000000
30300000
00000000
,
01010000
00000000
00000000
00220000
00000000
00000000
00330000
00000000
,
00010000
00100000
00010000
00000000
01000000
00001000
01000000
00000000
,
00001000
00010000
00001000
00000000
00000100
00000000
00000010
00000000
,
00001000
00000000
00001001
00000000
00000001
00000001
00000001
00000000
,
00000100
00001000
00010000
00100000
,
10000000
00000000
10010000
00000000
10000000
10000000
10000000
00000000
,
10000000
01000000
00010000
00001000
,
00000100
00000000
00000110
00000000
00001000
00001000
00001000
00000000
,
00000001
00000100
00001000
00010000
,
01000000
00000000
01100000
00000000
10000000
10000000
10000000
00000000
,
10000000
00100000
00010000
00001000
,
00020000
00000000
00000000
00000200
00000000
00000000
00030300
00000000
,
00002000
00000000
00000000
00000020
00000000
00000000
00003030
00000000
,
00000002
00000000
00000000
00000200
00000000
00000000
00000303
00000000
,
00000020
00000000
00000000
00002000
00000000
00000000
00003030
00000000
,
00000200
00000000
00000000
00020000
00000000
00000000
00030300
00000000
,
00002000
00000000
00000000
00200000
00000000
00000000
00303000
00000000
,
00020000
00000000
00000000
20000000
00000000
00000000
30030000
00000000
,
20000000
00000000
00000000
00200000
00000000
00000000
30300000
00000000
,
01100000
00000000
01000000
00200000
00000000
00000000
00300000
00000000
,
10010000
00000000
10000000
00020000
00000000
00000000
00030000
00000000
,
10000000
00010000
00100000
00000000
00010000
00100000
00001000
00000000
,
00010000
00001000
00000100
00000000
00000100
00000010
00001000
00000000
,
00001001
00000000
00000010
00000200
00000000
00000000
00000300
00000000
,
00000110
00000000
00000001
00002000
00000000
00000000
00003000
00000000
,
00000001
00001000
00000100
00000000
00001000
00000100
00010000
00000000
,
00001000
00100000
00010000
00000000
00100000
00010000
01000000
00000000
,
00100000
00000000
10100000
00000000
10000000
00100000
10000000
00000000
,
00010000
00000000
01010000
00000000
00010000
00100000
00010000
00000000
,
10000000
00100000
00010000
00001000
,
00010000
00000100
00000010
00000001
,
00001000
00000000
00001010
00000000
00000100
00000001
00000100
00000000
,
00000001
00000000
00001001
00000000
00000001
00000010
00000001
00000000
,
00000001
00000100
00001000
00010000
,
00000100
00000000
00010000
00000000
00001000
00010000
00001000
00000000
,
00022000
00000000
00000000
00033000
;

//---------------dance-double - ----------------
#NOTES:
     dance-double:
     :
     Medium:
     7:
     0.264,0.251,0.171,0.269,0.000,173.000,21.000,33.000,0.000,0.000,0.000,0.264,0.251,0.171,0.269,0.000,173.000,21.000,33.000,0.000,0.000,0.000: // measure 0
00000000
00000000
00000000
00000000
,  // measure 1
00000000
00000000
00000000
00000000
,  // measure 2
00000000
00000000
00000000
00000000
,  // measure 3
00000000
00000000
00000000
00000000
,  // measure 4
00000000
00000000
00000000
00000000
,  // measure 5
00100000
00010000
10000000
10000000
,  // measure 6
00100000
01000000
10010000
00000000
,  // measure 7
00010000
00100000
00001000
00001000
,  // measure 8
00010000
00000100
00011000
00000000
,  // measure 9
00001000
00000100
00000010
00000010
,  // measure 10
00001000
00000001
00001001
00000000
,  // measure 11
00000001
00000001
00000010
00000010
,  // measure 12
00000100
00001000
00000100
00001100
,  // measure 13
00001000
00000100
00001000
00000010
,  // measure 14
00000100
00001000
00010000
00000000
,  // measure 15
00010000
00100000
00010000
00100000
,  // measure 16
01000000
00010000
10010000
00000000
,  // measure 17
10000000
10000000
01000000
01000000
,  // measure 18
00100000
00010000
00001000
00000000
,  // measure 19
00001000
00000100
00000010
00000010
,  // measure 20
00000001
00000100
00000100
00000100
,  // measure 21
00000110
00000000
00000000
00001001
00000000
00000000
00000000
00000000
,  // measure 22
00001100
00000000
00000000
00000011
00000000
00000000
00000000
00000000
,  // measure 23
00000001
00000100
00001000
00010000
,  // measure 24
00100000
10000000
00010000
00000000
,  // measure 25
10010000
00000000
00000000
01100000
00000000
00000000
00000000
00000000
,  // measure 26
10100000
00000000
00000000
01010000
00000000
00000000
00000000
00000000
,  // measure 27
00100000
00010000
00001000
00000100
,  // measure 28
00000010
00001000
00000001
00000100
,  // measure 29
00000020
00001000
00000100
00000130
,  // measure 30
00000001
00000000
00000000
00002002
00000000
00000000
00003003
00000000
,  // measure 31
00002000
00000100
00000010
00003010
,  // measure 32
00000100
00000000
00000000
00000220
00000000
00000000
00000330
00000000
,  // measure 33
00000200
00000010
00001000
00001300
,  // measure 34
00001000
00000000
00000000
00022000
00000000
00000000
00033000
00000000
,  // measure 35
00002000
00010000
01000000
01003000
,  // measure 36
02000000
00000000
00000000
03000000
,  // measure 37
00100000
00000000
00000000
00200000
00000000
00000000
00300000
00000000
,  // measure 38
10000000
00000000
00000000
20000000
00000000
00000000
30000000
00000000
,  // measure 39
00010000
00000000
00000000
00020000
00000000
00000000
00030000
00000000
,  // measure 40
00100000
00000000
00000000
00200000
00000000
00000000
00300000
00000000
,  // measure 41
00001000
00000000
00000000
00002000
00000000
00000000
00003000
00000000
,  // measure 42
00010000
00000000
00000000
00020000
00000000
00000000
00030000
00000000
,  // measure 43
00000010
00000000
00000000
00000020
00000000
00000000
00000030
00000000
,  // measure 44
00001000
00000000
00000000
00002000
00000000
00000000
00003000
00000000
,  // measure 45
00000001
00000000
00001000
00000002
00000000
00000000
00000003
00000000
,  // measure 46
00000100
00000000
00000010
00000200
00000000
00000000
00000300
00000000
,  // measure 47
00000010
00000100
00001000
00000100
,  // measure 48
00001000
00010000
00001000
00100000
,  // measure 49
00010000
00000000
10000000
00020000
00000000
00000000
00030000
00000000
,  // measure 50
01000000
00000000
00100000
02000000
00000000
00000000
03000000
00000000
,  // measure 51
00100000
10000000
01000000
00010000
,  // measure 52
00001000
00010000
00000010
00000100
,  // measure 53
00000001
00000000
00000000
00000202
00000000
00000000
00000303
00000000
,  // measure 54
00001000
00000000
00000000
00002020
00000000
00000000
00003030
00000000
,  // measure 55
00000100
00000010
00001000
00000100
,  // measure 56
00010000
00001000
01000000
00100000
,  // measure 57
10000000
00000000
00000000
02020000
00000000
00000000
03030000
00000000
,  // measure 58
00010000
00000000
00000000
00220000
00000000
00000000
00330000
00000000
,  // measure 59
10000000
01000000
00010000
00001000
,  // measure 60
00010000
00000100
00001000
00000010
,  // measure 61
00000220
00000000
00000000
00000330
;

//---------------dance-double - ----------------
#NOTES:
     dance-double:
     :
     Easy:
     4:
     0.191,0.201,0.195,0.106,0.000,127.000,24.000,13.000,0.000,0.000,0.000,0.191,0.201,0.195,0.106,0.000,127.000,24.000,13.000,0.000,0.000,0.000: // measure 0
00000000
00000000
00000000
00000000
,  // measure 1
00000000
00000000
00000000
00000000
,  // measure 2
00000000
00000000
00000000
00000000
,  // measure 3
00000000
00000000
00000000
00000000
,  // measure 4
00000000
00000000
00000000
00000000
,  // measure 5
00010000
00000000
00010000
00000000
,  // measure 6
00001000
00000000
00001000
00000000
,  // measure 7
00010000
00000000
00010000
00000000
,  // measure 8
00001000
00000000
00001000
00000000
,  // measure 9
00000100
00000000
00000100
00000000
,  // measure 10
00000010
00000000
00000010
00000000
,  // measure 11
00001000
00000000
00000001
00000000
,  // measure 12
00001000
00000000
00000001
00000000
,  // measure 13
00000200
00000010
00000010
00000310
,  // measure 14
00001000
00000000
00001001
00000000
,  // measure 15
00002000
00000100
00000100
00003100
,  // measure 16
00010000
00000000
00011000
00000000
,  // measure 17
00020000
00100000
00100000
00130000
,  // measure 18
10000000
00000000
10010000
00000000
,  // measure 19
00010000
00010000
00010000
00010000
,  // measure 20
01000000
01000000
01000000
01000000
,  // measure 21
01100000
00000000
00000000
00000000
,  // measure 22
10010000
00000000
00000000
00000000
,  // measure 23
00010000
10000000
00010000
10000000
,  // measure 24
00010000
00100000
00010000
00100000
,  // measure 25
00011000
00000000
00000000
00000000
,  // measure 26
00011000
00000000
00000000
00000000
,  // measure 27
00001000
00000100
00000010
00000100
,  // measure 28
00000010
00001000
00000001
00001000
,  // measure 29
00001001
00000000
00000001
00000000
,  // measure 30
00000110
00000000
00000010
00000000
,  // measure 31
00001001
00000000
00001000
00000000
,  // measure 32
00000110
00000000
00000100
00000000
,  // measure 33
00011000
00000000
00001000
00000000
,  // measure 34
00011000
00000000
00010000
00000000
,  // measure 35
01100000
00000000
00100000
00000000
,  // measure 36
10010000
00000000
10000000
00000000
,  // measure 37
20000000
00000000
00000000
30000000
,  // measure 38
00020000
00000000
00000000
00030000
,  // measure 39
02000000
00000000
00000000
03000000
,  // measure 40
00200000
00000000
00000000
00300000
,  // measure 41
00020000
00000000
00000000
00030000
,  // measure 42
00002000
00000000
00000000
00003000
,  // measure 43
00000200
00000000
00000000
00000300
,  // measure 44
00000020
00000000
00000000
00000030
,  // measure 45
00001001
00000000
00000000
00000000
,  // measure 46
00000110
00000000
00000000
00000000
,  // measure 47
00000010
00000100
00000010
00001000
,  // measure 48
00000001
00001000
00000100
00001000
,  // measure 49
00011000
00000000
00000000
00000000
,  // measure 50
00011000
00000000
00000000
00000000
,  // measure 51
00001000
00010000
00001000
00010000
,  // measure 52
01000000
00100000
01000000
10000000
,  // measure 53
10010000
00000000
00000000
00000000
,  // measure 54
10010000
00000000
00000000
00000000
,  // measure 55
00010000
00010000
01000000
01000000
,  // measure 56
00100000
00100000
00010000
00010000
,  // measure 57
00011000
00000000
00000000
00000000
,  // measure 58
00011000
00000000
00000000
00000000
,  // measure 59
00001000
00001000
00000100
00000100
,  // measure 60
00000010
00001000
00000001
00001000
,  // measure 61
00000220
00000000
00000000
00000330
;
