#VERSION:0.81;
#TITLE:Leave me Alone;
#SUBTITLE:HARDCORE;
#ARTIST:Nien;
#TITLETRANSLIT:;
#SUBTITLETRANSLIT:;
#ARTISTTRANSLIT:;
#GENRE:;
#ORIGIN:;
#CREDIT:;
#BANNER:Leave me Alone.png;
#BACKGROUND:Leave me Alone-bg.png;
#PREVIEWVID:;
#JACKET:;
#CDIMAGE:;
#DISCIMAGE:;
#LYRICSPATH:;
#CDTITLE:;
#MUSIC:Leave me Alone.mp3;
#OFFSET:-1.141;
#SAMPLESTART:38.804;
#SAMPLELENGTH:12.000;
#SELECTABLE:YES;
#BPMS:0.000=236.000,
232.000=118.000,
240.000=236.000;
#STOPS:;
#DELAYS:;
#WARPS:;
#TIMESIGNATURES:0.000=4=4;
#TICKCOUNTS:0.000=4;
#COMBOS:0.000=1;
#SPEEDS:0.000=1.000=0.000=0;
#SCROLLS:0.000=1.000;
#FAKES:;
#LABELS:0.000=Song Start;
#BGCHANGES:;
#KEYSOUNDS:;
#ATTACKS:
;

//---------------dance-single - ----------------
#NOTEDATA:;
#CHARTNAME:;
#STEPSTYPE:dance-single;
#DESCRIPTION:;
#CHARTSTYLE:;
#DIFFICULTY:Hard;
#METER:15;
#RADARVALUES:0.769,1.000,0.018,0.309,0.035,573.000,2.000,35.000,0.000,0.000,0.000,0.000,0.000,0.769,1.000,0.018,0.309,0.035,573.000,2.000,35.000,0.000,0.000,0.000,0.000,0.000;
#CREDIT:;
#OFFSET:-1.161;
#BPMS:0.000=236.000
,232.000=118.000
,240.000=236.000
,300.000=472.000
,312.000=236.000
,422.000=708.000
,440.000=236.000
;
#STOPS:;
#DELAYS:;
#WARPS:;
#TIMESIGNATURES:0.000=4=4
;
#TICKCOUNTS:0.000=4
;
#COMBOS:0.000=1
;
#SPEEDS:0.000=1.000=0.000=0
;
#SCROLLS:0.000=1.000
;
#FAKES:;
#LABELS:0.000=Song Start
;
#DISPLAYBPM:236.000;
#NOTES:
0000
0000
0000
0000
,
0000
0000
0000
0000
,
1000
0000
0000
0001
0100
0000
0020
0000
,
0000
0000
0000
0030
,
0001
0000
0000
1000
0100
0000
0020
0000
,
0000
0000
0000
0030
,
0100
0000
0000
1000
0001
0000
0200
0000
,
0000
0000
0000
0300
,
0001
0000
0000
1000
0100
0000
0020
0000
,
0000
0000
0000
0030
,
0100
1000
0100
1000
0001
0000
0001
0100
,
0001
1000
0000
1000
0010
0000
0010
0100
,
0010
1000
0010
1000
0001
0000
0010
0001
,
0010
0100
0000
0100
1000
0000
1000
0001
,
0100
0001
0100
0001
0010
0000
0100
1000
,
0100
0010
0000
0001
1000
0000
1000
0001
,
0100
0001
0100
0010
1000
0000
0010
1000
,
0001
0100
0000
0001
1000
0000
0001
1000
,
0100
0010
0100
1000
0010
0000
0100
1000
,
0001
0010
0000
1000
0100
0000
0010
0001
,
0100
0001
0010
0100
0001
0000
0100
1000
,
0010
0100
0000
0010
0001
0000
1000
0100
,
0010
1000
0001
0010
0001
0000
0010
1000
,
0001
1000
0000
0010
0001
0000
0001
0100
,
0010
1000
0001
0100
0001
1000
0010
1000
,
0100
0010
0001
1000
0001
0010
0100
1000
,
0020
0000
0100
0000
1000
1000
1000
0000
,
0100
0000
0001
0000
0100
0100
0130
0000
,
0010
1000
0010
0100
0010
0001
0010
1000
,
0001
0010
0001
0010
0100
0010
1000
0010
,
0200
0000
1000
0000
0010
0010
0010
0000
,
0001
0000
0010
0000
1000
1000
1300
0000
,
1000
0001
0100
0001
0010
0100
0010
0001
,
1000
0001
0100
0001
1000
0010
0100
0010
,
1000
0100
0001
0100
,
1000
0001
0100
0010
,
1000
1000
0000
0000
0001
0001
0001
0002
,
0000
0000
0000
0003
,
1000
0010
0001
0000
0001
0100
1000
0000
,
1000
0100
0001
0010
1000
0001
1000
0000
,
0001
0010
1000
0000
1000
0100
0001
0000
,
0001
0100
1000
0010
0001
1000
0001
0000
,
1000
0010
0100
0000
0010
0001
0100
0000
,
0100
1000
0010
1000
0001
0100
0001
0000
,
0001
0100
1000
0100
,
0002
0000
0000
0003
2000
0000
0000
3000
,
0100
1000
0001
0000
0100
1000
0010
0000
,
0001
0010
1000
0100
0001
1000
0001
0000
,
0010
0001
0100
0000
1000
0010
0100
0000
,
0010
1000
0100
0001
1000
0001
0100
0000
,
0010
0100
0001
0000
0010
0100
1000
0000
,
0001
0010
1000
0100
0001
1000
0100
0000
,
0010
0100
1000
0001
,
0100
0001
1000
0100
,
0010
0001
1000
0000
0100
1000
0001
0000
,
0100
0001
1000
0000
0010
1000
0001
0000
,
0200
0000
0000
0000
,
0000
0000
0000
0300
,
0010
1000
0000
0001
0100
0000
0010
0000
1000
0001
1000
0000
0001
0100
0001
0000
,
0020
0230
2300
3002
2003
3020
0230
0300
,
0020
0000
0000
1030
0001
1000
0100
0010
,
0002
0000
0000
0100
0100
0003
0000
0100
,
0200
0010
1000
0301
,
0010
1000
0001
1000
0001
0100
0010
1000
,
0002
0000
0000
0103
0010
1000
0001
1000
,
0200
0000
0000
0010
0010
0300
0000
0010
,
0020
0000
0030
0001
0010
0100
1000
0001
,
0100
0000
0001
0000
0100
0000
0010
0000
1000
0000
0010
0000
,
0200
0000
0000
0310
1000
0001
1000
0100
,
0020
0000
0000
0001
0001
0030
0000
1000
,
2000
0000
0000
3100
0010
0001
0100
0001
,
2000
0000
0002
0000
,
0000
0000
3000
0000
,
2000
0003
3200
0000
,
0320
0000
0032
0000
,
0000
0000
0000
0000
,
0000
0000
0000
0000
,
0000
0000
0003
0000
,
1000
0100
0010
0001
1000
0010
0100
0001
,
1000
0010
0001
0010
0100
0001
0100
1000
,
0001
0010
1000
0001
1000
0010
0100
0001
,
1000
0100
0001
0100
1000
0001
0100
0001
,
0010
0001
1000
0001
0100
0001
1000
0001
,
0100
0010
0100
0001
0100
0010
0100
0001
,
1000
0010
0100
0010
1000
0001
1000
0001
,
0010
0001
1000
0100
1000
0001
1000
0001
,
0010
0001
0100
0010
1000
0100
1000
0001
,
0100
0001
0010
0100
1000
0010
0100
0001
,
0100
0010
0100
0001
0100
0010
0100
0001
,
1000
0010
0100
0001
0010
0100
0010
0001
,
1000
0010
1000
0001
0100
0010
1000
0001
,
0010
0001
0100
0010
1000
0100
0010
0001
,
1000
0010
0100
0001
1000
0001
0100
0010
,
1000
0001
1000
0100
1000
0001
0100
0001
,
0100
1000
0010
0001
,
0010
1000
0100
0001
,
1000
0000
0000
1000
0000
0000
0001
0000
,
0001
0000
0200
0300
,
0010
1000
0001
1000
0100
1000
0001
1000
,
0010
0100
0001
0010
1000
0010
1000
0010
,
0001
0100
0010
0100
0001
1000
0100
1000
,
0100
1000
0010
0001
0010
0001
0010
1000
,
0001
0000
0100
0000
0001
0100
1000
0100
,
0010
0000
1000
0000
0100
0001
0100
0010
,
0100
0000
0010
0000
0001
0010
1000
0010
,
0002
0000
0200
0000
,
0000
0000
0000
0000
,
0000
0000
0000
0000
,
0000
0000
0000
0000
,
0000
0000
0303
0000
,
1100
0101
0000
0000
;

//---------------dance-single - ----------------
#NOTEDATA:;
#CHARTNAME:;
#STEPSTYPE:dance-single;
#DESCRIPTION:;
#CHARTSTYLE:;
#DIFFICULTY:Medium;
#METER:12;
#RADARVALUES:0.568,0.778,0.212,0.194,0.018,405.000,24.000,22.000,0.000,0.000,0.000,0.000,0.000,0.568,0.778,0.212,0.194,0.018,405.000,24.000,22.000,0.000,0.000,0.000,0.000,0.000;
#CREDIT:;
#OFFSET:-1.161;
#BPMS:0.000=236.000
,232.000=118.000
,240.000=236.000
,300.000=472.000
,312.000=236.000
,422.000=708.000
,440.000=236.000
;
#STOPS:;
#DELAYS:;
#WARPS:;
#TIMESIGNATURES:0.000=4=4
;
#TICKCOUNTS:0.000=4
;
#COMBOS:0.000=1
;
#SPEEDS:0.000=1.000=0.000=0
;
#SCROLLS:0.000=1.000
;
#FAKES:;
#LABELS:0.000=Song Start
;
#NOTES:
0000
0000
0000
0000
,
0000
0000
0000
0000
,
1000
0000
0000
0100
0000
0000
0002
0000
,
0000
0000
0000
0003
,
0001
0000
0000
0010
0000
0000
2000
0000
,
0000
0000
0000
3000
,
0001
0000
0000
0100
0000
0000
2000
0000
,
0000
0000
0000
3000
,
1000
0000
0000
0010
0000
0000
0002
0000
,
0000
0000
0000
0003
,
1000
0000
0100
0000
0010
0000
0000
0001
,
0000
0001
0000
0000
0100
0000
0100
0000
,
0001
0000
0100
0000
0010
0000
0000
1000
,
0000
1000
0000
0000
0001
0000
1000
0000
,
0100
0000
1000
0000
0010
0000
0000
0100
,
0000
0010
0000
0000
1000
0000
0001
0000
,
0010
0000
0001
0000
0100
0000
0000
0001
,
0000
0001
0000
0000
1000
0001
1000
0001
,
0100
0000
0010
0000
1000
0000
0000
0001
,
0000
1001
0000
0000
0010
0001
0010
0000
,
0100
0000
1000
0000
0001
0000
0000
1000
,
0000
1001
0000
0000
1000
0010
1000
0000
,
0001
0000
0100
0000
0010
0000
0000
1000
,
0000
1001
0000
0000
1000
0100
0010
0000
,
0220
0000
0000
0000
,
0000
0000
0330
0000
,
0010
0000
0001
0000
1000
0000
0001
0100
,
0000
0100
0001
0000
1000
0000
1010
0000
,
0100
0001
1000
0100
,
1000
0001
0100
0010
,
1000
0000
0001
0000
0100
0000
0010
1000
,
0000
1000
0010
0000
0100
0000
0101
0000
,
0010
1000
0001
0010
,
0001
1000
0010
0100
,
0010
1010
1000
1001
,
0001
0011
0010
0100
,
0010
0100
0000
0000
0010
0100
0010
0200
,
0000
0000
0000
0000
0000
0300
0000
0000
,
1000
0000
0100
0000
0010
0000
0100
1000
,
0000
1000
0100
0000
0010
0000
0010
0000
,
0001
0000
0100
0000
0010
0000
0100
0001
,
0000
0001
0100
0000
0010
0000
0010
0000
,
0100
0000
0001
0000
1000
0000
0001
1000
,
0000
1000
0001
0000
0010
0000
0010
0000
,
0100
0000
1000
0000
0001
0000
1000
0001
,
0000
0001
1000
0000
0001
0100
0001
0100
,
0001
0000
0100
0000
0010
0000
1000
0010
,
0000
0010
0100
0000
0001
0100
0001
0000
,
1000
0000
0100
0000
0010
0000
0001
0010
,
0000
0010
0100
0000
1000
0100
1000
0000
,
0100
0000
0010
0000
0001
0000
0010
0001
,
0000
0001
1000
0000
0010
1000
0010
0000
,
0100
0000
0010
0000
1000
0000
0010
1000
,
0000
1000
0001
0000
0010
0001
0010
0000
,
0100
1000
0001
0100
,
0001
1000
0010
0100
,
0020
0000
0000
0000
,
0000
0000
0030
0000
,
0010
1010
0100
0101
,
0002
2003
3002
2003
3200
0000
0300
0000
,
0010
0001
0010
0100
,
1000
0000
0001
0000
1000
0010
0100
0000
,
0001
0100
0010
1000
,
0101
0000
1100
0000
,
1000
0000
0100
0000
0010
0100
0000
0100
,
0010
0000
0001
0000
1001
0000
1000
0010
,
0100
0001
1000
0101
,
1000
0000
0001
0000
1000
0000
0001
0000
1000
0000
0001
0000
,
0100
0000
0010
0000
1000
0010
0100
0000
,
0001
1000
0001
0011
,
0010
0000
0001
0000
1000
0100
0000
0100
,
2000
0000
0002
0000
,
0000
3003
0000
0000
,
2000
0000
3200
0000
,
0320
0000
0032
0000
,
0000
0000
0000
0000
,
0000
0000
0000
0000
,
0000
0003
0000
0000
,
1000
0100
1000
0000
0001
1000
0001
0000
,
1000
0010
1000
0000
0010
0100
0010
0000
,
0001
0010
0001
0000
1000
0001
1000
0000
,
0001
0100
0001
0000
0100
0010
0100
0000
,
0010
0001
0010
0000
0001
1000
0001
0000
,
0100
0001
0100
0000
0010
0100
0010
0000
,
0100
1000
0100
0000
1000
0001
1000
0000
,
0010
1000
0010
0000
0100
0010
0100
0000
,
0010
0001
0100
0000
0001
0000
1001
0000
,
1000
0100
0010
0000
0100
0000
0110
0000
,
0010
1000
0100
0000
1000
0000
1001
0000
,
0001
0010
0100
0000
0010
0000
0110
0000
,
0010
0001
1000
0000
1000
0000
1010
0000
,
0100
0010
0001
0000
1000
0000
0101
0000
,
0010
0001
1000
0001
0100
0010
1000
0000
,
0100
0010
0001
1000
0001
1000
0100
0000
,
1000
0010
0001
0010
,
1000
0010
0001
0010
,
2000
0000
0000
0000
,
0000
0000
3000
0000
,
1000
0000
0010
0000
0100
0001
0100
0000
,
0010
0010
0100
0100
,
0001
0000
0010
0000
0100
1000
0100
0000
,
0010
0010
0100
0100
,
1000
0000
0001
0000
0010
0001
0010
0000
,
0100
0000
1000
0000
0001
1000
0001
0000
,
1000
0000
0010
0000
0100
0001
0100
0001
,
0200
0000
0020
0000
,
0000
0000
0000
0000
,
0000
0000
0000
0000
,
0000
0000
0000
0000
,
0000
0000
0330
0000
,
0110
1001
0000
0000
;

//---------------dance-single - ----------------
#NOTEDATA:;
#CHARTNAME:;
#STEPSTYPE:dance-single;
#DESCRIPTION:;
#CHARTSTYLE:;
#DIFFICULTY:Easy;
#METER:7;
#RADARVALUES:0.439,0.486,0.221,0.159,0.000,305.000,25.000,18.000,0.000,0.000,0.000,0.000,0.000,0.439,0.486,0.221,0.159,0.000,305.000,25.000,18.000,0.000,0.000,0.000,0.000,0.000;
#CREDIT:;
#OFFSET:-1.161;
#BPMS:0.000=236.000
,232.000=118.000
,240.000=236.000
,300.000=472.000
,312.000=236.000
,422.000=708.000
,440.000=236.000
;
#STOPS:;
#DELAYS:;
#WARPS:;
#TIMESIGNATURES:0.000=4=4
;
#TICKCOUNTS:0.000=4
;
#COMBOS:0.000=1
;
#SPEEDS:0.000=1.000=0.000=0
;
#SCROLLS:0.000=1.000
;
#FAKES:;
#LABELS:0.000=Song Start
;
#NOTES:
0000
0000
0000
0000
,
0000
0000
0000
0000
,
1000
0000
0000
0002
,
0000
0000
0003
0000
,
0010
0000
0000
0200
,
0000
0000
0300
0000
,
0001
0000
0000
2000
,
0000
0000
3000
0000
,
0100
0000
0000
0020
,
0000
0000
0030
0000
,
0010
0001
1000
0000
,
0100
1000
0100
1000
,
0010
1000
0001
0000
,
0100
0001
0100
0001
,
0010
0100
1000
0000
,
0001
1000
0001
1000
,
0100
0000
0010
0000
,
0001
0000
1000
0000
,
0010
1000
0010
0000
,
0100
0001
0100
0010
,
0100
0001
0100
0000
,
0010
1000
0010
0100
,
0010
1000
0100
0000
,
0010
0100
0010
0001
,
0200
0000
0000
0000
,
0000
0000
0300
0000
,
0010
1000
0010
1000
,
0001
0100
0001
0100
,
0010
1000
0100
1000
,
0100
0001
0010
0001
,
1000
0010
0001
1000
,
0001
0100
1000
0001
,
0010
1000
0100
0001
,
0100
0010
0001
1000
,
0100
0100
0010
0010
,
0001
0001
1000
1000
,
2002
0000
0000
0000
,
0000
3003
0000
0000
,
1000
0010
0000
0010
,
0100
0001
0000
0001
,
0010
0100
0000
0100
,
1000
0001
0000
0001
,
1000
0010
0000
0010
,
0100
0001
0000
0001
,
1000
0001
1000
0001
,
0100
0010
0100
0010
,
1000
1001
0000
0001
,
0100
0010
0000
0010
,
0110
0100
0000
0100
,
0001
1000
0000
1000
,
1001
0001
0000
0001
,
0010
0100
0000
0100
,
0110
0000
1001
0000
,
0110
0000
1001
0000
,
1000
0010
1000
0010
,
0100
0001
0100
0001
,
0200
0000
0000
0000
,
0000
0000
0300
0000
,
0010
1000
0001
0100
,
0010
1010
0100
0101
,
0001
0100
1000
0100
,
0001
0001
0001
0001
,
1000
0100
0001
0100
,
1000
1000
1000
1000
,
0010
1000
0100
1000
,
0010
0010
0010
0010
,
0100
0001
0010
0001
,
0200
0300
0200
0300
,
0010
0100
0001
0100
,
0010
0010
1000
0010
,
0100
0001
0010
0001
,
1001
0000
0002
0000
,
0000
0000
0003
0000
,
2000
0000
3200
0000
,
0320
0000
0032
0000
,
0000
0000
0000
0000
,
0000
0000
0000
0000
,
0000
0000
0003
0000
,
0100
0001
0100
0010
,
1000
0100
1000
0010
,
0100
0010
1000
0010
,
0100
0001
0100
0010
,
1000
0001
1000
0001
,
0100
0001
0100
0001
,
1000
0010
0100
0010
,
0001
0010
0100
0010
,
1000
0001
0100
0001
,
1000
0001
0100
0001
,
0010
0001
1000
0001
,
0010
0001
1000
0001
,
0100
0001
0010
0001
,
0100
0001
1000
0001
,
0100
0100
0010
0010
,
0100
0100
0010
0010
,
1000
1010
0000
1010
,
0000
1010
0000
1010
,
0020
0000
0000
0000
,
0000
0000
0030
0000
,
0100
0001
0100
0010
,
0110
0000
0110
0000
,
1000
0010
0100
0001
,
1001
0000
1001
0000
,
1000
0100
0010
0001
,
0011
0000
0011
0000
,
0001
0010
0100
1000
,
1001
0000
0220
0000
,
0000
0000
0000
0000
,
0000
0000
0000
0000
,
0000
0000
0000
0000
,
0000
0000
0330
0000
,
0110
1001
0000
0000
;

//---------------dance-single - ----------------
#NOTEDATA:;
#CHARTNAME:;
#STEPSTYPE:dance-single;
#DESCRIPTION:;
#CHARTSTYLE:;
#DIFFICULTY:Beginner;
#METER:5;
#RADARVALUES:0.262,0.390,0.018,0.097,0.000,195.000,2.000,11.000,0.000,0.000,0.000,0.000,0.000,0.262,0.390,0.018,0.097,0.000,195.000,2.000,11.000,0.000,0.000,0.000,0.000,0.000;
#CREDIT:;
#OFFSET:-1.161;
#BPMS:0.000=236.000
,232.000=118.000
,240.000=236.000
,300.000=472.000
,312.000=236.000
,422.000=708.000
,440.000=236.000
;
#STOPS:;
#DELAYS:;
#WARPS:;
#TIMESIGNATURES:0.000=4=4
;
#TICKCOUNTS:0.000=4
;
#COMBOS:0.000=1
;
#SPEEDS:0.000=1.000=0.000=0
;
#SCROLLS:0.000=1.000
;
#FAKES:;
#LABELS:0.000=Song Start
;
#NOTES:
0000
0000
0000
0000
,
0000
0000
0000
0000
,
1000
0000
0000
2000
,
0000
0000
3000
0000
,
0001
0000
0000
0002
,
0000
0000
0003
0000
,
0100
0000
0000
0200
,
0000
0000
0300
0000
,
0010
0000
0000
0020
,
0000
0000
0030
0000
,
1000
0000
0100
0000
,
1000
0000
0100
0000
,
0010
0000
0001
0000
,
0010
0000
0001
0000
,
0100
0000
0001
0000
,
0100
0000
0001
0000
,
0010
0000
1000
0000
,
0010
0000
1000
0000
,
0001
0000
1000
0000
,
0001
0000
1000
0000
,
0010
0000
0100
0000
,
0010
0000
0100
0000
,
1000
0000
0001
0000
,
1000
0000
0001
0000
,
0200
0000
0000
0000
,
0000
0000
0300
0000
,
0010
0000
0010
0000
,
1000
0000
1000
0000
,
0001
0000
0001
0000
,
0010
0000
0010
0000
,
0100
0000
0100
0000
,
1000
0000
1000
0000
,
0001
0000
0001
0000
,
0010
0000
0010
0000
,
0100
0000
1000
0000
,
0100
0000
0010
0000
,
2002
0000
0000
0000
,
3003
0000
0000
0000
,
1000
0100
0000
0100
,
0000
0100
0000
0100
,
0010
0010
0000
0010
,
0000
0010
0000
0010
,
0001
0001
0000
0001
,
0000
0001
0000
0001
,
0001
1000
0000
1000
,
0000
1000
0000
1000
,
0100
0100
0000
0100
,
0000
0010
0000
0010
,
0010
0001
0000
0001
,
0000
0001
0000
0001
,
1000
1000
0000
1000
,
0000
1000
0000
1000
,
1000
0100
0000
0100
,
0000
0100
0000
0100
,
0010
0000
0010
0000
,
0010
0000
0010
0000
,
0200
0000
0000
0000
,
0000
0300
0000
0000
,
1000
0000
1000
0000
,
1000
0000
1000
0000
,
0001
0000
0100
0000
,
0001
0000
1000
0000
,
0001
0000
0100
0000
,
0001
0000
1000
0000
,
1000
0000
0100
0000
,
1000
0000
0001
0000
,
1000
0000
0100
0000
,
2000
0000
0000
3000
,
0100
0000
1000
0000
,
0001
0000
0010
0000
,
0100
0000
1000
0000
,
0001
0000
0020
0000
,
0000
0000
0000
0000
,
0000
0000
0000
0000
,
0000
0000
0000
0000
,
0000
0000
0000
0000
,
0000
0000
0000
0000
,
0000
0000
0030
0000
,
0100
0100
0000
0100
,
0000
0100
0000
0100
,
0010
0010
0000
0010
,
0000
0010
0000
0010
,
0001
0001
0000
0001
,
0000
0001
0000
0001
,
0001
1000
0000
1000
,
0000
1000
0000
1000
,
0100
1000
0000
1000
,
0000
0001
0000
0001
,
0100
0010
0000
0010
,
0000
0100
0000
0100
,
0010
1000
0000
1000
,
0000
0001
0000
0001
,
0010
0100
0000
0100
,
0000
0100
0000
0100
,
0010
0010
0010
0010
,
0100
0100
0100
0100
,
1001
0000
0000
0000
,
0000
0000
0000
0000
,
1000
0000
1000
0000
,
0100
0000
0100
0000
,
1000
0000
1000
0000
,
0100
0000
0100
0000
,
0010
0000
0010
0000
,
0001
0000
0001
0000
,
0010
0000
0010
0000
,
0001
0000
0002
0000
,
0000
0000
0000
0000
,
0000
0000
0000
0000
,
0000
0000
0000
0000
,
0000
0000
0000
0000
,
0000
0000
0003
0000
;

//---------------dance-double - ----------------
#NOTEDATA:;
#CHARTNAME:;
#STEPSTYPE:dance-double;
#DESCRIPTION:;
#CHARTSTYLE:;
#DIFFICULTY:Hard;
#METER:15;
#RADARVALUES:0.769,1.000,0.106,0.229,0.035,572.000,12.000,26.000,0.000,0.000,0.000,0.000,0.000,0.769,1.000,0.106,0.229,0.035,572.000,12.000,26.000,0.000,0.000,0.000,0.000,0.000;
#CREDIT:;
#OFFSET:-1.161;
#BPMS:0.000=236.000
,232.000=118.000
,240.000=236.000
,300.000=472.000
,312.000=236.000
,422.000=708.000
,440.000=236.000
;
#STOPS:;
#DELAYS:;
#WARPS:;
#TIMESIGNATURES:0.000=4=4
;
#TICKCOUNTS:0.000=4
;
#COMBOS:0.000=1
;
#SPEEDS:0.000=1.000=0.000=0
;
#SCROLLS:0.000=1.000
;
#FAKES:;
#LABELS:0.000=Song Start
;
#NOTES:
// measure 0
00000000
00000000
00000000
00000000
,  // measure 1
00000000
00000000
00000000
00000000
,  // measure 2
00100000
00000000
00000000
10000000
00010000
00000000
02000000
00000000
,  // measure 3
00000000
00000000
03000000
00000000
,  // measure 4
00100000
00000000
00000000
00010000
00001000
00000000
00000020
00000000
,  // measure 5
00000000
00000000
00000030
00000000
,  // measure 6
00000010
00000000
00000000
00000001
00001000
00000000
00000200
00000000
,  // measure 7
00000000
00000000
00000300
00000000
,  // measure 8
00000100
00000000
00000000
00010000
00001000
00000000
02000000
00000000
,  // measure 9
00000000
00000000
03000000
00000000
,  // measure 10
00100000
10000000
01000000
00000000
00100000
00010000
01000000
00000000
,  // measure 11
00100000
10000000
00010000
01000000
00001000
00010000
00000100
00000000
,  // measure 12
00000010
00000001
00000100
00000000
00000010
00001000
00000100
00000000
,  // measure 13
00000010
00000001
00001000
00000100
00010000
00001000
00100000
00000000
,  // measure 14
00010000
00100000
01000000
00000000
10000000
00100000
01000000
00000000
,  // measure 15
00100000
01000000
00010000
00100000
00001000
00010000
00000010
00000000
,  // measure 16
00000100
00000001
00000010
00000000
00000100
00001000
00000010
00000000
,  // measure 17
00000100
00000001
00000100
00001000
00000100
00000001
00001000
00000001
,  // measure 18
00000100
00000000
00001000
00000000
00010000
00000000
00100000
10000000
,  // measure 19
00100000
01000000
00100000
00010000
00001000
00000100
00000001
00001000
,  // measure 20
00000001
00000000
00000010
00000000
00000100
00000000
00001000
00000100
,  // measure 21
00000010
00000100
00001000
00000001
00000100
00001000
00010000
00100000
,  // measure 22
01000000
00000000
00010000
00000000
10000000
00000000
01000000
10000000
,  // measure 23
01000000
00100000
00010000
10000000
00100000
00010000
00001000
00000100
,  // measure 24
00000010
00000000
00001000
00000000
00000001
00000000
00001000
00000010
,  // measure 25
00000000
00000010
00001000
00000001
00001000
00000000
00001001
00000000
,  // measure 26
00002000
00000010
00000001
00000100
,  // measure 27
00000001
00000001
00000001
00000000
00000100
00000000
00003100
00000000
,  // measure 28
00000200
00010000
00001000
00010000
,  // measure 29
01000000
01000000
01000000
00000000
00010000
00000000
00010300
00000000
,  // measure 30
00020000
00000010
00001000
00000100
,  // measure 31
00001000
00001000
00001000
00000000
00000100
00000000
00030100
00000000
,  // measure 32
02000000
00010000
00001000
00010000
,  // measure 33
00100000
00100000
00100000
00000000
00010000
00000000
03010000
00000000
,  // measure 34
10000000
00010000
01000000
00000000
00100000
01000000
00010000
00000000
,  // measure 35
00100000
00001000
00010000
00000000
00001000
00010000
00000100
00000000
,  // measure 36
00000010
00000010
00000000
00000000
00000001
00000001
00000001
00000002
,  // measure 37
00000000
00000000
00000000
00000003
,  // measure 38
00000100
00000001
00000100
00000000
00000010
00001000
00000010
00000000
,  // measure 39
00010000
00000100
00010000
00000000
00011000
00000000
00011000
00000000
,  // measure 40
00001000
00100000
00001000
00000000
00100000
01000000
00100000
00000000
,  // measure 41
00010000
00100000
00010000
00000000
10010000
00000000
10010000
00000000
,  // measure 42
10000000
00100000
10000000
00000000
00010000
01000000
00010000
00000000
,  // measure 43
00100000
00001000
00100000
00000000
00011000
00000000
00011000
00000000
,  // measure 44
00010000
00000100
00010000
00000000
00000100
00001000
00000100
00000000
,  // measure 45
00000010
00000001
00000010
00000000
00001001
00000000
00001001
00000000
,  // measure 46
00000001
00000100
00001000
00000100
00000001
00000000
00001000
00000000
,  // measure 47
00000100
00000010
00000001
00000010
00000100
00000000
00001000
00000000
,  // measure 48
00000100
00010000
00001000
00100000
00010000
00000000
00100000
00000000
,  // measure 49
01000000
00010000
00001000
00010000
00000100
00000000
00000010
00000000
,  // measure 50
00000001
00000100
00001000
00010000
00100000
00000000
10000000
00000000
,  // measure 51
00100000
10000000
01000000
00010000
00001000
00000000
00010000
00000000
,  // measure 52
00001000
00000000
00000100
00000000
00000010
00000000
00001000
00000010
,  // measure 53
00000000
00000010
00000100
00000000
00000001
00000000
00000001
00000000
,  // measure 54
00000100
00001000
00000100
00001000
00010000
00001000
00010000
00001000
,  // measure 55
00010000
00100000
00010000
00100000
10000000
00100000
10000000
00100000
,  // measure 56
02000000
00000000
00000000
00000000
,  // measure 57
00000000
00000000
03000000
00000000
,  // measure 58
10000000
01000000
00000000
00010000
00001000
00000000
00000010
00000000
00001000
00000010
00001000
00000000
00000001
00000100
00000001
00000000
,  // measure 59
00000200
00002300
00023000
00230000
20300000
32000000
03200000
00300000
,  // measure 60
00010000
00100000
00010000
10000000
01000000
10000000
01000000
00100000
,  // measure 61
00010000
01000000
10000000
01000000
00100000
10000000
00100000
00010000
,  // measure 62
00001000
00000100
00000001
00001000
00000100
00001000
00000100
00000010
,  // measure 63
00000001
00001000
00000001
00001000
00000010
00000100
00000001
00000100
,  // measure 64
00000010
00001000
00000001
00001000
00000100
00010000
00001000
00010000
,  // measure 65
00001000
01000000
00100000
10000000
00100000
01000000
00010000
00100000
,  // measure 66
01000000
00100000
00010000
00001000
00000100
00010000
00000100
00000010
,  // measure 67
00000001
00000000
00000100
00000000
00001000
00000000
00010000
00000000
00100000
00000000
10000000
00000000
,  // measure 68
00100000
00000000
00000000
00010000
01000000
00010000
10000000
00100000
,  // measure 69
01000000
00000000
00000000
01000000
00010000
00000000
00000000
00010000
,  // measure 70
00001000
00000000
00010000
00000000
00001000
00000010
00000001
00001000
,  // measure 71
00000200
00000000
00000020
00000000
,  // measure 72
00000000
00000000
00000330
00000000
,  // measure 73
00000002
00000003
00002000
00003000
,  // measure 74
00020000
00030000
20000000
00000000
,  // measure 75
00000000
00000000
00000000
00000000
,  // measure 76
00000000
00000000
00000000
00000000
,  // measure 77
00000000
00000000
00000000
30000000
,  // measure 78
10000000
00100000
00010000
00100000
00010000
00001000
00010000
00000100
,  // measure 79
00000010
00001000
00010000
00001000
00000010
00000001
00000100
00000001
,  // measure 80
00000100
00001000
00010000
00100000
00010000
00001000
00010000
01000000
,  // measure 81
00100000
00010000
10000000
00100000
00010000
00100000
01000000
00100000
,  // measure 82
00010000
00001000
00000100
00000010
00000100
00000001
00001000
00000100
,  // measure 83
00000010
00001000
00010000
00001000
00000010
00000100
00001000
00000001
,  // measure 84
00000100
00001000
00010000
00001000
01000000
00010000
00100000
00010000
,  // measure 85
10000000
01000000
10000000
01000000
00100000
00010000
00100000
00010000
,  // measure 86
10000000
00100000
00010000
00001000
00010000
01000000
10000000
00010000
,  // measure 87
00100000
00001000
00010000
00000100
00010000
00001000
00010000
00000010
,  // measure 88
00000100
00000001
00000010
00001000
00010000
00001000
00000100
00000001
,  // measure 89
00000100
00001000
00010000
00001000
00100000
00010000
01000000
00100000
,  // measure 90
10000000
00100000
00010000
00100000
10000000
01000000
00010000
00001000
,  // measure 91
00000100
00000001
00001000
00000100
00000010
00000001
00001000
00000010
,  // measure 92
00000100
00000001
00000100
00000001
00001000
00000010
00001000
00000010
,  // measure 93
00000100
00010000
00000100
00010000
00001000
00100000
00001000
00100000
,  // measure 94
00010000
00100000
10000000
01000000
,  // measure 95
00010000
00001000
00000100
00000001
,  // measure 96
00001000
00000000
00000000
00001001
00000000
00000000
00000100
00000000
,  // measure 97
00000200
00000000
00000000
00000300
,  // measure 98
00000010
00000001
00001000
00000100
00010000
00001000
00100000
00010000
,  // measure 99
10000000
00100000
01000000
00001000
00010000
00000010
00001000
00000001
,  // measure 100
00000100
00000010
00001000
00000001
00001000
00000100
00001000
00000100
,  // measure 101
00010000
00001000
00010000
01000000
00100000
00010000
10000000
00100000
,  // measure 102
01000000
00100000
00010000
00001000
,  // measure 103
00000100
00000010
00001000
00010000
,  // measure 104
00010000
00001000
00010000
00000100
00010000
00001000
01000000
00001000
,  // measure 105
00020000
00000000
00002000
00000000
,  // measure 106
00000000
00000000
00000000
00000000
,  // measure 107
00000000
00000000
00000000
00000000
,  // measure 108
00000000
00000000
00000000
00000000
,  // measure 109
00000000
00000000
00033000
00000000
,  // measure 110
01001000
00010100
00000000
00000000
;

//---------------dance-double - ----------------
#NOTEDATA:;
#CHARTNAME:;
#STEPSTYPE:dance-double;
#DESCRIPTION:;
#CHARTSTYLE:;
#DIFFICULTY:Medium;
#METER:12;
#RADARVALUES:0.562,0.778,0.026,0.185,0.018,422.000,3.000,21.000,0.000,0.000,0.000,0.000,0.000,0.562,0.778,0.026,0.185,0.018,422.000,3.000,21.000,0.000,0.000,0.000,0.000,0.000;
#CREDIT:;
#OFFSET:-1.161;
#BPMS:0.000=236.000
,232.000=118.000
,240.000=236.000
,300.000=472.000
,312.000=236.000
,422.000=708.000
,440.000=236.000
;
#STOPS:;
#DELAYS:;
#WARPS:;
#TIMESIGNATURES:0.000=4=4
;
#TICKCOUNTS:0.000=4
;
#COMBOS:0.000=1
;
#SPEEDS:0.000=1.000=0.000=0
;
#SCROLLS:0.000=1.000
;
#FAKES:;
#LABELS:0.000=Song Start
;
#NOTES:
00000000
00000000
00000000
00000000
,
00000000
00000000
00000000
00000000
,
00010000
00000000
00000000
00100000
00000000
00000000
02000000
00000000
,
00000000
00000000
03000000
00000000
,
00010000
00000000
00000000
00001000
00000000
00000000
00020000
00000000
,
00000000
00000000
00030000
00000000
,
00001000
00000000
00000000
00000100
00000000
00000000
00000020
00000000
,
00000000
00000000
00000030
00000000
,
00001000
00000000
00000000
00010000
00000000
00000000
00002000
00000000
,
00000000
00000000
00003000
00000000
,
00010000
00000000
00100000
00000000
01000000
00000000
00100000
10000000
,
00000000
10000000
00100000
00000000
01000000
00000000
00100000
00000000
,
00010000
00000000
00001000
00000000
00010000
00000000
00000100
00010000
,
00000000
00010000
00001000
00000000
00010000
00000000
00000100
00000000
,
00000010
00000000
00000001
00000000
00001000
00000000
00000100
00001000
,
00000000
00001000
00000100
00000000
00000010
00000000
00000001
00000000
,
00001000
00000000
00000100
00000000
00010000
00000000
00001000
01000000
,
00000000
01000000
00010000
00000000
10000000
00010000
10000000
00010000
,
10000000
00000000
01000000
00000000
00100000
00000000
00010000
00100000
,
00000000
00100000
00010000
00000000
00100000
00000000
00001000
00000000
,
00010000
00000000
00001000
00000000
00000100
00000000
00000010
00001000
,
00000000
00001000
00000010
00000000
00000100
00000000
00000001
00000000
,
00000010
00000000
00000100
00000000
00001000
00000000
00000100
00010000
,
00000000
00010000
00001000
00000000
00010000
00000000
01000000
00000000
,
00200000
01000000
00000000
01000000
,
00000000
01000000
01300000
01000000
,
10000000
01000000
10000000
00000000
01000000
00000000
00100000
00000000
,
00010000
00100000
00001000
00010000
,
00001000
00010000
00001000
00000000
00010000
00000000
00000100
00000000
,
00010000
00001000
00100000
00010000
,
00001000
00000100
00001000
00000000
00000100
00000000
00001000
00000000
,
00000001
00000100
00000010
00001000
,
00000100
00001000
00000100
00000000
00010000
00000000
00001000
00000000
,
00100000
00001000
00010000
00001000
,
01000000
00010000
01000000
00000000
00100000
10000000
00100000
00000000
,
10000000
00100000
00010000
00001000
,
00020000
00000000
00000000
00000000
00002000
00000000
00000000
00003000
,
00000000
00000000
00030000
00000000
,
00001000
00000000
00000100
00000000
00001000
00000000
00000001
00000010
,
00000000
00000010
00000001
00000010
00000001
00000000
00001000
00000000
,
00000100
00000000
00010000
00000000
00001000
00000000
00100000
00010000
,
00000000
00010000
10000000
00010000
10000000
00000000
01000000
00000000
,
10000000
00000000
00100000
00000000
01000000
00000000
00010000
01000000
,
00000000
01000000
00001000
01000000
00001000
00000000
00010000
00000000
,
00000010
00000000
00001000
00000000
00000001
00000000
00000100
00000001
,
00000000
00000001
00000100
00000001
00000100
00000000
00000010
00000000
,
00001000
00000000
00000001
00000000
00000010
00000000
00000100
00001000
,
00000000
00001000
00000001
00001000
00000001
00000000
00000100
00000000
,
00001000
00000000
00010000
00000000
00001000
00000000
00100000
00001000
,
00000000
00001000
00010000
00001000
00010000
00000000
01000000
00000000
,
00100000
00000000
00010000
00000000
10000000
00000000
00010000
01000000
,
00000000
01000000
00100000
01000000
00100000
00000000
10000000
00000000
,
00100000
00010000
00001000
00000100
,
00000010
00001000
00000001
00000010
,
00000100
00000000
00001000
00000000
00000100
00000000
00000010
00000001
,
00000000
00000001
00001000
00000001
00001000
00000000
00000100
00000000
,
00020000
00000000
00000000
00000000
,
00000000
00000000
00030000
00000000
,
00010000
00000000
10100000
00000000
00100000
00010000
00001000
00000000
,
00000200
00000320
00002030
00003002
00000203
00000000
00000000
00000300
,
00000010
00001000
00000001
00000100
,
00000010
00010000
00001000
01000000
,
00100000
10000000
00010000
10000000
,
00100000
10000000
00100000
10000000
00100000
10000000
01000000
00000000
,
10000000
01000000
00100000
00010000
,
00100000
00001000
00010000
00000100
,
00000010
00000001
00001000
00000100
,
00000010
00000000
00000001
00000000
00000010
00000000
00000001
00000000
00000100
00000000
00000001
00000000
,
00000100
00000000
00000010
00000000
00001000
00000010
00001000
00000000
,
00000100
00000000
00010000
00000000
00001000
00010000
00001000
00000000
,
00100000
00000000
01000000
00000000
00100000
00010000
00100000
00000000
,
00020000
00000000
00200000
00000000
,
00000000
00000000
00330000
00000000
,
20000000
30000000
00020000
00030000
,
00002000
00003000
00000002
00000000
,
00000000
00000000
00000000
00000000
,
00000000
00000000
00000000
00000000
,
00000000
00000000
00000000
00000003
,
00000100
00000000
00000001
00000000
00000100
00000000
00000010
00001000
,
00000000
00000100
00010000
00000100
00010000
00000000
00001000
00000000
,
00100000
00000000
00010000
00000000
10000000
00000000
00100000
01000000
,
00000000
00001000
00010000
00001000
00010000
00000000
00000100
00000000
,
00000010
00000000
00000001
00000000
00001000
00000000
00000100
00010000
,
00000000
00001000
00100000
00001000
00010000
00000000
00001000
00000000
,
00100000
00000000
00010000
00000000
10000000
00000000
00100000
00010000
,
00000000
00001000
00010000
00001000
00000100
00000000
00000010
00000000
,
00001000
00000100
00000001
00000100
,
00000010
00000001
00000010
00000000
00000100
00000000
00001000
00000000
,
00010000
00100000
10000000
00100000
,
00010000
10000000
00010000
00000000
01000000
00000000
00100000
00000000
,
00010000
00001000
00000100
00000010
,
00001000
00000100
00001000
00000000
00000100
00000000
00010000
00000000
,
00001000
01000000
00010000
00100000
,
00001000
00000100
00000010
00010000
,
00010000
00000100
00010000
00000000
00000100
00001000
00000100
00000000
,
00010000
00001000
00010000
00000000
00001000
01000000
00001000
00000000
,
00010000
00000000
00000000
00001000
00000000
00000000
00100000
00000000
,
00100000
00000000
00100000
00000000
,
00010000
00100000
01000000
00000000
10000000
00000000
01000000
00000000
,
10000000
01000000
00100000
00000000
00010000
00000000
00100000
00000000
,
00001000
00010000
00000100
00000000
00001000
00000000
00000100
00000000
,
00000010
00000001
00001000
00000000
00000010
00000000
00000100
00000000
,
00000001
00000100
00000001
00000100
00000001
00000100
00000001
00000000
,
00001000
00000100
00001000
00000100
00001000
00000100
00001000
00000000
,
00000100
00010000
00001000
00100000
,
00002000
00000000
00020000
00000000
,
00000000
00000000
00000000
00000000
,
00000000
00000000
00000000
00000000
,
00000000
00000000
00000000
00000000
,
00000000
00000000
00033000
00000000
,
01001000
00010100
00000000
00000000
;

//---------------dance-double - ----------------
#NOTEDATA:;
#CHARTNAME:;
#STEPSTYPE:dance-double;
#DESCRIPTION:;
#CHARTSTYLE:;
#DIFFICULTY:Easy;
#METER:7;
#RADARVALUES:0.406,0.389,0.018,0.221,0.000,295.000,2.000,25.000,0.000,0.000,0.000,0.000,0.000,0.406,0.389,0.018,0.221,0.000,295.000,2.000,25.000,0.000,0.000,0.000,0.000,0.000;
#CREDIT:;
#OFFSET:-1.161;
#BPMS:0.000=236.000
,232.000=118.000
,240.000=236.000
,300.000=472.000
,312.000=236.000
,422.000=708.000
,440.000=236.000
;
#STOPS:;
#DELAYS:;
#WARPS:;
#TIMESIGNATURES:0.000=4=4
;
#TICKCOUNTS:0.000=4
;
#COMBOS:0.000=1
;
#SPEEDS:0.000=1.000=0.000=0
;
#SCROLLS:0.000=1.000
;
#FAKES:;
#LABELS:0.000=Song Start
;
#NOTES:
00000000
00000000
00000000
00000000
,
00000000
00000000
00000000
00000000
,
00100000
00000000
00000000
02000000
,
00000000
00000000
03000000
00000000
,
00010000
00000000
00000000
00002000
,
00000000
00000000
00003000
00000000
,
00000100
00000000
00000000
00000020
,
00000000
00000000
00000030
00000000
,
00001000
00000000
00000000
00020000
,
00000000
00000000
00030000
00000000
,
00001000
00010000
00001000
00000000
,
00000100
00000001
00000100
00000000
,
00000010
00001000
00000010
00000000
,
00010000
00001000
00010000
00000000
,
01000000
10000000
01000000
00000000
,
00100000
00010000
00100000
00000000
,
00001000
00010000
00001000
00010000
,
00000100
00010000
00001000
01000000
,
00010000
01000000
00100000
00000000
,
10000000
00100000
00010000
00000000
,
00001000
00000100
00000001
00000000
,
00000100
00000001
00000010
00000000
,
00000100
00001000
00000001
00000000
,
00001000
00000100
00010000
00001000
,
00020000
00000000
00000000
00000000
,
00000000
00000000
00030000
00000000
,
00002000
00100000
00000000
00100000
,
00000000
00100000
00003000
00100000
,
00020000
00000100
00000000
00000100
,
00000000
00000100
00030000
00000100
,
00002000
00000010
00000000
00000010
,
00000000
00000010
00003000
00000010
,
00000200
00010000
00000000
00010000
,
00000000
00010000
00000300
00010000
,
00001000
00100000
00000000
00100000
,
01000000
00100000
01000000
00010000
,
20000000
00000000
30020000
00000000
,
00000000
00030000
00000000
00000000
,
10000000
00100000
01000000
00100000
,
10000000
01000000
00100000
01000000
,
00010000
00001000
00010000
00000100
,
00010000
00001000
00010000
00000010
,
00000100
00000001
00000010
00000001
,
00000100
00000010
00000001
00000010
,
00001000
00000100
00010000
00001000
,
00100000
00001000
00010000
00000100
,
00000010
00000001
00001000
00000001
,
00000010
00000100
00001000
00000001
,
00000100
00001000
00010000
00001000
,
00000100
00001000
00010000
00100000
,
10000000
00010000
01000000
00010000
,
10000000
01000000
00100000
00010000
,
20000000
01000000
00000000
01000000
,
00000000
01000000
30000000
01000000
,
00100000
00010000
00100000
00001000
,
00010000
00000100
00001000
00000100
,
00000020
00000000
00000000
00000000
,
00000000
00000000
00000030
00000000
,
00000001
00000000
00000100
00000000
,
00010000
00000000
00100000
00000000
,
01000000
01000000
01000000
00000000
,
10000000
00100000
00010000
00001000
,
00010000
00010000
00010000
00000000
,
00001000
00000100
00000001
00001000
,
00000100
00000100
00000100
00000000
,
00000010
00000000
00000001
00000000
,
00001000
00000100
00001000
00000100
,
00020000
00030000
00002000
00003000
,
00010000
00010000
00010000
00000000
,
01000000
00100000
00010000
00100000
,
01000000
01000000
01000000
00000000
,
20000000
00000000
00020000
00000000
,
00000000
00000000
30030000
00000000
,
20000000
30000000
00020000
00030000
,
00002000
00003000
00000002
00000000
,
00000000
00000000
00000000
00000000
,
00000000
00000000
00000000
00000000
,
00000000
00000000
00000003
00000000
,
00000100
00000001
00000100
00000001
,
00001000
00000010
00001000
00000010
,
00000100
00000001
00000100
00000010
,
00001000
00000010
00000100
00000010
,
00001000
00000100
00010000
00001000
,
00010000
00000100
00010000
00001000
,
00100000
00001000
00010000
00001000
,
00100000
00010000
00100000
00001000
,
00010000
01000000
00010000
01000000
,
00100000
00010000
00100000
00010000
,
10000000
00100000
10000000
00100000
,
01000000
10000000
01000000
10000000
,
01000000
00010000
00100000
00001000
,
00010000
00000100
00001000
00000010
,
00000200
00000000
00000000
00000000
,
00000000
00000000
00000300
00000000
,
00000010
00001000
00000010
00001000
,
00000000
00001000
00000000
00001000
,
00000001
00000000
00002000
00000000
,
00000000
00000000
00003000
00000000
,
00000100
00000100
00000010
00000010
,
00000001
00000001
00001000
00001000
,
00000100
00000100
00010000
00010000
,
00001000
00001000
01000000
01000000
,
00100000
00100000
10000000
10000000
,
00010000
00010000
00100000
00100000
,
00001000
00001000
00010000
00010000
,
00002000
00000000
00020000
00000000
,
00000000
00000000
00000000
00000000
,
00000000
00000000
00000000
00000000
,
00000000
00000000
00000000
00000000
,
00033000
00000000
00000000
00000000
,
00011000
00011000
00000000
00000000
;
