#TITLE:Ladymade Star;
#SUBTITLE:SPACE IDOL POP;
#ARTIST:ESTi;
#TITLETRANSLIT:;
#SUBTITLETRANSLIT:;
#ARTISTTRANSLIT:;
#GENRE:;
#CREDIT:;
#BANNER:Ladymade Star.png;
#BACKGROUND:Ladymade Star-bg.png;
#LYRICSPATH:;
#CDTITLE:;
#MUSIC:Ladymade Star.mp3;
#OFFSET:-0.390;
#SAMPLESTART:64.044;
#SAMPLELENGTH:12.000;
#SELECTABLE:YES;
#BPMS:0.000=136.000
;
#STOPS:
;
#BGCHANGES:;
#KEYSOUNDS:;
#ATTACKS:;

//---------------dance-single - ----------------
#NOTES:
     dance-single:
     :
     Hard:
     12:
     0.485,0.432,0.298,0.211,0.047,369.000,38.000,27.000,0.000,0.000,0.000,0.485,0.432,0.298,0.211,0.047,369.000,38.000,27.000,0.000,0.000,0.000:
0000
0000
0000
0000
,
0000
0000
0000
0000
,
0000
0000
0000
0000
,
0000
0000
0000
0000
,
0001
0000
0100
0000
0010
0000
0100
0001
,
0000
1000
0000
1001
0000
0000
0000
0000
,
1000
0000
0100
0000
0010
0000
1000
0001
,
0000
0010
0100
0000
0110
0000
1001
0000
,
0010
0000
0100
0000
0010
0000
0100
1000
,
0000
0001
0000
1001
0000
0000
0000
0000
,
1000
0000
0010
0000
0100
0000
1000
0010
,
0000
0100
0001
0100
0010
0000
0110
0000
,
0010
1000
0010
1000
0001
0100
0010
0100
,
0000
0100
0010
1000
0001
0000
1001
0000
,
0010
0001
0010
0001
1000
0100
1000
0010
,
0000
0010
0100
0001
1000
0000
1001
0000
,
1000
0100
1000
0001
0010
0001
0010
0100
,
0000
0100
1000
0100
0010
0000
1001
0000
,
0001
0100
0001
1000
0010
1000
0010
0200
,
0000
0000
0000
0300
,
0010
0000
0010
0000
0010
0000
0000
1000
0000
0001
0000
1000
0001
0000
0100
0000
,
0000
0001
0100
0001
0010
0001
1000
0000
,
0010
0000
0010
0000
0010
0000
0000
1000
0000
0001
0000
1000
0100
0000
0010
0000
,
0000
0100
1000
0100
1000
0001
1000
0000
,
0001
0000
0001
0000
0001
0000
0000
1000
0000
0100
0000
1000
0010
0000
0100
0000
,
0000
0010
1000
0010
1000
0001
1000
0000
,
0100
0000
0100
0000
0100
0000
0000
0010
0000
0001
0000
1000
0100
0000
0010
0000
,
0000
0100
0100
1000
1000
0001
0001
0000
,
1000
0010
0100
0000
1000
0010
0100
0000
,
1000
0100
1000
0100
1000
0010
0100
0001
,
0001
0010
0100
0000
0001
0010
0100
0000
,
0001
0100
0001
0100
0001
0010
0100
1000
,
1000
0001
0010
0000
1000
0001
0010
0000
,
1000
0010
1000
0010
1000
0001
0010
0001
,
0001
1000
0100
0000
0001
1000
0100
0010
,
0000
0011
1100
1001
,
2000
3020
0032
0203
,
2300
3200
0302
0023
,
1030
0001
1000
0001
0100
0001
0100
0010
,
0100
1010
0101
1010
,
0000
2000
3200
0302
,
2003
3002
0023
2030
,
3001
0100
0001
0100
0010
1000
0010
1000
,
0100
0011
1100
0011
,
0002
0023
2030
3200
,
0302
0203
2300
3020
,
0031
1000
0001
1000
0010
1000
0010
0100
,
0001
0100
0010
1000
0010
1000
0100
1000
,
0200
0000
0300
0000
,
0011
1100
1010
0101
,
1000
0100
1000
0001
1000
0010
0100
0010
,
0100
0000
0001
0100
1000
0100
0001
0000
,
1001
0000
0110
0000
1001
0000
1000
0100
,
0000
0100
0010
0001
1000
0001
1000
0000
,
0110
0000
1001
0000
0110
0000
0010
1000
,
0001
1000
0001
0100
0010
0100
0001
0000
,
1010
0000
0101
0000
1010
0000
1000
0001
,
0000
0001
1000
0100
1000
0010
1000
0000
,
0011
0000
1100
0000
0011
0000
1000
0010
,
0100
0010
0100
0001
1000
0001
1000
0000
,
0001
0100
1000
0100
1000
0100
0001
0010
,
0000
0100
1000
0001
1000
0000
1001
0000
,
1000
0100
0001
0100
0001
0100
1000
0010
,
0000
0100
0001
1000
0001
0000
1001
0000
,
1000
0010
0001
0010
0001
0010
1000
0100
,
0000
0010
0001
1000
0001
0000
1001
0000
,
0001
0010
1000
0010
1000
0010
0001
0100
,
0000
0010
1000
0001
1000
0000
1001
0000
,
0220
0000
0000
0000
,
0330
0000
0000
0000
;

//---------------dance-single - ----------------
#NOTES:
     dance-single:
     :
     Medium:
     9:
     0.368,0.378,0.180,0.110,0.000,292.000,23.000,14.000,0.000,0.000,0.000,0.368,0.378,0.180,0.110,0.000,292.000,23.000,14.000,0.000,0.000,0.000:
0000
0000
0000
0000
,
0000
0000
0000
0000
,
0000
0000
0000
0000
,
0000
0000
0000
0000
,
0001
0000
0100
0000
0010
0000
1000
0001
,
0000
0100
0000
0110
0000
0000
0000
0000
,
1000
0000
0100
0000
0010
0000
0001
0100
,
0000
0010
1001
0000
,
0001
0000
1000
0000
0100
0000
1000
0010
,
0000
1000
0000
1001
0000
0000
0000
0000
,
1000
0000
0001
0000
0100
0000
0001
0010
,
0000
0100
1000
0000
0010
0000
0110
0000
,
1000
0000
1000
0000
0001
1000
0000
0001
,
0000
0010
0000
0100
0010
0000
0010
0000
,
0001
0000
0001
0000
1000
0001
0000
1000
,
0000
0010
0000
0100
0010
0000
0010
0000
,
1000
0000
0100
0000
1000
0010
0000
0100
,
0000
0010
0000
0100
0001
0000
0010
0000
,
0001
0000
0100
0000
0001
1000
0000
0200
,
0000
0000
0000
0300
,
0010
0100
0010
0000
0001
0000
1000
0000
,
0010
1000
0010
0000
0100
0000
0001
0000
,
0010
0100
0010
0000
0001
0000
1000
0000
,
0010
1000
0010
0000
0100
0000
0100
0000
,
0001
1000
0001
0000
1000
0000
0100
0000
,
0010
0001
0010
0000
0001
0000
1000
0000
,
0001
1000
0001
0000
1000
0001
1000
0200
,
0000
0000
0000
0300
,
0010
0010
0010
0000
0001
0001
0001
0000
,
0100
0100
0100
0000
1000
1000
1000
0000
,
0010
0010
0010
0000
1000
1000
1000
0000
,
0100
0100
0100
0000
0001
0001
0001
0000
,
0010
0001
0010
0000
0001
0100
0001
0000
,
0100
1000
0100
0000
1000
0010
1000
0000
,
0010
0001
0010
0000
0100
1000
0100
0000
,
0020
0000
0000
0030
,
0100
1000
0010
0001
,
0100
0001
0010
1000
,
0100
0010
0100
0000
1000
0100
1000
0000
,
0001
0010
0001
0000
0010
0100
0010
0000
,
0000
0000
0200
0300
2000
3000
0002
0003
,
0200
0300
0002
0003
2000
3000
0200
0300
,
0010
0001
0100
0001
,
1000
0100
1000
1010
,
0100
0001
0010
1000
,
0100
1000
0010
0001
,
0100
0010
0100
0000
0001
0100
0001
0000
,
1000
0010
1000
0000
0010
0100
0010
0000
,
2002
0000
3003
0000
,
1000
1010
0001
0101
,
0010
1000
0010
0000
0100
0001
0100
0000
,
0010
0100
0010
0100
,
0001
0000
1001
0000
0011
0000
0010
0100
,
0000
0100
0000
0110
0000
0000
0000
0000
,
1000
0000
1001
0000
1010
0000
0010
0100
,
0000
0100
0010
0100
0010
0100
0010
0000
,
1000
0000
1100
0000
1001
0000
0010
0001
,
0000
0001
0000
0011
0000
0000
0000
0000
,
0001
0000
0101
0000
1001
0000
0010
1000
,
0000
1000
0001
1000
0001
1000
0001
0000
,
0100
0000
0010
0000
1000
1000
0000
0001
,
0000
0100
0000
0001
0010
0000
0011
0000
,
0100
0000
0010
0000
0001
0001
0000
1000
,
0000
0100
0000
1000
0010
0000
1010
0000
,
1000
0010
0100
0010
0100
0010
0100
0010
,
0000
0100
0000
0001
0001
0000
1001
0000
,
0001
0100
0010
0100
0010
0100
0010
0100
,
0000
0010
1000
0001
1000
0000
1001
0000
,
0220
0000
0000
0000
,
0330
0000
0000
0000
;

//---------------dance-single - ----------------
#NOTES:
     dance-single:
     :
     Easy:
     5:
     0.243,0.216,0.141,0.039,0.000,194.000,18.000,5.000,0.000,0.000,0.000,0.243,0.216,0.141,0.039,0.000,194.000,18.000,5.000,0.000,0.000,0.000:
0000
0000
0000
0000
,
0000
0000
0000
0000
,
0000
0000
0000
0000
,
0000
0000
0000
0000
,
1000
0000
1000
0000
1000
0000
0000
0001
,
0000
0001
0000
0001
0000
0000
0000
0000
,
0010
0000
0010
0000
0010
0000
0000
0100
,
0000
0100
0100
0000
,
1000
0000
1000
0000
1000
0000
0000
0010
,
0000
0010
0000
0010
0000
0000
0000
0000
,
0001
0000
0001
0000
0001
0000
0000
0100
,
0000
0100
0100
0000
,
1000
1000
0001
1000
,
0010
0000
0010
0010
,
0001
0001
1000
0001
,
0100
0000
0100
0100
,
0010
0010
0100
0010
,
1000
0000
0001
0001
,
0100
0100
0010
0100
,
0002
0000
0000
0003
,
1000
0000
1000
0000
,
0001
0000
0001
0000
,
0100
0000
0100
0000
,
0001
0000
0001
0000
,
1000
0000
1000
0000
,
0100
0000
0100
0000
,
1000
0000
1000
0000
,
0110
0000
0000
0000
,
0100
0001
0100
0001
,
1000
0010
1000
0010
,
0100
0010
0100
0010
,
1000
0001
1000
0001
,
1000
0100
1000
0100
,
0010
0001
0010
0001
,
1000
0001
1000
0001
,
0110
0000
0000
0000
,
0000
1001
0000
1001
,
0000
0110
0000
0110
,
1000
1000
0001
0001
,
0100
0100
0010
0010
,
0000
1001
0000
1001
,
0000
0110
0000
0110
,
0010
0010
1000
1000
,
0001
0000
1000
0000
,
0000
0110
0000
1001
,
0000
0110
0000
1001
,
1000
1000
0001
0001
,
0100
0010
0100
0010
,
2002
0000
3003
0000
,
1000
0100
0010
0001
,
0100
0100
0010
0010
,
1001
0000
1001
0000
,
0001
0000
0001
0000
0001
0000
0000
0100
,
0000
0100
0000
0100
0000
0000
0000
0000
,
1000
1000
1000
0000
,
0010
0010
0010
0010
,
1000
0000
1000
0000
1000
0000
0000
0100
,
0000
0100
0000
0100
0000
0000
0000
0000
,
0001
0001
0001
0000
,
0010
0010
0010
0010
,
0001
0100
0001
0100
,
0010
0000
0010
0010
,
1000
0100
1000
0100
,
0010
0000
0010
0010
,
1000
0001
1000
0010
,
0100
0000
0100
0100
,
0001
1000
0001
1000
,
0100
0000
0100
0100
,
2002
0000
0000
0000
,
3003
0000
0000
0000
;

//---------------dance-single - ----------------
#NOTES:
     dance-single:
     :
     Beginner:
     3:
     0.142,0.189,0.023,0.016,0.000,122.000,3.000,2.000,0.000,0.000,0.000,0.142,0.189,0.023,0.016,0.000,122.000,3.000,2.000,0.000,0.000,0.000:
0000
0000
0000
0000
,
0000
0000
0000
0000
,
0000
0000
0000
0000
,
0000
0000
0000
0000
,
0010
0000
0010
0000
,
0100
0000
0100
0000
,
0010
0000
0010
0000
,
1000
0000
1000
0000
,
0001
0000
0100
0000
,
0001
0000
0100
0000
,
0010
0000
1000
0000
,
0010
0000
1000
0000
,
0100
0000
0000
0000
,
0100
0000
0000
0000
,
0010
0000
0000
0000
,
0010
0000
0000
0000
,
1000
0000
0000
0000
,
1000
0000
0000
0000
,
0001
0000
0000
0000
,
0001
0000
0000
0000
,
0100
0000
0100
0000
,
0100
0000
0100
0000
,
0010
0000
0010
0000
,
0010
0000
0010
0000
,
1000
0000
1000
0000
,
1000
0000
1000
0000
,
0001
0000
0001
0000
,
0001
0000
0000
0000
,
0100
0100
0000
0000
,
0010
0010
0000
0000
,
0100
0100
0000
0000
,
0010
0010
0000
0000
,
1000
1000
0000
0000
,
0001
0001
0000
0000
,
1000
1000
0000
0000
,
0001
0001
0000
0000
,
0000
0100
0000
0100
,
0000
1000
0000
1000
,
0000
0001
0000
0001
,
0000
0010
0000
0010
,
0000
0100
0100
0100
,
0010
0010
0010
0100
,
0000
0000
0000
0000
,
1001
0000
0000
0000
,
0000
0001
0000
0001
,
0000
0100
0000
0100
,
0000
0010
0000
0010
,
0000
1000
0000
1000
,
1001
0000
0000
0000
,
1000
0000
0000
0000
,
0100
0000
0000
0000
,
0001
0000
0000
0000
,
0010
0010
0010
0000
,
0100
0000
0100
0000
,
1000
1000
1000
0000
,
0001
0000
0001
0000
,
0100
0100
0100
0000
,
0010
0000
0010
0000
,
0001
0001
0001
0000
,
1000
0000
1000
0000
,
0100
0000
0100
0000
,
0001
0000
0001
0000
,
0010
0000
0010
0000
,
1000
0000
1000
0000
,
0010
0010
0010
0000
,
0001
0000
0001
0000
,
0100
0100
0100
0000
,
1000
0000
1000
0000
,
2002
0000
0000
0000
,
3003
0000
0000
0000
;

//---------------dance-double - ----------------
#NOTES:
     dance-double:
     :
     Hard:
     13:
     0.497,0.459,0.157,0.149,0.063,405.000,20.000,19.000,0.000,0.000,0.000,0.497,0.459,0.157,0.149,0.063,405.000,20.000,19.000,0.000,0.000,0.000:
00000000
00000000
00000000
00000000
,
00000000
00000000
00000000
00000000
,
00000000
00000000
00000000
00000000
,
00000000
00000000
00000000
00000000
,
00100000
00000000
00010000
00000000
01000000
00000000
00100000
00010000
,
00000000
00001000
00000000
00001100
00000000
00000000
00000000
00000000
,
00000100
00000000
00000010
00000000
00001000
00000000
00000100
00001000
,
00000000
00010000
00011000
00000000
,
00010000
00000000
00001000
00000000
00000100
00000000
00000001
00001000
,
00000000
00001000
00000000
00001100
00000000
00000000
00000000
00000000
,
00000010
00000000
00001000
00000000
00010000
00000000
01000000
00100000
,
00000000
00100000
00000000
01100000
00000000
00000000
01000000
00000000
,
10000000
00010000
01000000
00010000
00100000
00001000
00010000
00001000
,
00000000
00010000
00000100
00000010
00000001
00001000
00000001
00000000
,
00000001
00001000
00000100
00001000
00000010
00010000
00001000
00010000
,
00000000
00001000
01000000
00100000
10000000
00010000
10000000
00000000
,
10000000
01000000
00100000
00001000
01000000
00010000
00001000
00000010
,
00000000
00000010
00001000
00000100
00010000
00000010
00000100
00000000
,
00000001
00000100
00000010
00010000
00000100
00001000
00010000
00100000
,
00000000
00100000
00010000
10000000
00010000
01000000
00000000
00000000
,
00100000
00000000
01000000
00000000
00010000
00000000
01000000
00100000
00000000
10000000
00000000
00000000
10000000
00000000
01000000
00000000
,
00000000
00000000
00100000
00000000
00010000
00000000
10000000
00010000
00000000
00100000
00000000
00000000
00010000
00000000
00001000
00000000
,
00000010
00000000
00000100
00000000
00000001
00000000
00001000
00000100
00000000
00001000
00000000
00000000
00000001
00000000
00000100
00000000
,
00000010
00001000
00000100
00010000
00001000
00100000
00001000
00010000
,
00001000
00000000
01000000
00000000
00010000
00000000
01000000
00100000
00000000
10000000
00000000
01000000
00100000
00000000
00001000
00000000
,
00000000
00000000
00010000
00000000
00000100
00000000
00001000
00000010
00000000
00000100
00000000
00000010
00000100
00000000
00000001
00000000
,
00001000
00000100
00010000
00001000
01000000
00100000
01000000
00010000
,
00000000
10000000
10000000
00100000
00100000
00010000
00010000
00000000
,
00100000
00000000
01000000
00000000
00010000
00000000
10000000
01000000
00000000
00000000
00100000
00000000
00100000
00000000
00000000
00000000
,
10000000
00100000
00010000
00100000
00001000
00010000
00000010
00001000
,
00000010
00000000
00001000
00000000
00000100
00000000
00001000
00000001
00000000
00000000
00000010
00000000
00000010
00000000
00000000
00000000
,
00000001
00000100
00001000
00000100
00010000
00001000
00100000
00010000
,
00100000
00000000
10000000
00000000
01000000
00000000
00100000
01000000
00000000
00000000
10000000
00000000
00010000
00000000
00000000
00000000
,
10000000
01000000
00100000
00010000
01000000
00100000
00010000
00001000
,
00000100
00000000
00000010
00000000
00001000
00000000
00000001
00001000
00000000
00000000
00000100
00000000
00000100
00000000
00000000
00000000
,
00000011
00010100
00101000
11000000
,
20000000
30200000
00320000
02030000
,
03020000
00032000
00203000
20300000
,
30100000
00010000
01000000
00100000
00010000
00001000
00010000
00000010
,
00000001
00001000
00000100
00000010
00001000
00000100
00010000
00000010
,
00000000
00002000
00003020
00000032
,
00000203
00020300
00032000
02003000
,
03100000
01000000
00010000
01000000
00100000
10000000
00010000
00000000
,
10000000
00100000
00010000
00001000
00010000
01000000
10000000
00000000
,
01000000
10000000
00100000
00000000
00100000
00010000
00001000
00000000
,
00001000
00010000
01000000
00100000
00001000
00010000
00000010
00000000
,
00000100
00000001
00000010
00000000
00000010
00000100
00001000
00000000
,
00000001
00000100
00001000
00010000
00100000
00000000
01000000
00000000
,
02200000
00000000
00000000
00000000
03300000
00000000
00100000
00100000
,
10100000
01001000
01010000
00110000
,
00100000
01000000
10000000
01000000
00010000
00001000
00100000
00001000
,
00010000
00001000
00010000
00001000
,
00000100
00000010
00000100
00000010
00001000
00000010
00000100
00000001
,
00001000
00000100
00001000
00000100
00000010
00000001
00000100
00000000
,
00001000
00010000
00001000
01000000
00010000
00100000
00010000
01000000
,
00100000
00010000
00001000
00010000
01000000
00100000
00010000
00000000
,
10000000
00100000
01000000
00100000
01000000
00010000
00100000
00010000
,
10000000
01000000
10000000
00100000
01000000
00010000
01000000
00000000
,
00100000
00010000
00001000
00010000
00001000
00000100
00000010
00001000
,
00000100
00010000
00001000
00000100
00000001
00000010
00000001
00000000
,
00000100
00000001
00000010
00000001
00000100
00001000
00010000
00100000
,
00000000
00100000
10000000
00010000
01010000
00000000
11000000
00000000
,
01000000
10000000
00100000
10000000
01000000
00010000
00001000
00000010
,
00000000
00000010
00000001
00001000
00001100
00000000
00000101
00000000
,
00000001
00000010
00001000
00010000
00001000
00000010
00000001
00000100
,
00000000
00000100
00001000
00010000
00110000
00000000
10100000
00000000
,
10000000
00100000
00010000
00001000
00010000
00100000
10000000
01000000
,
00000000
01000000
00010000
00001000
00010000
00001000
00000100
00000000
,
00000220
00000000
00000000
00000000
,
00000330
00000000
00000000
00000000
;

//---------------dance-double - ----------------
#NOTES:
     dance-double:
     :
     Medium:
     9:
     0.340,0.351,0.258,0.063,0.000,263.000,33.000,8.000,0.000,0.000,0.000,0.340,0.351,0.258,0.063,0.000,263.000,33.000,8.000,0.000,0.000,0.000:
00000000
00000000
00000000
00000000
,
00000000
00000000
00000000
00000000
,
00000000
00000000
00000000
00000000
,
00000000
00000000
00000000
00000000
,
00000010
00000000
00000010
00000000
00001000
00000000
00000100
00000100
,
00000000
00000100
00000000
00000110
00000000
00000000
00000000
00000000
,
00001000
00000000
00001000
00000000
00000001
00000000
00001000
00001000
,
00000000
00000100
00010100
00000000
,
00010000
00000000
00001000
00000000
00010000
00000000
00001000
00001000
,
00000000
00001000
00000000
01001000
00000000
00000000
00000000
00000000
,
00010000
00000000
01000000
00000000
00010000
00000000
10000000
10000000
,
00000000
00100000
00000000
00100000
00000000
00000000
00000000
00000000
,
10000000
00010000
10000000
00000000
00010000
00100000
00010000
00000000
,
01000000
00100000
00100000
00100000
,
00010000
00100000
00010000
00000000
00001000
00010000
00001000
00000000
,
00010000
00000100
00000100
00000100
,
00001000
00000100
00001000
00000000
00000001
00000010
00000001
00000000
,
00001000
00000010
00000010
00000010
,
00000100
00000001
00000100
00000000
00000010
00001000
00000010
00000200
,
00000000
00000000
00000000
00000300
,
00000010
00001000
00000010
00000100
,
00000001
00001000
00000001
00001000
,
00000100
00010000
00001000
00010000
,
00001000
01000000
00010000
01000000
,
00100000
10000000
01000000
00100000
,
00010000
10000000
00010000
01000000
,
00100000
10000000
00100000
01100000
,
10010000
10010000
10010000
10010000
,
10000000
10000000
10000000
00000000
01000000
00010000
01000000
00000000
,
00100000
00110000
00010000
00011000
,
00010000
00001000
00010000
00000000
00000100
00000100
00000100
00000000
,
00000010
00001001
00000100
00001001
,
00000001
00000100
00000001
00000000
00000100
00000100
00000100
00000000
,
00000100
00001100
00001000
00011000
,
00010000
00001000
00010000
00000000
00100000
00100000
00100000
00000000
,
02000000
00000000
00000000
03000000
,
00100000
10000000
00100000
00010000
,
00001000
00000010
00000001
00001000
,
00000010
00001000
00000010
00000000
00001000
00000100
00001000
00000000
,
00000001
00001001
00001000
00001001
,
00000001
00000100
00001000
00010000
,
00001000
00010000
00100000
10000000
,
02000000
00000000
00000000
03000000
,
00200000
00000000
00000000
00300000
,
10000000
01000000
00010000
00100000
,
00010000
00001000
00000100
00000010
,
00001000
00001001
00000001
00001001
,
00001000
00000100
00010000
00001000
,
00022000
00000000
00033000
00000000
,
00010000
00001000
01000000
00100000
,
10000000
00100000
10000000
00000000
00010000
01000000
00010000
00000000
,
10000000
11000000
10010000
11000000
,
10000000
00000000
00100000
00000000
01000000
00000000
00010000
00010000
,
00000000
01000000
00000000
01010000
00000000
00000000
00000000
00000000
,
01000000
00000000
00100000
00000000
00010000
00000000
00001000
00010000
,
00000000
00010000
00011000
00000000
,
00001000
00000000
00000010
00000000
00000001
00000000
00001000
00000100
,
00000000
00001000
00000000
00001001
00000000
00000000
00000000
00000000
,
00000001
00000000
00000100
00000000
00001000
00000000
00000100
00000010
,
00000000
00001000
00000000
00001010
00000000
00000000
00000000
00000000
,
00001000
00000010
00001000
00000010
00001000
00000010
00001000
00000100
,
00000000
00000000
00011000
00011000
,
00001000
01000000
00001000
01000000
00001000
01000000
00001000
00010000
,
00000000
00000000
01010000
01010000
,
00100000
01000000
00100000
01000000
00100000
01000000
00100000
10000000
,
00000000
00000000
11000000
11000000
,
00100000
00001000
00100000
00001000
00100000
00001000
00100000
00010000
,
00000000
00010000
00001000
00000100
,
00000220
00000000
00000000
00000000
,
00000330
00000000
00000000
00000000
;

//---------------dance-double - ----------------
#NOTES:
     dance-double:
     :
     Easy:
     5:
     0.206,0.216,0.023,0.063,0.000,173.000,3.000,8.000,0.000,0.000,0.000,0.206,0.216,0.023,0.063,0.000,173.000,3.000,8.000,0.000,0.000,0.000:
00000000
00000000
00000000
00000000
,
00000000
00000000
00000000
00000000
,
00000000
00000000
00000000
00000000
,
00000000
00000000
00000000
00000000
,
10000000
00000000
10000000
00000000
,
00100000
00000000
00100000
00000000
,
00010000
00000000
00010000
00000000
,
00001000
00000000
00001000
00000000
,
00010000
00010000
00010000
00000000
,
00001000
00001000
00001000
00000000
,
00000100
00000100
00000100
00000000
,
00000010
00000010
00000010
00000000
,
00001000
00000000
00001000
00000000
,
00000100
00000000
00000010
00000010
,
00000001
00000000
00000001
00000000
,
00000100
00000000
00000100
00000100
,
00001000
00000000
00001000
00000000
,
00010000
00000000
00001000
00001000
,
01000000
00000000
01000000
00000000
,
00200000
00000000
00000000
00300000
,
00010000
00000000
00010000
00000000
,
01000000
00000000
01000000
00000000
,
00100000
00000000
00100000
00000000
,
10000000
00000000
10000000
00000000
,
00100000
00000000
00100000
00000000
,
00010000
00000000
00010000
00000000
,
00001000
00000000
00001000
00000000
,
00022000
00000000
00033000
00000000
,
00010000
00000100
00010000
00000100
,
00001000
00000001
00001000
00000001
,
00000100
00000001
00000100
00000001
,
00001000
00000100
00001000
00000100
,
00010000
00001000
00010000
00001000
,
01000000
00010000
01000000
00010000
,
10000000
00100000
10000000
00100000
,
02000000
00000000
00000000
03000000
,
00000000
00100000
00000000
00100000
,
00000000
00100000
00000000
00100000
,
00000000
10000000
00000000
10000000
,
00000000
00010000
00000000
00010000
,
00000000
10000000
10000000
00100000
,
00100000
01000000
01000000
00010000
,
00010000
00000000
00010000
00000000
,
00100000
00001000
00010000
00000000
,
00000000
00000010
00000000
00000010
,
00000000
00000100
00000000
00000100
,
00000000
00000001
00000000
00000001
,
00000000
00001000
00000000
00001000
,
00002002
00000000
00003003
00000000
,
00000100
00000100
00000100
00000100
,
00000010
00000000
00000010
00000000
,
00000010
00000000
00000010
00000000
,
00000100
00000100
00000100
00000000
,
00000001
00000001
00000001
00000000
,
00000010
00000010
00000010
00000000
,
00001000
00001000
00001000
00000000
,
00010000
00010000
00010000
00000000
,
01000000
01000000
01000000
00000000
,
10000000
10000000
10000000
00000000
,
00100000
00100000
00100000
00000000
,
01000000
00010000
01000000
00010000
,
01000000
00000000
00100000
00100000
,
00010000
00001000
00010000
00001000
,
00010000
00000000
00000100
00000100
,
00000010
00000001
00000010
00000001
,
00000010
00000000
00000100
00000100
,
00001000
00000001
00001000
00000001
,
00001000
00000010
00000010
00000100
,
00000220
00000000
00000000
00000000
,
00000330
00000000
00000000
00000000
;
