#TITLE:KUNG FU RIDER;
#SUBTITLE:Oriental Funk;
#ARTIST:AstroKid;
#TITLETRANSLIT:;
#SUBTITLETRANSLIT:;
#ARTISTTRANSLIT:;
#GENRE:;
#CREDIT:;
#BANNER:KUNG FU RIDER.png;
#BACKGROUND:KUNG FU RIDER-bg.png;
#LYRICSPATH:;
#CDTITLE:;
#MUSIC:KUNG FU RIDER.mp3;
#OFFSET:-0.179;
#SAMPLESTART:29.549;
#SAMPLELENGTH:12.000;
#SELECTABLE:YES;
#DISPLAYBPM:133.000;
#BPMS:0.000=133.000
;
#STOPS:
;
#BGCHANGES:;
#KEYSOUNDS:;
#ATTACKS:;

//---------------dance-single - ----------------
#NOTES:
     dance-single:
     :
     Hard:
     14:
     0.529,0.584,0.180,0.180,0.327,353.000,19.000,19.000,0.000,0.000,0.000,0.529,0.584,0.180,0.180,0.327,353.000,19.000,19.000,0.000,0.000,0.000:
0000
0000
0000
0000
,
0000
0000
0000
0000
,
0000
0000
0000
0000
,
0000
0000
0000
0000
,
0002
1000
0000
1003
,
0020
0100
0000
0130
,
2000
0001
0000
3001
,
0220
0000
0000
0330
,
1000
0000
0010
0000
0001
0000
0000
0000
0100
0000
0000
0100
0000
0000
0100
0000
,
0001
0000
0100
0000
1000
0000
0000
0000
0010
0000
0000
0010
0000
0000
0010
0000
,
1000
0000
0100
0000
0010
0000
0000
0000
1000
0000
0000
1000
0000
0000
1000
0000
,
0001
0000
0100
0000
0010
0000
0000
0000
0001
0000
0000
0001
0000
0000
0001
0000
,
1000
0000
0100
0000
0001
0000
0010
0000
0001
0000
0000
1000
0000
0000
0001
0000
,
0001
0000
0010
0000
1000
0000
0100
0000
1000
0000
0000
0001
0000
0000
1000
0000
,
0100
0000
1000
0000
0010
0000
0001
0000
0100
0000
0000
0010
0000
0000
0100
0000
,
0000
0000
0100
0000
0100
0000
0100
0000
0000
0000
0000
0000
0010
0001
0010
0001
,
0100
0001
0100
0001
0100
0010
0000
0110
,
0000
0000
0100
0000
0010
0000
1000
0000
0010
0000
1000
0010
0100
0001
0010
0000
,
0001
1000
0001
1000
0100
0010
0000
0220
,
0000
0000
0330
0000
,
0010
0100
0010
0100
1000
0010
0000
1010
,
0000
0000
1000
0000
0001
0000
0010
0000
0001
0000
0010
0001
0100
0010
1000
0000
,
0010
0100
0001
0100
0010
1000
0000
2002
,
0000
3003
0010
0000
,
0010
0000
0001
0010
0100
0000
0010
0000
0100
1000
0010
0100
0001
0000
1000
0000
,
0100
0100
0000
0010
0010
0000
1001
0000
0100
0100
0000
0010
0010
0000
0000
0000
,
0100
0000
0010
1000
0100
0000
1000
0000
0001
0010
0100
1000
0001
0000
0100
0000
,
0010
0000
0100
0001
0000
0101
0000
0000
1010
0000
1000
0001
1000
0000
0000
0000
,
0010
0000
0100
0001
0010
0000
0001
0000
1000
0100
0010
0001
0100
0000
0010
0000
,
0100
0000
0010
1000
0100
0000
1000
0000
0001
0010
0100
1000
0001
0000
0100
0000
,
0010
0010
0000
0100
0100
0000
1001
0000
0010
0010
0000
0100
0100
0000
0000
0000
,
0000
0000
0010
0001
0010
0000
0110
0000
0000
0000
1000
0100
0010
0000
0001
0000
,
2000
0000
0000
0000
0000
0000
0000
0000
0000
0000
0000
0000
3000
0000
0100
0010
,
0002
0000
0000
0000
0000
0000
0000
0000
0000
0000
0000
0000
0003
0000
0001
1000
,
0020
0000
0000
0000
0000
0000
0000
0000
0000
0000
0000
0000
0030
0000
1000
0001
,
0100
0100
0010
0010
0100
0000
0110
0000
,
0010
1000
0100
1000
0010
0100
0001
0100
,
0001
0010
0100
0010
0100
1000
0001
1000
,
0010
0100
0001
0100
0010
1000
0001
1000
,
0200
0000
0000
0000
0300
0000
0010
0100
0010
0000
0000
0000
0010
1000
0010
1000
,
0100
0010
0001
0010
0001
0100
0000
2010
,
0000
0000
0100
0000
0000
0000
3001
0000
0000
0000
1000
0000
1000
0100
0010
0001
,
1000
0010
0001
0010
0100
0010
0000
0220
,
0000
0000
0330
0000
,
1000
0010
0101
0001
0010
0100
0000
0012
,
0000
0000
1000
0000
0000
0000
0103
0000
0000
0000
0001
0000
0001
0010
0100
1000
,
0001
0010
0100
1000
0100
0010
0000
2002
,
0000
3003
0110
0000
,
0010
0000
0001
0000
1000
0000
0100
1000
0001
0000
0100
0001
0000
1000
0100
0000
,
1000
0000
0010
0000
0100
0000
0010
1000
0001
0000
0010
0001
0000
1000
0010
0000
,
0100
0000
0010
0000
1000
0000
0100
0010
0001
0000
1000
0001
0000
0100
0001
0000
,
0010
0000
0001
0000
1000
0000
0100
1000
0010
0000
1000
0001
0000
1000
0100
0000
,
0010
0000
0100
0000
1000
0000
0001
0100
0010
0000
0001
0010
0000
1000
0010
0000
,
0100
0000
0001
0000
0010
0000
0001
0010
0100
0000
1000
0100
0000
0001
0100
0000
,
0010
0000
0100
0000
1000
0000
0010
1000
0001
0000
0010
0100
0000
1000
0001
0000
,
1001
0000
0000
0000
1000
0100
0010
0001
,
0110
0000
0000
0000
;

//---------------dance-single - ----------------
#NOTES:
     dance-single:
     :
     Challenge:
     16:
     0.747,0.743,0.417,0.161,0.753,491.000,44.000,17.000,0.000,0.000,0.000,0.747,0.743,0.417,0.161,0.753,491.000,44.000,17.000,0.000,0.000,0.000:
0000
0000
0000
0000
,
0000
0000
0000
0000
,
0000
0000
0000
0000
,
0000
0000
0000
0000
,
0002
1000
0000
1003
,
0020
0100
0000
0130
,
2000
0001
0000
3001
,
1000
0010
0100
0001
0010
0100
1000
0010
0100
0001
0010
0100
1001
0000
0000
0000
,
0010
0100
0001
0010
0100
1000
0010
0100
0001
0010
0100
1000
0001
0100
0010
0100
,
0001
1000
0001
1000
0110
0100
0010
0100
,
0010
1000
0001
0100
0010
1000
0001
0100
0010
1000
0100
0010
0001
1000
0100
0010
,
0001
0000
0100
0000
0001
0000
0100
0001
1000
0000
0001
0000
0110
0000
0000
0000
,
0010
0001
0100
0010
1000
0100
1000
0010
0100
0001
0010
0100
0010
0001
0100
0010
,
1000
0100
1000
0010
0100
0001
0100
0010
,
0100
0001
1000
0010
0100
0001
1000
0010
0100
0001
1000
0100
0010
0001
1000
0100
,
0010
0000
0100
0010
0100
0010
0000
0100
0010
0000
0000
0000
0001
1000
0001
1000
,
0100
0000
0010
0001
0100
0000
0100
0001
0010
0000
0100
0000
0000
0000
0110
0000
,
0000
0000
0100
1000
0001
0010
0001
0000
0010
0000
0001
0100
0010
1000
0100
1000
,
0010
0000
1000
0100
0010
0000
0010
0100
1000
0000
0001
0000
0000
0000
2002
0000
,
0000
0000
3003
0000
,
0010
0000
0100
0001
0010
0000
0010
0001
0100
0000
0010
0000
0000
0000
1010
0000
,
0000
0000
1000
0010
0100
0001
0010
0000
0001
0000
0010
0001
1000
0100
1000
0010
,
0100
0000
0010
1000
0001
0000
0001
1000
0010
0000
0100
0000
0000
0000
0220
0000
,
0000
0330
1001
0000
,
0010
0000
0001
0010
0100
0000
1100
0000
1000
0100
0010
0001
0100
0000
0001
0000
,
1000
1010
0000
0100
0101
0000
1001
0000
0001
0011
0000
0100
2200
0000
3300
0000
,
0010
0000
0100
1000
0001
0000
0011
0000
0100
1000
0010
0100
0001
0000
1000
0000
,
0010
0000
0100
0101
0000
1001
0000
0000
0011
0000
1000
0001
1000
0000
0000
0000
,
0010
0000
0100
0001
1000
0000
0100
1000
0001
0100
0010
1000
0100
0010
0001
0100
,
0010
0000
0100
0010
1000
0000
0100
0010
0001
0100
0010
1000
0100
1000
0010
0100
,
0001
1100
0000
1000
0101
0000
0110
0000
0010
1001
0000
1000
0110
0000
0000
0000
,
0000
0000
0010
0001
0010
0000
0110
0000
1000
0001
1000
0100
0010
0000
0001
0000
,
2000
0000
0100
0000
0001
0000
0100
0000
0001
0000
0010
0000
3100
0000
0100
0010
,
0002
0000
0010
0000
1000
0000
0010
0000
1000
0000
0100
0000
0013
0000
0001
1000
,
0020
0000
0100
0000
0001
0000
0100
0000
1000
0000
0100
0000
1030
0000
1000
0001
,
0200
0000
0000
0000
0000
0000
0300
0000
1000
0001
1000
0001
1000
0000
0110
0000
,
1000
0100
1100
0010
0001
0100
0101
0010
,
1000
0000
0010
0000
0101
0000
0001
0000
0000
1000
0100
0000
1010
0000
1000
0000
,
0010
0100
1001
0001
0100
0010
0110
0001
,
1001
0000
0000
0000
0000
0000
1000
0001
1000
0000
0000
0000
1000
0100
1000
0100
,
1000
0000
0010
0100
0001
0000
1000
0010
0100
0000
0001
0000
0010
0000
1100
0000
,
0000
0000
0011
0000
0000
0000
1001
0000
0001
0000
0100
0001
0010
1000
0010
0001
,
1000
0000
0001
0100
0010
0000
1000
0010
0100
0000
0001
0000
0000
0000
2002
0000
,
0000
0000
3003
0000
,
0010
0000
0001
0100
1000
0000
1000
0010
0001
0000
0010
0000
0100
0000
0011
0000
,
0001
0000
1001
0000
1000
0000
1010
0000
0010
0000
0100
1000
0010
0001
0010
0100
,
0001
0000
1000
0010
0001
0000
0001
0100
1000
0000
0010
0000
1001
0000
0220
0000
,
0000
0000
0330
0000
,
0001
0100
1000
0100
0010
0000
1000
0010
0100
0000
0001
1000
0000
0100
0010
0000
,
1000
0010
0001
0010
0100
0000
1000
0010
0100
0000
0001
1000
0000
0100
0010
0000
,
0001
0100
0010
0001
1000
0000
0100
0010
1000
0000
0001
0010
0000
1000
0001
0000
,
1000
0010
0100
1000
0001
0000
0100
0010
0001
0000
1000
0100
0000
0001
1000
0000
,
0100
1000
0010
0100
0001
0000
0100
0001
0011
0000
0100
1000
0000
0001
0100
0000
,
0010
1000
0100
0010
0001
0000
0100
0010
1010
0000
1000
0001
0000
0010
0100
0000
,
1000
0010
0001
1000
0001
0010
0100
0001
0010
1000
0001
1000
0010
0100
1000
0001
,
0100
0000
0000
0000
0000
0000
0000
0000
0010
0001
0100
0001
1000
0010
0100
0010
,
1001
0000
0000
0000
;

//---------------dance-single - ----------------
#NOTES:
     dance-single:
     :
     Medium:
     10:
     0.418,0.425,0.322,0.142,0.000,260.000,34.000,15.000,0.000,0.000,0.000,0.418,0.425,0.322,0.142,0.000,260.000,34.000,15.000,0.000,0.000,0.000:
0000
0000
0000
0000
,
0000
0000
0000
0000
,
0000
0000
0000
0000
,
0000
0000
0000
0000
,
0001
1000
0000
1000
,
0010
0100
0000
0100
,
1000
0001
0000
0001
,
0110
0000
0000
0000
,
1000
0000
1010
0000
0001
0100
0100
0000
,
0010
0000
0011
0000
1000
0001
0001
0000
,
1000
0110
0001
0110
,
1000
0100
1000
0100
1000
0100
0010
0000
,
0001
0000
0011
0000
0100
1000
0010
0000
,
1000
1001
0001
1001
,
0100
0000
0110
0000
0010
1000
0100
0000
,
0110
0000
0000
0000
0000
0000
0001
0001
,
0100
0010
0100
0010
0100
0010
0000
1001
,
0000
1000
0001
1000
0001
0100
0100
0100
,
0010
1000
0010
1000
0100
0100
0000
0022
,
0000
0000
0033
0000
,
0010
0001
0010
0001
0010
0001
0000
1001
,
0000
1000
0010
0100
0001
1000
1000
1000
,
0001
0100
0001
0100
0001
0010
0000
0110
,
0000
0000
1001
0000
,
1000
0010
0001
0000
0010
0010
0010
0000
,
1010
0101
1100
0011
,
0001
0100
1000
0000
0100
0100
0100
0000
,
2010
0000
0001
3000
,
0010
0001
1000
0001
1000
0001
0100
0000
,
0010
0100
0001
0100
0001
0100
0010
0000
,
1000
0100
1000
0100
0010
0001
1000
0000
,
0020
0000
0000
0000
0100
0100
0130
0000
,
2000
0000
0000
3000
,
0002
0000
0000
0003
,
0020
0000
0000
0030
,
0001
1000
0001
1000
0001
0000
0110
0000
,
1000
0010
0100
0000
1000
0010
0100
0000
,
0001
1000
0010
0000
0001
1000
0010
0000
,
0100
0001
0010
0000
0100
0001
0010
0000
,
0220
0000
0330
1001
,
0010
0001
0010
0001
1000
0100
0000
0110
,
0000
0011
0000
1001
0000
0001
0100
0100
,
0010
1000
0010
1000
0010
0100
0000
0220
,
0000
0000
0330
0000
,
0010
1000
0010
1000
0100
0010
0000
0011
,
0000
1100
0000
0101
0000
0010
0010
0100
,
0001
1000
0001
1000
0100
0010
0000
0220
,
0000
0330
1001
0000
,
0001
0100
0001
0100
0010
0100
0010
0100
,
1000
0100
1000
0100
1000
0001
1000
0001
,
1000
0010
1000
0010
0001
0010
0001
0010
,
0001
0100
0001
0100
0010
0100
0010
0100
,
0001
1000
0100
1000
0001
1000
0100
1000
,
0010
0100
0001
0100
0010
0100
0001
0100
,
0010
1000
0001
1000
0010
1000
0001
0100
,
0220
0000
0330
0000
,
1001
0000
0000
0000
;

//---------------dance-single - ----------------
#NOTES:
     dance-single:
     :
     Easy:
     5:
     0.253,0.318,0.190,0.085,0.000,158.000,20.000,9.000,0.000,0.000,0.000,0.253,0.318,0.190,0.085,0.000,158.000,20.000,9.000,0.000,0.000,0.000:
0000
0000
0000
0000
,
0000
0000
0000
0000
,
0000
0000
0000
0000
,
0000
0000
0000
0000
,
1000
0100
0000
0100
,
0000
0001
0000
0001
,
0000
0010
0000
0010
,
0110
0000
0000
0000
,
0010
0100
0001
1000
,
0010
0010
0100
0100
,
0001
0100
0010
1000
,
0001
0001
1000
1000
,
0100
1000
0010
0100
,
0001
0010
0100
1000
,
0010
0010
0100
0100
,
2002
0000
0000
3003
,
0001
0001
0001
0000
,
1000
1000
1001
1001
,
0010
0010
0010
0010
,
0000
0000
0000
0000
,
0100
0001
0100
0000
,
0010
1000
0110
0110
,
0001
0001
0001
0001
,
0000
0000
1001
0000
,
1000
0100
0010
0010
,
0001
0100
0010
0010
,
1000
0001
1000
1000
,
0001
1000
0001
0001
,
0100
0010
1000
1000
,
0100
0010
0001
0001
,
1000
0010
0100
0001
,
1001
0000
0000
0000
,
2000
0000
0000
3000
,
0002
0000
0000
0003
,
0020
0000
0000
0030
,
0200
0000
0000
0300
,
1000
1100
1000
1100
,
0001
0011
0001
0011
,
1000
1001
1000
1001
,
0020
0000
0000
0030
,
0010
0001
1000
0000
,
0010
0010
0110
0110
,
0100
0001
0100
0010
,
0000
0000
0000
0000
,
0100
0001
1000
0000
,
0001
0001
1001
1001
,
1000
0100
0001
0010
,
0000
0000
0000
0000
,
0001
0100
0001
0100
,
0010
0100
0010
0100
,
1000
0100
1000
0100
,
1000
0001
1000
0001
,
1000
0010
1000
0010
,
0100
0010
0100
0010
,
0001
1000
0001
1000
,
0220
0000
0000
0330
,
1001
0000
0000
0000
;

//---------------dance-single - ----------------
#NOTES:
     dance-single:
     :
     Beginner:
     2:
     0.135,0.106,0.114,0.114,0.000,76.000,12.000,12.000,0.000,0.000,0.000,0.135,0.106,0.114,0.114,0.000,76.000,12.000,12.000,0.000,0.000,0.000:
0000
0000
0000
0000
,
0000
0000
0000
0000
,
0000
0000
0000
0000
,
0000
0000
0000
0000
,
1000
0000
1000
0000
,
0001
0000
0001
0000
,
1000
0000
1000
0000
,
1001
0000
0000
0000
,
0001
0000
0000
0000
,
0010
0000
0001
0000
,
0001
0000
0000
0000
,
0100
0000
0010
0010
,
0010
0000
0000
0000
,
1000
0000
0100
0000
,
0100
0000
0000
0000
,
1001
0000
0000
0000
,
1000
0000
1000
0000
,
0010
0000
0010
0000
,
0001
0000
0001
0000
,
0100
0000
0100
0000
,
0010
0000
0010
0000
,
0001
0000
0001
0000
,
0100
0000
0100
0000
,
1000
0000
0000
0000
,
1001
0000
0000
0000
,
1001
0000
0000
0000
,
0110
0000
0000
0000
,
0110
0000
0000
0000
,
1001
0000
0000
0000
,
1001
0000
0000
0000
,
0110
0000
0000
0000
,
0110
0000
0000
0000
,
2000
0000
3000
0000
,
0002
0000
0003
0000
,
0020
0000
0030
0000
,
0200
0000
0300
0000
,
0001
0000
0001
0000
,
1000
0000
1000
0000
,
0100
0000
0100
0000
,
0020
0000
0000
0030
,
1000
0000
0000
0000
,
1000
0000
0100
0000
,
0100
0000
0000
0000
,
0100
0000
0001
0001
,
0001
0000
0000
0000
,
0010
0000
0010
0000
,
0010
0000
0000
0000
,
1000
0000
1000
1000
,
2000
0000
0000
3000
,
0200
0000
0000
0300
,
0002
0000
0000
0003
,
0020
0000
0000
0030
,
2000
0000
0000
3000
,
0020
0000
0000
0030
,
0002
0000
0000
0003
,
0110
0000
0000
0000
,
1001
0000
0000
0000
;

//---------------dance-double - ----------------
#NOTES:
     dance-double:
     :
     Challenge:
     17:
     0.732,0.743,0.313,0.180,0.720,489.000,33.000,19.000,0.000,0.000,0.000,0.732,0.743,0.313,0.180,0.720,489.000,33.000,19.000,0.000,0.000,0.000:
00000000
00000000
00000000
00000000
,
00000000
00000000
00000000
00000000
,
00000000
00000000
00000000
00000000
,
00000000
00000000
00000000
00000000
,
00200000
00001000
00000000
00301000
,
00020000
00000100
00000000
00030100
,
00000020
00001000
00000000
00001030
,
00022000
00000000
00000000
00033000
,
00010000
01000000
00100000
00010000
10000000
00100000
01000000
00010000
10000000
01000000
10000000
00010000
00100000
00010000
01000000
00100000
,
10000000
00010000
01000000
00100000
00010000
00001000
00000100
00000010
,
00001000
00000001
00000010
00000100
00000010
00000001
00000100
00001000
00000001
00000010
00000100
00000001
00001000
00000100
00001000
00000010
,
00000100
00001000
00010000
00001000
00000100
00001000
00010000
00100000
,
01000000
00010000
00100000
10000000
00100000
01000000
10000000
00100000
00010000
10000000
01000000
00100000
01000000
00010000
10000000
01000000
,
00100000
10000000
00010000
01000000
00010000
00001000
00000100
00000001
,
00001000
00000010
00000001
00000010
00000100
00000001
00000010
00001000
00000010
00000100
00001000
00000100
00000001
00000100
00000010
00000001
,
00000100
00000000
00000010
00000100
00000010
00000100
00000000
00000000
00000000
00000000
00000000
00000000
00001000
00010000
00001000
00010000
,
00001000
00010000
01100000
10000000
00100000
01000000
00010000
10000000
,
10100000
00000000
01000000
00000000
00100000
00000000
00010000
00000000
00001000
00000000
00000100
00001000
00010000
00001000
00100000
00010000
,
01000000
00000000
00100000
01000000
00100000
00000000
10000000
00100000
10000000
00000000
00010000
01000000
00010000
00000000
20020000
00000000
,
00000000
00000000
30030000
00000000
,
00010000
00100000
00011000
00001000
00000100
00000010
00001000
00000001
,
00000011
00000000
00000100
00000000
00001000
00000000
00000010
00000000
00000100
00000000
00000001
00000100
00001000
00000100
00000010
00001000
,
00000100
00000000
00010000
00001000
00010000
00000000
00001000
00100000
00010000
00000000
00100000
01000000
00100000
00000000
02200000
00000000
,
00000000
03300000
10010000
00000000
,
10000000
00000000
00100000
01000000
00010000
00000000
00110000
00000000
00100000
00001000
00010000
00000100
00010000
00001000
00000100
00000010
,
00001000
00001010
00000000
00000001
00000101
00000000
00001001
00000000
00001000
00001100
00000000
00000100
00000110
00000000
00000000
00000000
,
00000001
00000000
00000010
00000100
00001000
00000000
00001001
00000000
00001000
00000100
00010000
00001000
01000000
00010000
01000000
00100000
,
10000000
00000000
00100000
01100000
00000000
10100000
00000000
00000000
00110000
00000000
00010000
00001000
00010000
00000000
00011000
00000000
,
00001000
00000000
00000100
00000010
00001000
00000000
00000001
00000000
00000010
00000100
00001000
00010000
00100000
01000000
10000000
00010000
,
01000000
00000000
00100000
10000000
01000000
00000000
00100000
00000000
10000000
01000000
00100000
00010000
00001000
00000100
00000010
00000001
,
00000100
00000100
00000000
00001000
00001000
00000000
00011000
00000000
00010000
00010000
00000000
00100000
00200000
00000000
00000000
00000000
,
00300000
00000000
10000000
00010000
10000000
00010000
00000000
00000000
00000000
00100000
01000000
00100000
01000000
00000000
01100000
00000000
,
00200000
00010000
01000000
00310000
10000000
00100000
00010000
00001000
,
00000200
00000010
00001000
00000310
00000001
00000010
00001000
00010000
,
00200000
00010000
01000000
00310000
10000000
01000000
00010000
00001000
,
00000100
00001000
00000100
00001000
00000100
00001000
00000100
00001000
00000100
00000000
00000010
00000001
00000010
00000000
00001001
00000000
,
00000001
00000100
00000110
00000010
00001000
00000100
00001100
00010000
,
00001000
01000000
01001000
01000000
00010000
00100000
00110000
01000000
,
10000000
00100000
01100000
01000000
00001000
00010000
00011000
00001000
,
00022000
00000000
00000000
00000000
00000000
00000000
00000000
00030000
00000000
00000000
00000000
00000000
00013000
00000100
00010000
00000100
,
00001000
00000000
00000010
00000001
00000010
00000000
00000001
00000100
00000001
00000000
00000100
00001000
00000100
00000000
00001000
00000000
,
00010000
00000000
00100000
00000000
10000000
00000000
01000000
00000000
00010000
00000000
00001000
00010000
00100000
01000000
00100000
10000000
,
00010000
00000000
00100000
10000000
00100000
00000000
10000000
01000000
10000000
00000000
01000000
00010000
01000000
00000000
00022000
00000000
,
00000000
00000000
00033000
00000000
,
00000100
00000000
00000010
00010000
00000010
00000000
00010000
00001000
00010000
00000000
00001000
01000000
00001000
00000000
00010000
00000000
,
00100000
00000000
10000000
00000000
01000000
00000000
00010000
00001000
00000100
00000010
00000001
00001000
00010000
00100000
01000000
00010000
,
01000000
00000000
00001000
01000000
00001000
00000000
00010000
00001000
00010000
00000000
00000010
00010000
00000010
00000000
00002020
00000000
,
00000000
00003030
00000101
00000000
,
00000001
00000100
00000010
00000100
00000001
00000000
00000100
00001000
00010000
00000000
00100000
10000000
00000000
01000000
00010000
00000000
,
01000000
00100000
00010000
00100000
01000000
00000000
00010000
00001000
00000010
00000000
00000001
00000100
00000000
00000100
00001000
00000000
,
00010000
00100000
10000000
00010000
00100000
00000000
10000000
00100000
00010000
00000000
00001000
00000010
00000000
00000001
00000100
00000000
,
00000001
00000010
00001000
00000001
00000010
00000000
00000001
00000100
00001000
00000000
00010000
00100000
00000000
10000000
01000000
00000000
,
00100000
00001000
00000100
00010000
00000010
00000000
00001000
00000100
00000001
00000000
00000010
00001000
00000000
00010000
01000000
00000000
,
00001000
00000100
00000010
00010000
01000000
00000000
10000000
00100000
00010000
00000000
00000100
00000001
00000000
00000010
00001000
00000000
,
00000100
00000001
00000100
00001000
00010000
00100000
10000000
01000000
00010000
00001000
00000100
00000001
00000100
00001000
00100000
00010000
,
01100000
00000000
00000000
00000000
00000000
00000000
00000000
00000000
10000000
01000000
00100000
00010000
00001000
00000100
00000010
00000001
,
00001000
00000000
00000000
00000000
;

//---------------dance-double - ----------------
#NOTES:
     dance-double:
     :
     Hard:
     14:
     0.539,0.584,0.275,0.180,0.237,350.000,29.000,19.000,0.000,0.000,0.000,0.539,0.584,0.275,0.180,0.237,350.000,29.000,19.000,0.000,0.000,0.000: // measure 0
00000000
00000000
00000000
00000000
,  // measure 1
00000000
00000000
00000000
00000000
,  // measure 2
00000000
00000000
00000000
00000000
,  // measure 3
00000000
00000000
00000000
00000000
,  // measure 4
00200000
00001000
00000000
00301000
,  // measure 5
00020000
00000100
00000000
00030100
,  // measure 6
00000020
00001000
00000000
00001030
,  // measure 7
00022000
00000000
00000000
00033000
,  // measure 8
00010000
01000000
00100000
01000000
10000000
00100000
00010000
00100000
,  // measure 9
01000000
00001000
00010000
00001000
00010000
00000100
00001000
00000100
,  // measure 10
00010000
00001000
00000100
00000010
00001000
00000001
00000100
00001000
,  // measure 11
00000100
00000010
00001000
00000100
00010000
00001000
01000000
00100000
,  // measure 12
10000000
01000000
00010000
01000000
10000000
01000000
00010000
00001000
,  // measure 13
00100000
00001000
00010000
00000100
00000010
00001000
00010000
00001000
,  // measure 14
00000001
00000010
00001000
00000010
00000001
00000010
00000100
00001000
,  // measure 15
00020000
00000000
00000000
00000000
00030000
00000000
00100000
00100000
,  // measure 16
10000000
00100000
00010000
00100000
01000000
00100000
00000000
10100000
,  // measure 17
00000000
00000000
01010000
00000000
00010000
00000000
00100000
00000000
00001000
00000000
00010000
00001000
00010000
00001000
00010000
00000000
,  // measure 18
00001000
00000010
00000001
00000010
00001000
00000010
00000000
00000220
,  // measure 19
00000000
00000000
00000330
00000000
,  // measure 20
00000001
00000100
00001000
00000100
00000001
00000010
00000000
00001100
,  // measure 21
00000000
00000000
00010010
00000000
00010000
00000000
00001000
00000000
00100000
00000000
01000000
00100000
01000000
00100000
01000000
00000000
,  // measure 22
10000000
01000000
00010000
01000000
00100000
00010000
00000000
00022000
,  // measure 23
00000000
00033000
00000110
00000000
,  // measure 24
00000001
00000000
00000100
00000000
00001000
00000000
00000100
00000000
00000010
00001000
00000010
00001000
00000010
00000000
00000100
00000000
,  // measure 25
00001000
00001000
00000000
00010000
00010000
00000000
00100000
00000000
01000000
01000000
00000000
00100000
10010000
00000000
00000000
00000000
,  // measure 26
10000000
00000000
00100000
00000000
00010000
00000000
00100000
00000000
00010000
00001000
00010000
00001000
00010000
00000000
00001000
00000000
,  // measure 27
00000100
00000000
00000010
00000010
00000000
00001010
00000000
00000000
00000101
00000000
00000100
00000010
00000100
00000000
00000000
00000000
,  // measure 28
00000001
00000000
00000100
00000000
00001000
00000000
00010000
00000000
00100000
10000000
01000000
00100000
00010000
00000000
10010000
00000000
,  // measure 29
10000000
00000000
00100000
00000000
00010000
00000000
00001000
00000000
00000100
00000001
00000010
00000100
00001000
00000000
00001001
00000000
,  // measure 30
00000100
00000100
00000000
00001000
00001000
00000000
00011000
00000000
00010000
00010000
00000000
00100000
10010000
00000000
00000000
00000000
,  // measure 31
00000000
00000000
10000000
00000000
10000000
00000000
10000000
00000000
00000000
00100000
01000000
00100000
01000000
00000000
01100000
00000000
,  // measure 32
00200000
00000000
00000000
00000000
00000000
00000000
00000000
00000000
00000000
00000000
00000000
00000000
00300000
00000000
00010000
00001000
,  // measure 33
00000200
00000000
00000000
00000000
00000000
00000000
00000000
00000000
00000000
00000000
00000000
00000000
00000300
00000000
00000001
00001000
,  // measure 34
00020000
00000000
00000000
00000000
00000000
00000000
00000000
00000000
00000000
00000000
00000000
00000000
00030000
00000000
10000000
00010000
,  // measure 35
00002000
00000000
00000000
00000000
00013000
00010000
00010000
00010000
,  // measure 36
00011000
00001000
00000100
00000010
00001000
00000001
00001000
00000001
,  // measure 37
00001000
00010000
01000000
00100000
10000000
00010000
10000000
00010000
,  // measure 38
00001000
00000100
00000010
00000001
00000100
00000010
00000100
00001000
,  // measure 39
00020000
00000000
00000000
00000000
00000000
00000000
00000000
00000000
00030000
00000000
00000000
00000000
00001000
00010000
00001000
00010000
,  // measure 40
00001000
00100000
01000000
00100000
00010000
00001000
00000000
00101000
,  // measure 41
00000000
00000000
00110000
00000000
00000000
00000000
10100000
00000000
00000000
00000000
11000000
00000000
00100000
00001000
00100000
00001000
,  // measure 42
00010000
00000010
00000100
00001000
00000100
00000010
00000000
00002002
,  // measure 43
00000000
00000000
00003003
00000000
,  // measure 44
00000001
00000100
00001000
00010000
00100000
01000000
00000000
10100000
,  // measure 45
00000000
00000000
00110000
00000000
00000000
00000000
00011000
00000000
00000000
00000000
00001100
00000000
00010000
01000000
00010000
01000000
,  // measure 46
10000000
01000000
00010000
00001000
00000010
00000100
00000000
00002020
,  // measure 47
00000000
00003030
00011000
00000000
,  // measure 48
00010000
00000000
01000000
00000000
00100000
00000000
00010000
10000000
00100000
00000000
01000000
00010000
00000000
10000000
01000000
00000000
,  // measure 49
00100000
00001000
00010000
00000010
00010000
00001000
00000100
00000010
,  // measure 50
00001000
00000000
00000001
00000000
00000100
00000000
00000010
00001000
00000001
00000000
00000010
00000001
00000000
00001000
00000100
00000000
,  // measure 51
00000010
00000001
00000100
00001000
00010000
00100000
10000000
01000000
,  // measure 52
00100000
00000000
00001000
00000000
00010000
00000000
00000100
00001000
00000010
00000000
00010000
00001000
00000000
01000000
00010000
00000000
,  // measure 53
00100000
00001000
00000100
00000010
00010000
00001000
00000010
00000001
,  // measure 54
00000100
00000000
00001000
00000000
00010000
00000000
00100000
01000000
00010000
00000000
00001000
00000010
00000000
00000100
00010000
00000000
,  // measure 55
00011000
00000000
00000000
00000000
00000000
00000000
00000000
00000000
00010000
00000100
00010000
00001000
01000000
00001000
00010000
00000010
,  // measure 56
00000100
00000000
00000000
00000000
;

//---------------dance-double - ----------------
#NOTES:
     dance-double:
     :
     Medium:
     10:
     0.391,0.398,0.284,0.152,0.000,243.000,30.000,16.000,0.000,0.000,0.000,0.391,0.398,0.284,0.152,0.000,243.000,30.000,16.000,0.000,0.000,0.000:
00000000
00000000
00000000
00000000
,
00000000
00000000
00000000
00000000
,
00000000
00000000
00000000
00000000
,
00000000
00000000
00000000
00000000
,
00100000
00001000
00000000
00001000
,
00010000
00000100
00000000
00000100
,
00000010
00001000
00000000
00001000
,
00022000
00000000
00000000
00033000
,
00010000
01000000
00010000
00000000
01000000
10000000
01000000
00000000
,
10000000
10010000
00010000
00110000
,
00100000
00001000
00100000
00000000
00000100
00010000
00000100
00000000
,
00000010
00000011
00000001
00001001
,
00001000
00000010
00000100
00000000
00000001
00000100
00000010
00000000
,
00001000
00001100
00000100
00010100
,
00010000
01000000
00100000
00000000
01000000
10000000
00100000
00000000
,
02200000
00000000
03300000
00000000
,
00100000
00010000
00001000
00010000
00100000
00010000
00000000
00001000
,
00000000
00000100
00000001
00001000
00000001
00000010
00000010
00000010
,
00001000
00010000
01000000
00010000
00001000
00010000
00000000
02020000
,
00000000
00000000
03030000
00000000
,
00100000
00001000
00010000
00000100
00000010
00000001
00000000
00000100
,
00000000
00001000
00010000
00100000
10000000
00010000
00010000
00010000
,
00001000
00000100
00000010
00000001
00000100
00000010
00000000
00000220
,
00000000
00000330
00001001
00000000
,
00000001
00001000
00000001
00000000
00000100
00000100
00000100
00000000
,
00001010
00010100
00101000
01010000
,
10000000
00010000
10000000
00000000
00100000
00100000
00100000
00000000
,
02000000
00000000
00000000
03100000
,
10000000
00010000
10000000
00010000
01000000
00001000
00010000
00000000
,
00000001
00001000
00000001
00001000
00000100
00010000
00001000
00000000
,
00010100
00001010
00010010
01001000
,
01000000
00100000
00100000
00000000
00000000
00000000
00010000
00010000
,
10000000
00000000
01000000
00000000
,
00100000
00000000
00010000
00000000
,
00001000
00000000
00000100
00000000
,
00000010
00000000
00000001
00000000
,
00001000
00000010
00000100
00000001
,
00000100
00001000
00010000
00100000
,
10000000
01000000
10000000
00010000
,
00200000
00000000
00000000
00000000
00300000
01000000
01000000
01000000
,
10000000
00010000
10000000
00010000
00100000
00010000
00000000
01010000
,
00000000
01001000
00000000
00101000
00000000
00001000
00010000
00001000
,
00000100
00000010
00000100
00000010
00001000
00000100
00000000
00000022
,
00000000
00000000
00000033
00000000
,
00000001
00001000
00000001
00001000
00000010
00000100
00000000
00000110
,
00000000
00001010
00000000
00011000
00000000
00010000
00010000
00010000
,
01000000
00100000
01000000
00100000
00010000
10000000
00000000
20200000
,
00000000
30300000
01010000
00000000
,
10000000
00100000
10000000
00100000
01000000
00010000
01000000
00000000
,
00100000
00010000
00100000
00010000
00001000
00010000
00001000
00000000
,
00000100
00000010
00000100
00000010
00001000
00000001
00001000
00000000
,
00000010
00000010
00000100
00000100
,
00000001
00000010
00000001
00000010
00000100
00000010
00000100
00000000
,
00000010
00001000
00000010
00001000
00010000
00001000
00010000
00000000
,
01000000
00100000
01000000
00100000
00010000
10000000
00010000
01000000
,
02200000
00000000
03300000
00000000
,
10010000
00000000
00000000
00000000
;

//---------------dance-double - ----------------
#NOTES:
     dance-double:
     :
     Easy:
     6:
     0.234,0.212,0.095,0.152,0.000,147.000,10.000,16.000,0.000,0.000,0.000,0.234,0.212,0.095,0.152,0.000,147.000,10.000,16.000,0.000,0.000,0.000:
00000000
00000000
00000000
00000000
,
00000000
00000000
00000000
00000000
,
00000000
00000000
00000000
00000000
,
00000000
00000000
00000000
00000000
,
10000000
00000000
10000000
00000000
,
01000000
00000000
01000000
00000000
,
00100000
00000000
00100000
00000000
,
20020000
00000000
00000000
30030000
,
01000000
01000000
01000000
01000000
,
00100000
00010000
00100000
00010000
,
00001000
00001000
00001000
00001000
,
00000100
00000010
00000100
00000010
,
00000001
00000001
00000001
00000001
,
00000010
00001000
00000010
00001000
,
00010000
00010000
00010000
00010000
,
00011000
00000000
00000000
00000000
,
00010000
01000000
00100000
00100000
,
10010000
00000000
10010000
00000000
,
01000000
00100000
00010000
00010000
,
00022000
00000000
00033000
00000000
,
00000010
00001000
00000100
00001000
,
00000110
00000000
00000110
00000000
,
00000100
00000001
00001000
00000001
,
00002002
00000000
00003003
00000000
,
00000100
00000000
00000100
00000000
,
00001000
00000000
00001000
00000000
,
00010000
00000000
00010000
00000000
,
00100000
00000000
00100000
00000000
,
10000000
00000000
00100000
00000000
,
00010000
00000000
00001000
00000000
,
00000100
00000000
00000001
00000000
,
00001000
00000000
00010000
00000000
,
20000000
00000000
00000000
30000000
,
00200000
00000000
00000000
00300000
,
02000000
00000000
00000000
03000000
,
00020000
00000000
00000000
00030000
,
00100000
00100000
00010000
00010000
,
10000000
10000000
01000000
01000000
,
00100000
00001000
00100000
00001000
,
00020000
00000000
00000000
00030000
,
00001000
00001000
00001000
00001000
,
00000100
00000010
00000100
00000010
,
00001000
00000001
00000001
00000001
,
00000220
00000000
00000330
00000000
,
00010000
00100000
00010000
00100000
,
10000000
10000000
10000000
10000000
,
00010000
00100000
00100000
00100000
,
20020000
00000000
30030000
00000000
,
10000000
00100000
10000000
00100000
,
01000000
00010000
01000000
00010000
,
00100000
00001000
00100000
00001000
,
00010000
00000100
00010000
00000100
,
00000010
00000001
00000010
00000001
,
00001000
00000100
00001000
00000100
,
00010000
00000010
00010000
00000010
,
00002000
00000000
00000000
00003000
,
00010000
00000000
00000000
00000000
;
