#VERSION:0.81;
#TITLE:In the Tdot;
#SUBTITLE:Electro HipHop;
#ARTIST:Mr. Thoro;
#TITLETRANSLIT:;
#SUBTITLETRANSLIT:;
#ARTISTTRANSLIT:;
#GENRE:;
#ORIGIN:;
#CREDIT:;
#BANNER:In the Tdot.png;
#BACKGROUND:In the Tdot-bg.png;
#PREVIEWVID:;
#JACKET:;
#CDIMAGE:;
#DISCIMAGE:;
#LYRICSPATH:;
#CDTITLE:;
#MUSIC:In the TDot.mp3;
#OFFSET:-0.639;
#SAMPLESTART:38.875;
#SAMPLELENGTH:12.000;
#SELECTABLE:YES;
#DISPLAYBPM:102.000;
#BPMS:0.000=102.000;
#STOPS:;
#DELAYS:;
#WARPS:;
#TIMESIGNATURES:0.000=4=4;
#TICKCOUNTS:0.000=4;
#COMBOS:0.000=1;
#SPEEDS:0.000=1.000=0.000=0;
#SCROLLS:0.000=1.000;
#FAKES:;
#LABELS:0.000=Song Start;
#BGCHANGES:;
#KEYSOUNDS:;
#ATTACKS:
;

//---------------dance-single - ----------------
#NOTEDATA:;
#CHARTNAME:;
#STEPSTYPE:dance-single;
#DESCRIPTION:;
#CHARTSTYLE:;
#DIFFICULTY:Hard;
#METER:9;
#RADARVALUES:0.366,0.324,0.101,0.438,0.089,240.000,12.000,52.000,0.000,0.000,0.000,0.000,0.000,0.366,0.324,0.101,0.438,0.089,240.000,12.000,52.000,0.000,0.000,0.000,0.000,0.000;
#CREDIT:;
#OFFSET:-0.651;
#BPMS:0.000=102.000
;
#STOPS:;
#DELAYS:;
#WARPS:;
#TIMESIGNATURES:0.000=4=4
;
#TICKCOUNTS:0.000=4
;
#COMBOS:0.000=1
;
#SPEEDS:0.000=1.000=0.000=0
;
#SCROLLS:0.000=1.000
;
#FAKES:;
#LABELS:0.000=Song Start
;
#DISPLAYBPM:102.000;
#NOTES:
0000
0000
0000
0000
,
0000
0000
0000
0000
,
0000
0000
0000
0000
,
0000
0000
0000
0000
,
0001
0000
0100
0000
0010
0010
0020
0000
,
1030
0000
0100
0000
0010
0010
0020
0000
,
0031
0000
1000
0000
0001
0100
0200
0000
,
0301
0000
1000
0000
0100
0100
0110
0000
,
0010
0001
1000
1000
,
0001
0000
0100
0000
0010
0000
0100
0100
,
0001
0000
1000
0000
0100
0100
0010
0010
,
0100
0000
1000
0000
0001
1000
1000
1000
,
0100
0000
0100
0000
0010
0000
0001
0001
,
0002
0000
1003
0000
1000
0000
0010
0010
,
0020
0000
0130
0000
0100
0000
0001
1000
,
2000
3001
0100
0010
,
0110
0100
0001
0000
0001
0001
0002
0000
,
0013
0100
1000
0000
1000
1000
2000
0000
,
3100
0010
0001
0000
0001
0010
0020
0000
,
0130
0100
0110
0000
0001
0100
1001
0000
,
0010
0010
1010
0000
1000
1000
0002
0000
,
0013
0010
0001
0000
0001
0001
2000
0000
,
3001
0100
1000
0000
1000
0100
0200
0000
,
0310
0010
1000
0000
0100
0100
1001
0000
,
2000
0000
0000
0000
3010
0000
0000
0010
0000
0000
0020
0000
0000
0000
0030
0000
,
0002
0000
0000
0000
0013
0000
0000
0010
0000
0000
0020
0000
0000
0000
0030
0000
,
2000
0000
0000
0000
3100
0000
0000
0100
0000
0000
0200
0000
0000
0000
0300
0000
,
0002
0000
0000
0000
0103
0000
0000
0100
0000
0000
0200
0000
0020
0000
0300
0000
,
0230
0000
0000
0000
0301
0000
0000
0001
0000
0000
0001
0000
2000
0000
0000
0000
,
3020
0000
0000
0000
0130
0000
0000
0100
0000
0000
0100
0000
0020
0000
0000
0000
,
2030
0000
0000
0000
3100
0000
0000
0100
0000
0000
0200
0000
0000
0000
0300
0000
,
0020
0000
0000
0000
0031
0000
0000
1000
0000
0000
2000
0000
0002
0000
3000
0000
,
2003
0000
0000
0000
3020
0000
0000
0200
0030
0000
0002
0000
0000
0000
0300
0000
,
0203
0000
0000
0000
0320
0000
0000
2000
0030
0000
0002
0000
0000
0000
3000
0000
,
2003
0000
0000
0000
3002
0000
0000
0200
0003
0000
0020
0000
0000
0000
0000
0300
,
0230
0320
2030
3002
,
1003
0000
0100
0000
0010
0000
0000
0001
0000
0000
0001
0000
2000
0000
0001
0000
,
3001
0000
0100
0000
0010
0000
0000
1000
0000
0000
1000
0000
0002
0000
1000
0000
,
1003
0000
0010
0000
0100
0000
0000
0001
0000
0000
0100
0000
0010
0000
1000
0000
,
0001
0000
0010
0000
0100
0000
0000
1000
0000
0000
0100
0000
0010
0000
0001
0000
,
1000
1000
1010
0000
0010
0010
0110
0000
,
0100
0001
0011
0000
0001
1000
1100
0000
,
0010
0010
0011
0000
0001
0001
0101
0000
,
0100
0010
1000
0000
1000
0001
1000
0000
,
1000
0000
0000
0000
0100
0000
1000
0001
0000
0001
1000
0000
0100
0000
0100
0000
,
0001
0000
0000
0000
0010
0000
0001
1000
0000
1000
0001
0000
0010
0000
0010
0000
,
1000
0000
0000
0000
0001
0000
0100
0010
0000
0010
0100
0000
0001
0000
0001
0000
,
2000
3200
0320
0032
,
0003
0000
0000
0000
;

//---------------dance-single - ----------------
#NOTEDATA:;
#CHARTNAME:;
#STEPSTYPE:dance-single;
#DESCRIPTION:;
#CHARTSTYLE:;
#DIFFICULTY:Medium;
#METER:6;
#RADARVALUES:0.288,0.263,0.236,0.093,0.000,200.000,28.000,11.000,0.000,0.000,0.000,0.000,0.000,0.288,0.263,0.236,0.093,0.000,200.000,28.000,11.000,0.000,0.000,0.000,0.000,0.000;
#CREDIT:;
#OFFSET:-0.651;
#BPMS:0.000=102.000
;
#STOPS:;
#DELAYS:;
#WARPS:;
#TIMESIGNATURES:0.000=4=4
;
#TICKCOUNTS:0.000=4
;
#COMBOS:0.000=1
;
#SPEEDS:0.000=1.000=0.000=0
;
#SCROLLS:0.000=1.000
;
#FAKES:;
#LABELS:0.000=Song Start
;
#DISPLAYBPM:102.000;
#NOTES:
0000
0000
0000
0000
,
0000
0000
0000
0000
,
0000
0000
0000
0000
,
0000
0000
0000
0000
,
0100
0000
0010
0000
0100
0100
0100
0000
,
0001
0000
1000
0000
0001
0001
0001
0000
,
0100
0000
1000
0000
0010
0010
0010
0000
,
0001
0000
0010
0000
0100
0100
0100
0000
,
1000
0000
0001
0000
0100
0100
0100
0000
,
0001
0000
1000
0000
0010
0010
0010
0000
,
1000
0000
0100
0000
0001
0001
0001
0000
,
0010
0000
1000
0000
0100
0100
0100
0000
,
0010
0000
0001
0000
0100
0001
0100
0001
,
0100
0010
1000
1001
,
0001
0000
0010
0000
0100
1000
0100
1000
,
0100
0010
0001
1001
,
1000
0000
1010
0000
0010
0010
0010
0000
,
0001
0000
0101
0000
0100
0100
0100
0000
,
0001
0000
0011
0000
1000
1000
1000
0000
,
1000
0000
1100
0000
0001
0001
0001
0000
,
0100
0000
0110
0000
0010
0010
1000
0000
,
1000
0000
1001
0000
0001
0001
0100
0000
,
0010
0000
0110
0000
0100
0100
0001
0000
,
0001
0000
1001
0000
0001
0010
0010
0000
,
0100
1000
1001
0101
,
0010
0001
1001
1010
,
1000
0100
0010
0010
,
0001
0100
0010
0010
,
1000
0000
1010
0000
0010
0010
0010
0000
,
0001
0000
0101
0000
0100
0100
0100
0000
,
0001
1000
1010
1100
,
1000
0100
0001
0010
,
0002
0000
1000
1003
,
2000
0000
0010
3010
,
0020
0000
0100
0130
,
0200
0302
2003
3020
,
0130
0000
0110
0000
0010
1000
0010
0000
,
1000
0000
1001
0000
0001
0010
0001
0000
,
0010
0000
0110
0000
0100
1000
0100
0000
,
0001
0000
1001
0000
1000
0010
1000
0000
,
0001
0000
0100
0000
1000
1000
1000
0000
,
1000
0000
0100
0000
0001
0001
0001
0000
,
0010
0000
1000
0000
0100
0100
0100
0000
,
0001
0000
0010
0000
1000
0001
1000
0000
,
1000
1100
0000
1100
,
0001
0011
0000
0011
,
0010
0110
0000
0110
,
0200
2300
3002
0023
,
0030
0000
0000
0000
;

//---------------dance-single - ----------------
#NOTEDATA:;
#CHARTNAME:;
#STEPSTYPE:dance-single;
#DESCRIPTION:;
#CHARTSTYLE:;
#DIFFICULTY:Easy;
#METER:3;
#RADARVALUES:0.208,0.202,0.185,0.101,0.000,139.000,22.000,12.000,0.000,0.000,0.000,0.000,0.000,0.208,0.202,0.185,0.101,0.000,139.000,22.000,12.000,0.000,0.000,0.000,0.000,0.000;
#CREDIT:;
#OFFSET:-0.651;
#BPMS:0.000=102.000
;
#STOPS:;
#DELAYS:;
#WARPS:;
#TIMESIGNATURES:0.000=4=4
;
#TICKCOUNTS:0.000=4
;
#COMBOS:0.000=1
;
#SPEEDS:0.000=1.000=0.000=0
;
#SCROLLS:0.000=1.000
;
#FAKES:;
#LABELS:0.000=Song Start
;
#DISPLAYBPM:102.000;
#NOTES:
0000
0000
0000
0000
,
0000
0000
0000
0000
,
0000
0000
0000
0000
,
0000
0000
0000
0000
,
0001
0100
0000
0110
,
1000
0100
0000
0110
,
0010
0001
0000
1001
,
0010
1000
0000
1001
,
1000
1000
0001
0001
,
1000
1000
0001
0001
,
0100
0001
0010
0001
,
1000
0010
1000
0100
,
0010
0010
0001
0001
,
1000
1000
0100
0100
,
1000
1000
0010
0010
,
0100
0100
0001
0001
,
1000
0010
0000
0110
,
0001
0010
0000
0110
,
0100
1000
0000
1001
,
0010
0001
0000
1001
,
1000
1000
0000
1001
,
0001
0001
0000
1001
,
0100
0100
0000
0110
,
0010
0010
0000
0110
,
0010
1000
0020
0000
,
0130
0001
0200
0000
,
0301
1000
0002
0000
,
1003
0001
2000
0000
,
3001
0100
0000
0110
,
1000
0100
0000
0110
,
0001
0001
1000
1000
,
0010
1000
0100
0001
,
1000
0000
0000
0100
,
0100
0000
0000
0001
,
0001
0000
0000
0010
,
0020
0230
0320
0230
,
0310
0001
0000
1001
,
1000
0100
0000
1001
,
0001
0100
0000
1001
,
1000
0010
0000
1001
,
0010
1000
0000
0110
,
0100
0001
0000
0110
,
1000
0010
0000
0110
,
0001
0100
0000
0110
,
0010
0100
0000
0100
,
0000
0001
0000
1000
,
0000
0100
0000
0100
,
2000
3200
0320
0032
,
0003
0000
0000
0000
;

//---------------dance-single - ----------------
#NOTEDATA:;
#CHARTNAME:;
#STEPSTYPE:dance-single;
#DESCRIPTION:;
#CHARTSTYLE:;
#DIFFICULTY:Beginner;
#METER:1;
#RADARVALUES:0.122,0.182,0.025,0.067,0.000,90.000,3.000,8.000,0.000,0.000,0.000,0.000,0.000,0.122,0.182,0.025,0.067,0.000,90.000,3.000,8.000,0.000,0.000,0.000,0.000,0.000;
#CREDIT:;
#OFFSET:-0.651;
#BPMS:0.000=102.000
;
#STOPS:;
#DELAYS:;
#WARPS:;
#TIMESIGNATURES:0.000=4=4
;
#TICKCOUNTS:0.000=4
;
#COMBOS:0.000=1
;
#SPEEDS:0.000=1.000=0.000=0
;
#SCROLLS:0.000=1.000
;
#FAKES:;
#LABELS:0.000=Song Start
;
#DISPLAYBPM:102.000;
#NOTES:
0000
0000
0000
0000
,
0000
0000
0000
0000
,
0000
0000
0000
0000
,
0000
0000
0000
0000
,
0100
0000
0000
0000
,
0010
0000
0000
0000
,
1000
0000
0000
0000
,
0001
0000
0000
0000
,
0100
0000
0100
0000
,
0100
0000
0100
0000
,
0010
0000
0010
0000
,
0010
0000
0010
0000
,
1000
0000
0001
0000
,
1000
0000
0001
0000
,
0100
0000
0010
0000
,
0100
0000
0010
0000
,
1000
0000
0000
1000
,
1000
0000
0000
0001
,
0001
0000
0000
0010
,
0010
0000
0000
0000
,
0110
0000
0000
1000
,
1000
0000
0000
0001
,
0001
0000
0000
0100
,
0100
0000
0000
0110
,
0010
0000
1000
0000
,
0001
0000
1000
0000
,
0100
0000
1000
0000
,
0001
0000
1000
0000
,
0010
0000
0100
0100
,
0010
0000
0010
0010
,
0100
0000
0001
0001
,
1000
0000
1000
1000
,
0002
0000
0003
0000
,
2000
0000
3000
0000
,
0020
0000
0030
0000
,
2000
0000
0000
3000
,
1000
0000
0100
0100
,
0100
0000
0001
0001
,
0001
0000
0010
0010
,
0010
0000
1000
1000
,
1000
0000
0001
0001
,
1000
0000
1000
1000
,
0001
0000
0100
0100
,
0010
0000
0010
0010
,
0100
0000
0000
0000
,
1001
0000
0000
0000
,
0010
0000
0000
0000
,
2000
3200
0320
0032
,
0003
0000
0000
0000
;

//---------------dance-double - ----------------
#NOTEDATA:;
#CHARTNAME:;
#STEPSTYPE:dance-double;
#DESCRIPTION:;
#CHARTSTYLE:;
#DIFFICULTY:Hard;
#METER:9;
#RADARVALUES:0.343,0.344,0.287,0.177,0.038,230.000,34.000,21.000,0.000,0.000,0.000,0.000,0.000,0.343,0.344,0.287,0.177,0.038,230.000,34.000,21.000,0.000,0.000,0.000,0.000,0.000;
#CREDIT:;
#OFFSET:-0.651;
#BPMS:0.000=102.000
;
#STOPS:;
#DELAYS:;
#WARPS:;
#TIMESIGNATURES:0.000=4=4
;
#TICKCOUNTS:0.000=4
;
#COMBOS:0.000=1
;
#SPEEDS:0.000=1.000=0.000=0
;
#SCROLLS:0.000=1.000
;
#FAKES:;
#LABELS:0.000=Song Start
;
#DISPLAYBPM:102.000;
#NOTES:
// measure 0
00000000
00000000
00000000
00000000
,  // measure 1
00000000
00000000
00000000
00000000
,  // measure 2
00000000
00000000
00000000
00000000
,  // measure 3
00000000
00000000
00000000
00000000
,  // measure 4
00000100
00000000
00000010
00000000
00001000
00001000
00001001
00000000
,  // measure 5
00000001
00000000
00001000
00000000
00000010
00000010
00000110
00000000
,  // measure 6
00000100
00000000
00001000
00000000
00010000
00010000
00011000
00000000
,  // measure 7
00010000
00000000
01000000
00000000
00100000
00100000
01100000
00000000
,  // measure 8
20000000
30100000
00020000
01030000
,  // measure 9
00100000
10000000
00100000
00000000
10000000
00000000
10010000
00000000
,  // measure 10
00020000
00130000
00200000
00301000
,  // measure 11
00010000
00000000
00000100
00000000
00001000
00000010
00001000
00000000
,  // measure 12
00000001
00000000
00001001
00000000
00001000
00000100
00001000
00000100
,  // measure 13
00001000
00000000
00001100
00000000
00000100
00010000
00000100
00010000
,  // measure 14
00001000
00000000
00011000
00000000
00010000
00100000
10000000
00100000
,  // measure 15
10000000
00010000
10000000
10010000
,  // measure 16
10000000
01000000
00010000
00000000
00010000
00000000
00011000
00000000
,  // measure 17
00001000
00000100
00000001
00000000
00000001
00000000
00001001
00000000
,  // measure 18
00000001
00000010
00000100
00000000
00000010
00000000
00000110
00000000
,  // measure 19
00000100
00001000
00000001
00001001
,  // measure 20
00000001
00000100
00001000
00000000
00010000
00000000
00011000
00000000
,  // measure 21
00010000
01000000
10000000
00000000
10000000
00000000
10010000
00000000
,  // measure 22
00010000
01000000
00100000
00000000
01000000
00000000
01100000
00000000
,  // measure 23
00100000
10100000
10000000
10010000
,  // measure 24
00010000
01000000
00100000
00000000
10000000
00000000
10000000
00000000
,  // measure 25
01000000
00010000
00001000
00000000
00010000
00000000
00010000
00000000
,  // measure 26
00001000
00000100
00000010
00000000
00001000
00000000
00000001
00000000
,  // measure 27
00000001
00000010
00000100
00000000
00001000
00000000
00001001
00000000
,  // measure 28
00000001
00000100
00000010
00000000
00000100
00000100
00000110
00000000
,  // measure 29
00000100
00001000
00010000
00000000
00001000
00001000
00011000
00000000
,  // measure 30
00010000
00100000
01000000
00000000
00010000
01000000
10000000
00000000
,  // measure 31
01000000
00010000
10000000
00000000
01000000
00100000
00010000
00000000
,  // measure 32
00200000
00000000
00000000
00000000
02300000
00000000
00000000
10000000
03000000
00000000
02000000
00000000
00000000
00000000
03000000
00000000
,  // measure 33
20000000
00000000
00000000
00000000
30200000
00000000
00000000
00010000
00300000
00000000
00002000
00000000
00000000
00000000
00003000
00000000
,  // measure 34
00020000
00000000
00000000
00000000
00030020
00000000
00000000
00000100
00000030
00000000
00000002
00000000
00000000
00000000
00000003
00000000
,  // measure 35
00000200
00002300
00023000
00230000
,  // measure 36
01300000
00000000
01010000
00000000
00010000
10000000
10010000
00000000
,  // measure 37
00010000
00000000
00110000
00000000
00100000
00001000
00011000
00000000
,  // measure 38
00010000
00000000
00010010
00000000
00000100
00000001
00000101
00000000
,  // measure 39
00000010
00000010
00000010
00000000
00001000
00000001
00001001
00000000
,  // measure 40
00000001
00000100
00001000
00000000
00000100
00000010
00000110
00000000
,  // measure 41
00000100
00001000
00010000
00000000
00000100
00001000
00001100
00000000
,  // measure 42
00001000
00010000
00100000
00000000
00100000
01000000
11000000
00000000
,  // measure 43
10000000
00010000
10010000
00000000
00010000
10000000
10010000
00000000
,  // measure 44
00100000
00000000
00000000
00000000
01000000
00000000
00100000
10000000
00000000
10000000
00100000
00000000
01000000
00000000
01000000
00000000
,  // measure 45
00010000
00000000
00000000
00000000
00100000
00000000
00001000
00010000
00000000
00010000
00001000
00000000
00010000
00000000
00000000
00000000
,  // measure 46
00011000
00000000
00000000
00000000
00000100
00000000
00000001
00000100
00000000
00000100
00000001
00000000
00001000
00000000
00001000
00000000
,  // measure 47
00000002
00000023
00002030
00023000
,  // measure 48
00030000
00000000
00000000
00000000
;

//---------------dance-double - ----------------
#NOTEDATA:;
#CHARTNAME:;
#STEPSTYPE:dance-double;
#DESCRIPTION:;
#CHARTSTYLE:;
#DIFFICULTY:Easy;
#METER:2;
#RADARVALUES:0.157,0.202,0.194,0.067,0.000,99.000,23.000,8.000,0.000,0.000,0.000,0.000,0.000,0.157,0.202,0.194,0.067,0.000,99.000,23.000,8.000,0.000,0.000,0.000,0.000,0.000;
#CREDIT:;
#OFFSET:-0.651;
#BPMS:0.000=102.000
;
#STOPS:;
#DELAYS:;
#WARPS:;
#TIMESIGNATURES:0.000=4=4
;
#TICKCOUNTS:0.000=4
;
#COMBOS:0.000=1
;
#SPEEDS:0.000=1.000=0.000=0
;
#SCROLLS:0.000=1.000
;
#FAKES:;
#LABELS:0.000=Song Start
;
#DISPLAYBPM:102.000;
#NOTES:
00000000
00000000
00000000
00000000
,
00000000
00000000
00000000
00000000
,
00000000
00000000
00000000
00000000
,
00000000
00000000
00000000
00000000
,
00100000
00010000
00000000
10010000
,
00000000
00100000
00000000
01100000
,
00000000
00010000
00000000
00011000
,
00000000
00010000
00000000
00011000
,
00000100
00000000
00000100
00000000
,
00000001
00000000
00000001
00000000
,
00001000
00000000
00000001
00000000
,
00000010
00000000
00000100
00000000
,
00001000
00000000
00001000
00000000
,
00000001
00000000
00000001
00000000
,
00000100
00000000
00000100
00000000
,
00000010
00000000
00000010
00000000
,
00000100
00000000
00000000
00001001
,
00000100
00000000
00000000
00011000
,
00100000
00000000
00000000
10010000
,
00000000
01000000
00000000
01100000
,
00100000
10000000
00000000
10010000
,
00010000
00100000
00000000
00011000
,
00001000
00010000
00000000
00000110
,
00000010
00000001
00000000
00001001
,
00000100
00000000
00000100
00000000
,
00001000
00000000
00001000
00000000
,
00100000
00000000
00100000
00000000
,
10000000
00000000
10000000
00000000
,
00010000
00000000
10010000
00000000
,
10000000
00000000
10010000
00000000
,
00010000
00000000
00100000
00000000
,
00001000
00000000
00010000
00000000
,
00002000
00000000
00003000
00000000
,
00020000
00000000
00030000
00000000
,
00002000
00000000
00003000
00000000
,
00020000
00000000
00000000
00030000
,
00001000
00001000
00000000
00011000
,
00010000
00000100
00000000
00000110
,
00000010
00000001
00000000
00001001
,
00001000
00000010
00000000
00000110
,
00000100
00001000
00000000
00011000
,
00010000
00100000
00000000
01100000
,
00100000
10000000
00000000
10010000
,
00010000
10010000
00000000
01100000
,
00100000
01000000
00000000
00000000
,
00100000
00010000
00000000
00000000
,
00010000
00001000
00000000
00000000
,
00002000
00023000
00032000
00023000
,
00030000
00000000
00000000
00000000
;

//---------------dance-double - ----------------
#NOTEDATA:;
#CHARTNAME:;
#STEPSTYPE:dance-double;
#DESCRIPTION:;
#CHARTSTYLE:;
#DIFFICULTY:Medium;
#METER:7;
#RADARVALUES:0.291,0.243,0.320,0.101,0.000,192.000,38.000,12.000,0.000,0.000,0.000,0.000,0.000,0.291,0.243,0.320,0.101,0.000,192.000,38.000,12.000,0.000,0.000,0.000,0.000,0.000;
#CREDIT:;
#OFFSET:-0.651;
#BPMS:0.000=102.000
;
#STOPS:;
#DELAYS:;
#WARPS:;
#TIMESIGNATURES:0.000=4=4
;
#TICKCOUNTS:0.000=4
;
#COMBOS:0.000=1
;
#SPEEDS:0.000=1.000=0.000=0
;
#SCROLLS:0.000=1.000
;
#FAKES:;
#LABELS:0.000=Song Start
;
#DISPLAYBPM:102.000;
#NOTES:
// measure 0
00000000
00000000
00000000
00000000
,  // measure 1
00000000
00000000
00000000
00000000
,  // measure 2
00000000
00000000
00000000
00000000
,  // measure 3
00000000
00000000
00000000
00000000
,  // measure 4
10000000
00000000
11000000
00000000
00100000
00100000
00100000
00000000
,  // measure 5
00010000
00000000
01010000
00000000
00100000
00100000
00100000
00000000
,  // measure 6
00010000
00000000
00011000
00000000
00000100
00000100
00000100
00000000
,  // measure 7
00000010
00000000
00001001
00000000
00000100
00000100
00000100
00000000
,  // measure 8
00000001
00000100
00001000
00010000
,  // measure 9
00001000
00000010
00000001
00001001
,  // measure 10
00001000
00000010
00000100
00001000
,  // measure 11
00010000
00100000
01000000
00010000
,  // measure 12
10000000
00000000
10010000
00000000
00010000
00100000
01000000
00000000
,  // measure 13
00100000
00000000
00110000
00000000
00010000
01000000
00100000
00000000
,  // measure 14
00010000
00000000
00011000
00000000
00001000
00000100
00000010
00000000
,  // measure 15
00001000
00000000
00001001
00000000
00000001
00000010
00000100
00000000
,  // measure 16
00001000
00000000
00001001
00000000
00000100
00000100
00000100
00000000
,  // measure 17
00000001
00000000
00000101
00000000
00000010
00000010
00000010
00000000
,  // measure 18
00001000
00000000
00001100
00000000
00010000
00010000
00010000
00000000
,  // measure 19
00001000
00000000
01001000
00000000
00100000
00100000
00100000
00000000
,  // measure 20
10000000
00000000
10100000
00000000
00010000
00010000
00010000
00000000
,  // measure 21
00100000
00000000
00101000
00000000
00001000
00001000
00001000
00000000
,  // measure 22
00000100
00000000
00000110
00000000
00000001
00000001
00000001
00000000
,  // measure 23
00000001
00000100
00001000
00000000
00010000
00100000
10000000
00000000
,  // measure 24
00010000
10010000
10000000
01000000
,  // measure 25
10000000
11000000
01000000
00100000
,  // measure 26
00010000
00011000
00001000
00000100
,  // measure 27
00000010
00001001
00000100
00000100
,  // measure 28
00000001
00000100
00000001
00000000
00001000
00000000
00001001
00000000
,  // measure 29
00001000
00000100
00001000
00000000
00000010
00000000
00000110
00000000
,  // measure 30
00000100
00001000
00010000
00000000
00010000
00000000
00011000
00000000
,  // measure 31
00001000
01000000
00010000
00000000
01000000
00000000
01100000
00000000
,  // measure 32
20000000
00000000
30020000
00000000
,  // measure 33
02030000
00000000
03200000
00000000
,  // measure 34
00320000
00000000
00032000
00000000
,  // measure 35
00003200
00000000
00000320
00000000
,  // measure 36
00000130
00000000
00001001
00000000
00000001
00000001
00000001
00000000
,  // measure 37
00001000
00000000
00000110
00000000
00001000
00001000
00001000
00000000
,  // measure 38
00000100
00000000
00011000
00000000
00100000
00100000
00100000
00000000
,  // measure 39
00010000
00000000
10010000
00000000
01000000
01000000
01000000
00000000
,  // measure 40
00100000
00000000
10100000
00000000
00010000
00010000
00010000
00000000
,  // measure 41
00001000
00000000
00101000
00000000
00010000
00010000
00010000
00000000
,  // measure 42
00000100
00000000
00000011
00000000
00001000
00001000
00001000
00000000
,  // measure 43
00000001
00000000
00000101
00000000
00000010
00001000
00000010
00000000
,  // measure 44
00000100
00000110
00000000
00001010
,  // measure 45
00000000
00011000
00000000
00110000
,  // measure 46
00000000
01100000
00000000
00110000
,  // measure 47
00002000
00023000
00032000
00023000
,  // measure 48
00030000
00000000
00000000
00000000
;
