#VERSION:0.81;
#TITLE:In My Heart;
#SUBTITLE:House Pop;
#ARTIST:Tsukasa;
#TITLETRANSLIT:;
#SUBTITLETRANSLIT:;
#ARTISTTRANSLIT:;
#GENRE:;
#ORIGIN:;
#CREDIT:;
#BANNER:In My Heart.png;
#BACKGROUND:In My Heart-bg.png;
#PREVIEWVID:;
#JACKET:;
#CDIMAGE:;
#DISCIMAGE:;
#LYRICSPATH:;
#CDTITLE:;
#MUSIC:In My Heart.mp3;
#OFFSET:-0.181;
#SAMPLESTART:62.201;
#SAMPLELENGTH:12.000;
#SELECTABLE:YES;
#DISPLAYBPM:123.000;
#BPMS:0.000=123.000;
#STOPS:;
#DELAYS:;
#WARPS:;
#TIMESIGNATURES:0.000=4=4;
#TICKCOUNTS:0.000=4;
#COMBOS:0.000=1;
#SPEEDS:0.000=1.000=0.000=0;
#SCROLLS:0.000=1.000;
#FAKES:;
#LABELS:0.000=Song Start;
#BGCHANGES:;
#KEYSOUNDS:;
#ATTACKS:
;

//---------------dance-single - ----------------
#NOTEDATA:;
#CHARTNAME:;
#STEPSTYPE:dance-single;
#DESCRIPTION:;
#CHARTSTYLE:;
#DIFFICULTY:Hard;
#METER:11;
#RADARVALUES:0.421,0.503,0.225,0.235,0.137,254.000,23.000,24.000,0.000,0.000,0.000,0.000,0.000,0.421,0.503,0.225,0.235,0.137,254.000,23.000,24.000,0.000,0.000,0.000,0.000,0.000;
#CREDIT:;
#OFFSET:-0.165;
#BPMS:0.000=123.000
;
#STOPS:;
#DELAYS:;
#WARPS:;
#TIMESIGNATURES:0.000=4=4
;
#TICKCOUNTS:0.000=4
;
#COMBOS:0.000=1
;
#SPEEDS:0.000=1.000=0.000=0
;
#SCROLLS:0.000=1.000
;
#FAKES:;
#LABELS:0.000=Song Start
;
#DISPLAYBPM:123.000;
#NOTES:
// measure 0
0000
0000
0000
0000
,  // measure 1
0000
0000
0000
0000
,  // measure 2
0000
0000
0000
0000
,  // measure 3
0000
0000
0000
0000
,  // measure 4
0000
0000
0001
0100
0010
0000
0100
0010
0000
0100
0010
0000
0100
0010
0000
0100
,  // measure 5
0010
0000
1000
0010
0000
1000
0010
0000
1000
0010
0000
1000
0010
0000
1000
0010
,  // measure 6
0000
0100
0001
0000
0010
0001
0000
0010
0100
0000
1000
0010
0000
0100
0001
0000
,  // measure 7
1000
0100
0010
0001
2000
0000
3100
0010
,  // measure 8
0002
0000
0000
0100
0000
0000
1000
0000
1000
0000
0000
0000
0003
0000
0100
0000
,  // measure 9
0020
0000
0000
0001
0000
0000
0100
0000
0130
0000
0000
0000
1001
0000
0000
0000
,  // measure 10
2000
0000
0000
0100
0000
0000
0001
0000
0001
0000
0000
0000
3000
0000
0010
0000
,  // measure 11
0100
0000
0001
0100
0000
0100
0001
0000
2000
0000
0000
0000
3100
0000
0000
0000
,  // measure 12
0020
0000
0000
0100
0000
0000
1000
0000
1000
0000
0000
0000
0030
0000
0001
0000
,  // measure 13
0200
0000
0000
0010
0000
0000
0001
0000
0001
0000
0000
0000
0300
0000
0010
0000
,  // measure 14
2000
0000
0000
0001
0000
0000
0100
0000
3100
0000
0000
0000
0010
0000
0100
0000
,  // measure 15
0002
0000
1000
1000
0000
0100
0003
0000
,  // measure 16
0000
0100
0000
0100
0000
0100
0000
0100
,  // measure 17
0000
1000
0000
1000
0100
0110
0100
0110
,  // measure 18
0000
0001
0000
0001
0000
0001
0000
0001
,  // measure 19
0000
0100
0000
0100
0001
1001
0001
1001
,  // measure 20
0000
0010
0000
0010
0000
0010
0000
0010
,  // measure 21
0000
0100
0000
0100
0010
0110
0010
0110
,  // measure 22
0000
1000
0000
1000
0000
1000
0000
1000
,  // measure 23
0001
0100
0001
0200
0000
0000
0310
0000
,  // measure 24
0010
0010
1010
0000
1000
1000
1100
0000
,  // measure 25
0100
0010
0001
0010
0100
0010
0001
0100
,  // measure 26
0010
0010
1010
0000
1000
1000
1100
0000
,  // measure 27
1000
0001
1000
0000
0000
1000
0001
2002
,  // measure 28
0000
0000
3003
0000
0001
0100
0001
2002
,  // measure 29
0000
0000
0000
0000
3003
0000
0000
0000
0010
0000
0000
0001
0000
0000
0100
0000
,  // measure 30
0200
0000
0000
0300
,  // measure 31
1010
1001
0011
1001
,  // measure 32
0100
0000
0000
1000
0000
0000
0001
0000
0001
0000
1000
0000
0010
0000
0100
0001
,  // measure 33
0000
0010
0001
1000
0001
0100
0110
0000
,  // measure 34
0100
0000
0000
0001
0000
0000
1000
0000
1000
0000
0001
0000
0010
0000
0100
1000
,  // measure 35
0000
0010
0100
0001
0100
0010
1010
0000
,  // measure 36
1000
0100
0010
0000
0100
1000
0010
0000
,  // measure 37
0100
0001
1000
0001
1000
0000
0110
0000
,  // measure 38
1002
0000
1000
0000
1000
0000
1003
0100
,  // measure 39
0010
0001
1000
0100
0010
0001
0100
0010
,  // measure 40
0200
0000
0001
0001
0300
0001
0100
0010
,  // measure 41
0100
0001
1000
2000
0000
0000
0000
3100
,  // measure 42
0010
0100
1000
0002
0000
0100
0100
0103
,  // measure 43
0000
0010
2002
0000
0000
0000
3003
0000
,  // measure 44
0000
1000
0010
0001
0010
0100
0001
1000
,  // measure 45
0100
1000
0010
0100
0000
0100
0001
0100
,  // measure 46
0010
0100
1000
0001
1000
0000
0001
0010
,  // measure 47
0000
0010
0200
0000
0000
0000
0300
0000
,  // measure 48
2002
0000
0000
0000
,  // measure 49
3003
0000
0000
0000
;

//---------------dance-single - ----------------
#NOTEDATA:;
#CHARTNAME:;
#STEPSTYPE:dance-single;
#DESCRIPTION:;
#CHARTSTYLE:;
#DIFFICULTY:Medium;
#METER:9;
#RADARVALUES:0.321,0.288,0.147,0.215,0.034,193.000,15.000,22.000,0.000,0.000,0.000,0.000,0.000,0.321,0.288,0.147,0.215,0.034,193.000,15.000,22.000,0.000,0.000,0.000,0.000,0.000;
#CREDIT:;
#DISPLAYBPM:123.000;
#NOTES:
0000
0000
0000
0000
,
0000
0000
0000
0000
,
0000
0000
0000
0000
,
0000
0000
0000
0000
,
0000
0000
1000
0000
0100
0000
0000
0100
0000
0000
0100
0000
0000
0100
0000
0000
,
0010
0000
0000
0010
0000
0000
0010
0000
0000
0010
0000
0000
0010
0000
0000
0001
,
0000
0000
0001
0000
0000
0001
0000
0000
0001
0000
0000
0001
0000
0000
1000
0000
,
0100
0000
0100
0000
1001
0000
0001
0100
,
0002
0000
1000
0000
1000
0000
0003
1000
,
0200
0000
0010
0000
0010
0000
0300
0001
,
2000
0000
0100
0000
0100
0000
3000
0001
,
0020
0001
0001
0030
,
1020
0000
0100
0000
0100
0000
0030
1000
,
0002
0000
0010
0000
0010
0000
0003
0100
,
0001
0000
1000
0000
0100
0000
0010
0001
,
0100
0000
0010
0010
0000
0110
0000
0000
,
0000
1000
0000
1000
0000
1000
0000
1000
,
0000
1000
0000
1000
0001
1000
0001
0100
,
0000
0001
0000
0001
0000
0001
0000
0001
,
0000
0001
0000
0001
1000
0001
1000
0010
,
0000
0100
0000
0100
0000
0100
0000
0100
,
0000
0100
0000
0100
0001
1000
0001
0100
,
0000
0010
0000
0010
0000
0010
0000
0010
,
0000
0010
0000
0010
1000
0001
0100
0010
,
1000
0100
1000
0100
,
0010
0001
0100
0000
0001
0000
1001
0000
,
0100
0000
0001
0000
0010
0001
1000
0001
,
0000
0100
0020
0000
0000
0000
0030
0000
,
2200
0000
0000
3300
,
0022
0000
0000
0033
,
2002
0000
0000
3003
,
0100
0100
0110
1001
,
0001
0100
1000
0000
1000
0000
1001
0000
,
1000
0100
0001
0000
0001
0000
1001
0000
,
0010
0001
0010
0000
0100
0000
0110
0000
,
0100
1000
0100
0000
0010
0000
0110
0000
,
0010
0001
0100
0000
0100
0001
0010
0000
,
0100
1000
0010
0000
0010
1000
0100
0000
,
2002
0000
0000
3003
,
0100
0010
0100
0010
,
2000
0000
0001
0001
0000
0001
3001
0000
,
0001
0100
0010
2000
0000
0000
3000
0000
,
0010
0001
0010
0001
0000
1000
0100
0010
,
0000
0002
2000
0000
0000
0000
3003
0000
,
0000
0100
0001
0100
0000
0010
1000
0010
,
0000
0001
1000
0010
0000
0100
0100
0000
,
0010
0001
0010
0001
0000
1000
0100
0010
,
0000
0100
0020
0000
0000
0000
0030
0000
,
2002
0000
0000
0000
,
3003
0000
0000
0000
;

//---------------dance-single - ----------------
#NOTEDATA:;
#CHARTNAME:;
#STEPSTYPE:dance-single;
#DESCRIPTION:;
#CHARTSTYLE:;
#DIFFICULTY:Easy;
#METER:5;
#RADARVALUES:0.212,0.288,0.176,0.137,0.000,120.000,18.000,14.000,0.000,0.000,0.000,0.000,0.000,0.212,0.288,0.176,0.137,0.000,120.000,18.000,14.000,0.000,0.000,0.000,0.000,0.000;
#CREDIT:;
#DISPLAYBPM:123.000;
#NOTES:
0000
0000
0000
0000
,
0000
0000
0000
0000
,
0000
0000
0000
0000
,
0000
0000
0000
0000
,
2000
0000
0000
3000
,
0002
0000
0000
0003
,
2000
0000
0000
3000
,
0002
0000
0000
0003
,
0100
0100
0110
0010
,
1000
0001
0010
0100
,
0001
0001
1001
1000
,
0010
0001
1000
0100
,
0010
1000
0110
0100
,
0001
0100
1000
0010
,
0100
0001
0110
1000
,
0001
0000
1000
0100
0000
0110
0000
0000
,
0000
0000
0000
0000
,
0000
0000
0000
0000
0001
1000
0001
1000
,
0000
0000
0000
0000
,
0000
0000
0000
0000
1000
0001
1000
0001
,
0000
0000
0000
0000
,
0000
0000
0000
0000
0010
0100
0010
0100
,
0000
0000
0000
0000
,
0000
0000
0000
1001
,
1000
0001
0000
0001
,
0000
0100
0000
0100
,
0000
0010
0000
0010
,
0000
1000
0000
0001
,
1001
1000
0000
1000
,
0000
0001
0000
0001
,
0220
0000
0000
0330
,
1001
1001
1001
1001
,
1000
0100
0010
0100
,
0010
0001
1000
0001
,
0100
0010
0001
0010
,
1000
0100
0010
0001
,
0100
0001
0010
0001
,
1000
0100
0010
0100
,
2002
0000
0000
3003
,
1000
0110
0001
0110
,
2000
0001
0000
0001
,
0000
0100
0000
3100
,
0010
0001
0100
0001
,
1000
2002
0000
3003
,
0002
0010
0000
0010
,
0000
1000
0000
1003
,
0100
0001
1000
0100
,
0010
0110
0000
0000
,
2002
0000
0000
0000
,
3003
0000
0000
0000
;

//---------------dance-single - ----------------
#NOTEDATA:;
#CHARTNAME:;
#STEPSTYPE:dance-single;
#DESCRIPTION:;
#CHARTSTYLE:;
#DIFFICULTY:Beginner;
#METER:2;
#RADARVALUES:0.117,0.144,0.029,0.088,0.000,72.000,3.000,9.000,0.000,0.000,0.000,0.000,0.000,0.117,0.144,0.029,0.088,0.000,72.000,3.000,9.000,0.000,0.000,0.000,0.000,0.000;
#CREDIT:;
#DISPLAYBPM:123.000;
#NOTES:
0000
0000
0000
0000
,
0000
0000
0000
0000
,
0000
0000
0000
0000
,
0000
0000
0000
0000
,
1000
0000
0000
0000
,
1000
0000
0000
0000
,
1000
0000
0000
0000
,
1000
0000
0000
0000
,
0001
0001
0001
0000
,
0100
0000
0100
0000
,
1000
1000
1000
0000
,
0010
0000
0010
0000
,
1001
0001
0000
0001
,
0000
1000
0000
1000
,
0000
0100
0000
0100
,
0000
0010
0000
0010
,
0001
0000
0000
0000
,
0000
0000
1000
0000
,
1000
0000
0000
0000
,
0000
0000
0100
0000
,
0100
0000
0000
0000
,
0000
0000
0010
0000
,
0010
0000
0000
0000
,
0000
0000
0000
0000
,
1001
0001
0000
0001
,
0000
0001
0000
0001
,
0000
1000
0000
1000
,
0000
1000
0000
1000
,
0000
0100
0000
0100
,
0000
0010
0000
0010
,
0000
0100
0000
0100
,
0000
0010
0000
0010
,
0100
0100
0000
0000
,
0010
0010
0000
0000
,
1000
1000
0000
0000
,
0001
0001
0000
0000
,
0100
0010
0000
0000
,
1000
0001
0000
0000
,
0010
0100
0000
0000
,
0001
1000
0000
0000
,
0200
0000
0000
0300
,
0020
0000
0000
0030
,
0200
0000
0000
0300
,
2000
0000
0000
3000
,
0002
0000
0000
0003
,
0200
0000
0000
0300
,
0020
0000
0000
0030
,
0100
0000
0000
0000
,
2002
0000
0000
0000
,
3003
0000
0000
0000
;

//---------------dance-double - ----------------
#NOTEDATA:;
#CHARTNAME:;
#STEPSTYPE:dance-double;
#DESCRIPTION:;
#CHARTSTYLE:;
#DIFFICULTY:Hard;
#METER:12;
#RADARVALUES:0.433,0.503,0.176,0.274,0.147,264.000,18.000,28.000,0.000,0.000,0.000,0.000,0.000,0.433,0.503,0.176,0.274,0.147,264.000,18.000,28.000,0.000,0.000,0.000,0.000,0.000;
#CREDIT:;
#OFFSET:-0.165;
#BPMS:0.000=123.000
;
#STOPS:;
#DELAYS:;
#WARPS:;
#TIMESIGNATURES:0.000=4=4
;
#TICKCOUNTS:0.000=4
;
#COMBOS:0.000=1
;
#SPEEDS:0.000=1.000=0.000=0
;
#SCROLLS:0.000=1.000
;
#FAKES:;
#LABELS:0.000=Song Start
;
#DISPLAYBPM:123.000;
#NOTES:
00000000
00000000
00000000
00000000
,
00000000
00000000
00000000
00000000
,
00000000
00000000
00000000
00000000
,
00000000
00000000
00000000
00000000
,
00000000
00000000
10000000
01000000
00010000
00000000
01000000
00010000
00000000
01000000
00010000
00000000
01000000
00010000
00000000
00010000
,
00001000
00000000
00010000
00001000
00000000
00010000
00001000
00000000
00010000
00001000
00000000
00001000
00000100
00000000
00001000
00000100
,
00000000
00001000
00000100
00000000
00001000
00000100
00000000
00001000
00000100
00000000
00000100
00000010
00000000
00000100
00000010
00000000
,
00000100
00000001
00001000
00000001
00000200
00000000
00000310
00000100
,
00000200
00000000
00000000
00000001
00000000
00000000
00000010
00000000
00000010
00000000
00000000
00000000
00000300
00000000
00000010
00000000
,
00002000
00000000
00000000
00000001
00000000
00000000
00000100
00000000
00000100
00000000
00000000
00000000
00003000
00000000
00000100
00000000
,
00020000
00000000
00000000
00000010
00000000
00000000
00001000
00000000
00001000
00000000
00000000
00000000
00030000
00000000
00001000
00000000
,
02000000
00000000
00000000
00010000
00000000
00000000
00100000
00000000
00100000
00000000
00000000
00000000
03000000
00000000
00000000
00000000
,
20100000
00000000
00000000
00010000
00000000
00000000
01000000
00000000
01000000
00000000
00000000
00000000
30000000
00000000
00100000
00000000
,
00020000
00000000
00000000
01000000
00000000
00000000
10000000
00000000
10000000
00000000
00000000
00000000
00030000
00000000
10000000
00000000
,
00100000
00000000
00000000
00010000
00000000
00000000
00001000
00000000
00001000
00000000
00000000
00000000
00000100
00000000
00000010
00000000
,
00001000
00000000
00000001
00001000
00000000
00002002
00000000
00003003
,
00000000
00000100
00000001
00000100
00000001
00000100
00000010
00000100
,
00000010
00000100
00001000
00000100
00002000
00013000
00002000
00013000
,
00000000
01000000
10000000
01000000
10000000
01000000
00100000
01000000
,
00100000
01000000
00010000
01000000
00020000
00031000
00020000
00031000
,
00000000
00010000
01000000
00010000
01000000
10000000
01000000
10000000
,
01000000
00100000
00001000
00100000
00002000
00013000
00002000
00013000
,
00000000
00001000
00000100
00001000
00000100
00000001
00000100
00000001
,
00000100
00000010
00001000
00000200
00000000
00000000
00010300
00000000
,
00010000
00000000
00001000
00000000
00010000
01000000
00010000
01000000
,
00100000
00010000
10000000
00100000
01000000
00010000
10000000
01000000
,
00100000
00010000
00001000
00000100
,
00000010
00000000
00001000
00000000
00000001
00000000
00000100
00000000
00000000
00000000
00001000
00010000
00001000
00000000
00020000
00000000
,
00000000
00000000
00031000
00000000
00001000
00100000
00010000
20000000
,
00000000
00000000
00000000
00000000
00000000
00000000
00000000
00000000
01000000
00000000
00000000
00100000
00000000
00000000
30010000
00000000
,
10020000
00000000
00000000
00030000
,
10010000
01001000
00010010
00001001
,
00000001
00000000
00000000
00000100
00000000
00000000
00000001
00000000
00001000
00000000
00000001
00000000
00001000
00000000
00000100
00010000
,
00000000
00000000
00001000
00010000
00100000
00000000
01000000
00000000
00010000
00000000
10000000
00000000
01000000
00000000
00000000
00000000
,
00100000
00000000
00000000
00010000
00000000
00000000
10000000
00000000
01000000
00000000
00010000
00000000
00001000
00000000
00010000
00000010
,
00000000
00000000
00010000
00001000
00000100
00000000
00000010
00000000
00001000
00000000
00000001
00000000
00001000
00000000
00000000
00000000
,
00001010
00000101
00001100
00000011
,
00000001
00000010
00001000
00010000
01000000
10000000
00100000
01000000
,
00020000
00000000
00000000
00030000
,
00110000
11000000
01010000
10100000
,
02000000
00000000
00010000
00010000
03000000
00100000
01000000
00100000
,
00010000
00001000
00000100
00000020
00000000
00000000
00000000
00001030
,
00000001
00000010
00000100
00000001
00000000
00001000
00010000
01000000
,
00000000
00100000
02200000
00000000
00000000
00000000
03300000
00000000
,
00000000
10000000
00100000
00010000
00001000
00010000
01000000
00100000
,
00010000
00001000
00000100
00000010
00000000
00001000
00000001
00001000
,
00000001
00000100
00001000
00010000
00001000
00000000
00010000
00000100
,
00000000
00000010
00000022
00000000
00000000
00000000
00000033
00000000
,
00002002
00000000
00000000
00000000
,
00003003
00000000
00000000
00000000
;

//---------------dance-double - ----------------
#NOTEDATA:;
#CHARTNAME:;
#STEPSTYPE:dance-double;
#DESCRIPTION:;
#CHARTSTYLE:;
#DIFFICULTY:Medium;
#METER:9;
#RADARVALUES:0.320,0.312,0.078,0.205,0.034,200.000,8.000,21.000,0.000,0.000,0.000,0.000,0.000,0.320,0.312,0.078,0.205,0.034,200.000,8.000,21.000,0.000,0.000,0.000,0.000,0.000;
#CREDIT:;
#DISPLAYBPM:123.000;
#NOTES:
00000000
00000000
00000000
00000000
,
00000000
00000000
00000000
00000000
,
00000000
00000000
00000000
00000000
,
00000000
00000000
00000000
00000000
,
00100000
00010000
00001000
00000000
00000000
00000000
00000000
00000000
,
00000010
00001000
00010000
00000000
00000000
00000000
00000000
00000000
,
01000000
00010000
00001000
00000000
00000000
00000000
00000000
00000000
,
00000100
00001000
00010000
00000000
00000000
00000000
00001000
00010000
,
01000000
00000000
00000000
01000000
00000000
00000000
00100000
00000000
00100000
00000000
00000000
00000000
00000000
00000000
00001000
00000000
,
00000100
00000000
00000000
00000100
00000000
00000000
00000010
00000000
00000010
00000000
00000000
00000000
00000000
00000000
00001000
00000000
,
00100000
00000000
00000000
00100000
00000000
00000000
00010000
00000000
00010000
00000000
00000000
00000000
00000000
00000000
00010000
00000000
,
00000010
00000000
00000000
00000010
00000000
00000000
00001000
00000000
00001000
00000000
00000000
00000000
00000000
00000000
00000000
00000000
,
00000100
00000000
00000000
00010000
00000000
00000000
00001000
00000000
00001000
00000000
00000000
00000000
00000000
00000000
01000000
00000000
,
01000000
00000000
00000000
00001000
00000000
00000000
00010000
00000000
00010000
00000000
00000000
00000000
00000000
00000000
00100000
00000000
,
01000000
00000000
00000000
00001000
00000000
00000000
00010000
00000000
00010000
00000000
00000000
00000000
00000010
00000000
00000100
00000000
,
00001000
00000000
00010000
00001000
00000000
00022000
00000000
00033000
,
00000000
01000000
00000000
01000000
00000000
01000000
00000000
01000000
,
00000000
00100000
00000000
00010000
20000000
30010000
02000000
03001000
,
00000000
00000100
00000000
00000100
00000000
00000100
00000000
00000100
,
00000000
00000010
00000000
00000001
00002000
00003100
00020000
00031000
,
00000000
00100000
00000000
00100000
00000000
00100000
00000000
00100000
,
00000000
01000000
00000000
00010000
00000200
00001300
00000020
00000130
,
00000000
00000010
00000000
00000010
00000000
00000010
00000000
00000010
,
00010000
00000100
00001000
00020000
00000000
00000000
00030000
00000000
,
00100000
00000000
00010000
00000000
10000000
00100000
00010000
00000000
,
00100000
01000000
00010000
00000000
00010000
01000000
00100000
00000000
,
00010000
00000000
00001000
00000000
00000100
00000010
00001000
00000000
,
00000010
00000000
00000110
00000000
00000000
00000001
00001000
00000001
,
00000200
00000000
00000000
00000300
,
00022000
00000000
00000000
00033000
,
02000000
00000000
00000000
03000000
,
01100000
10010000
01100000
10010000
,
10000000
01000000
00010000
00000000
01000000
00010000
00001000
00000000
,
00010000
00001000
00000100
00000000
00001000
00000100
00000001
00000000
,
00000001
00000010
00001000
00000000
00000010
00001000
00010000
00000000
,
00001000
00010000
00100000
00000000
00010000
00100000
10000000
00000000
,
10000000
00100000
00010000
00001000
,
00010000
00001000
00010000
00000000
00001000
00010000
00001000
00000000
,
00000200
00000000
00000000
00000300
,
00000001
00000100
00000010
00001000
00000100
00000001
00000100
00001000
,
00020000
00001000
00001000
00031000
,
00100000
01000000
10000000
00020000
00000000
00000000
00000000
10030000
,
00100000
00010000
00001000
00010000
00000000
00001000
00000100
00000001
,
00000000
00001000
00000002
00000000
00000000
00000000
00000003
00000000
,
00000100
00000100
00000100
00000100
,
00000001
00000010
00001000
00010000
00000000
00001000
00010000
00000000
,
01000000
00100000
01000000
00100000
01000000
00000000
10000000
00010000
,
00000000
00020000
02000000
00000000
00000000
00000000
03030000
00000000
,
20020000
00000000
00000000
00000000
,
30030000
00000000
00000000
00000000
;

//---------------dance-double - ----------------
#NOTEDATA:;
#CHARTNAME:;
#STEPSTYPE:dance-double;
#DESCRIPTION:;
#CHARTSTYLE:;
#DIFFICULTY:Easy;
#METER:5;
#RADARVALUES:0.184,0.240,0.137,0.137,0.000,104.000,14.000,14.000,0.000,0.000,0.000,0.000,0.000,0.184,0.240,0.137,0.137,0.000,104.000,14.000,14.000,0.000,0.000,0.000,0.000,0.000;
#CREDIT:;
#DISPLAYBPM:123.000;
#NOTES:
00000000
00000000
00000000
00000000
,
00000000
00000000
00000000
00000000
,
00000000
00000000
00000000
00000000
,
00000000
00000000
00000000
00000000
,
00200000
00000000
00000000
00300000
,
00020000
00000000
00000000
00030000
,
00002000
00000000
00000000
00003000
,
00000020
00000000
00000000
00000030
,
00000100
00000001
00000001
00000000
,
00000100
00001000
00001000
00000000
,
00010000
00100000
00100000
00000000
,
10000000
01000000
01000000
00000000
,
00100000
00010000
10010000
00000000
,
01000000
00100000
01100000
00000000
,
00010000
00001000
00011000
00001000
,
00000100
00000000
00000010
00000100
00000000
00000110
00000000
00000000
,
00000000
00000000
00000000
00000000
,
00000000
00000000
00000000
00000000
00000010
00000100
00000010
00000100
,
00000000
00000000
00000000
00000000
,
00000000
00000000
00000000
00000000
00001000
00010000
00001000
00010000
,
00000000
00000000
00000000
00000000
,
00000000
00000000
00000000
00000000
01000000
00100000
01000000
00100000
,
00000000
00000000
00000000
00000000
,
00000000
00000000
00000000
10010000
,
01000000
00100000
00000000
00100000
,
00000000
00010000
00000000
00010000
,
00000000
00001000
00000000
00001000
,
00000000
00000100
00000000
00000100
,
00000020
00000000
00000000
00000030
,
00002002
00000000
00000000
00003003
,
00000200
00000000
00000000
00000300
,
00011000
00011000
00011000
00011000
,
00010000
01000000
00000000
01000000
,
00100000
00010000
00000000
00010000
,
01000000
10000000
00000000
10000000
,
00010000
00100000
00000000
00100000
,
00010000
00001000
00000000
00001000
,
00000100
00000010
00000000
00000010
,
00000200
00000000
00000000
00000300
,
00000010
00001001
00000100
00001001
,
00002000
00000100
00000000
00000100
,
00000000
00000001
00000000
00003001
,
00001000
00000100
00010000
00001000
,
00020000
00000000
00000000
00030000
,
00200000
01000000
00000000
01000000
,
00000000
00010000
00000000
00310000
,
00100000
10000000
01000000
00100000
,
00010000
00011000
00000000
00000000
,
00022000
00000000
00000000
00000000
,
00033000
00000000
00000000
00000000
;
