#VERSION:0.81;
#TITLE:FERMION;
#SUBTITLE:Psychedelic Trance;
#ARTIST:makou;
#TITLETRANSLIT:;
#SUBTITLETRANSLIT:;
#ARTISTTRANSLIT:;
#GENRE:;
#ORIGIN:;
#CREDIT:;
#BANNER:FERMION.png;
#BACKGROUND:FERMION-bg.png;
#PREVIEWVID:;
#JACKET:;
#CDIMAGE:;
#DISCIMAGE:;
#LYRICSPATH:;
#CDTITLE:;
#MUSIC:FERMION.mp3;
#OFFSET:0.112;
#SAMPLESTART:15.605;
#SAMPLELENGTH:12.000;
#SELECTABLE:YES;
#DISPLAYBPM:156.000;
#BPMS:0.000=156.000;
#STOPS:;
#DELAYS:;
#WARPS:;
#TIMESIGNATURES:0.000=4=4;
#TICKCOUNTS:0.000=4;
#COMBOS:0.000=1;
#SPEEDS:0.000=1.000=0.000=0;
#SCROLLS:0.000=1.000;
#FAKES:;
#LABELS:0.000=Song Start;
#BGCHANGES:;
#KEYSOUNDS:;
#ATTACKS:
;

//---------------dance-single - ----------------
#NOTEDATA:;
#CHARTNAME:;
#STEPSTYPE:dance-single;
#DESCRIPTION:;
#CHARTSTYLE:;
#DIFFICULTY:Hard;
#METER:16;
#RADARVALUES:0.752,0.920,0.420,0.112,0.583,507.000,45.000,12.000,0.000,0.000,0.000,0.000,0.000,0.752,0.920,0.420,0.112,0.583,507.000,45.000,12.000,0.000,0.000,0.000,0.000,0.000;
#CREDIT:;
#OFFSET:1.312;
#BPMS:0.000=78.000
,2.000=156.000
,6.000=312.000
,12.000=624.000
,16.000=156.000
,77.000=312.000
,78.000=156.000
,109.000=624.000
,113.000=156.000
;
#STOPS:72.000=0.385
,72.500=0.385
,77.000=0.192
,159.000=0.385
;
#DELAYS:;
#WARPS:;
#TIMESIGNATURES:0.000=4=4
;
#TICKCOUNTS:0.000=4
;
#COMBOS:0.000=1
;
#SPEEDS:0.000=1.000=0.000=0
;
#SCROLLS:0.000=1.000
;
#FAKES:;
#LABELS:0.000=Song Start
;
#DISPLAYBPM:156.000;
#NOTES:
0000
0000
2002
0000
,
0000
0000
0000
0000
,
0000
0000
0000
0000
,
3003
0000
0000
0000
,
1000
0100
1000
0001
0100
0001
0010
0001
,
0100
0010
1000
0010
0001
1000
0100
0001
,
0010
1000
0010
0100
0001
0100
1000
0001
,
1000
0010
0001
0010
0100
0001
1001
0000
,
1000
0100
1000
0000
0001
0000
1000
0000
0100
0000
0010
0000
0001
0000
0100
0000
,
0001
0100
0001
0000
1000
0000
0010
0000
0100
0000
0001
0000
1000
0000
0100
0000
,
0010
0001
0010
0000
0100
0000
1000
0000
0010
0000
1000
0000
0001
0000
0100
0000
,
0010
1000
0010
0000
0100
0000
0010
0000
1000
0000
0001
0000
1000
0001
1000
0001
,
1000
0000
1100
0000
0100
0010
0001
0000
,
0001
0000
0100
0000
0001
0100
0000
0100
0010
1000
0002
0000
0000
0000
0003
0000
,
0001
0000
0011
0000
0010
0100
1000
0000
,
1000
0000
0010
0000
0100
0010
0000
0010
1000
0001
0200
0000
0000
0000
0300
0000
,
0010
0010
1010
0000
1000
0010
0001
0000
,
0010
0000
0100
0000
0001
1000
0000
1000
0001
0100
0020
0000
0000
0000
0030
0000
,
0220
0330
0000
0000
2020
3030
0000
0000
0101
0000
0000
0000
0101
0000
0000
0000
1000
0000
0000
0000
0100
0000
0000
0000
0010
0000
0100
0000
0000
0000
0010
0000
,
0100
0010
0001
1000
1001
0000
0000
0000
0001
0000
0100
0001
0010
0000
0010
0100
,
0000
0100
0010
0001
1000
0001
1000
0000
0100
0000
1000
0010
0100
0000
0010
1000
,
0000
0100
0010
0000
0000
0000
0000
0000
0010
0000
0001
1000
0100
0000
1000
0010
,
0000
0010
0100
0010
1000
0001
1000
0000
0001
0000
0010
0001
0100
0000
0001
1000
,
0000
0000
0000
0000
0000
0000
0000
0000
0100
0000
0010
0100
1000
0000
1000
0001
,
0000
0001
0100
0000
0010
0100
0001
0100
0010
1000
0001
0000
1000
0001
0000
0001
,
1000
0000
0000
0000
0110
0000
0000
0000
0010
0000
1000
0010
0100
0000
0100
0010
,
0000
0010
1000
0001
1000
0000
0010
0000
0100
0000
0010
0100
0010
0000
1000
0000
,
0001
1000
0001
0000
0001
0000
0000
0000
1000
0000
0000
0000
0001
0000
0000
0000
,
1000
0000
0000
0000
1000
0000
0100
0000
0010
0000
0000
0100
0000
1000
0000
0000
,
0001
0000
0100
0001
0010
0000
0100
0000
1000
0000
0000
0001
0000
1000
0000
0000
,
0110
0000
0000
0000
0001
0000
0100
0000
0010
0000
0000
0100
0000
0001
0000
0000
,
1000
0000
0100
1000
0010
0000
0100
0000
0001
0000
0000
1000
0000
0001
0000
1000
,
0100
0010
0001
0100
0010
0000
1000
0000
0001
0000
0000
1000
0000
0010
0000
0010
,
1000
0000
0001
0000
0010
0000
0001
0000
1000
0000
0000
0100
0000
0010
0000
0000
,
1001
0000
0000
0000
1000
0000
0100
0000
0010
0000
0000
0100
0000
1000
0000
0001
,
0100
0010
0100
0001
1000
0001
1000
0001
,
0110
0000
0010
1000
0100
1000
0010
1000
,
0001
0100
0001
0010
0001
0100
0001
0010
,
0100
1000
0100
1000
0010
0001
0010
1000
,
0100
0010
0001
0100
1000
0010
1000
0000
,
1000
0010
0001
0000
0001
0010
0100
0000
,
1000
0010
0001
1000
0001
0100
1000
0000
,
0001
0100
0010
0100
0001
1000
0001
0100
,
0020
0000
0000
0000
0000
0000
0000
0000
0130
0010
0100
0010
0100
0010
0100
0010
,
0100
1010
0100
0011
,
0001
1001
1000
1001
,
0010
0100
1010
0101
,
1000
0100
0001
0000
0001
0100
1000
0000
,
2000
0000
0000
0002
0000
0000
3003
0000
,
1000
0010
0001
0000
0001
0010
1000
0000
,
0001
0100
1010
0011
,
0010
0100
1000
0100
0010
0100
1000
0000
,
0001
0000
0100
0000
1010
0000
0000
1010
0000
0000
0000
0000
1001
0000
1001
0000
,
1000
0000
0100
0000
0011
0000
0000
0011
0000
0000
0000
0000
1001
0000
1000
0100
,
0001
0000
0001
0000
0011
0000
0000
1100
0000
0000
0000
0000
1001
0000
0001
0100
,
1000
0000
1000
0000
1010
0000
0000
0101
0000
0000
0000
0001
0100
0010
1000
0100
,
1000
0000
0100
0000
0011
0000
0000
1001
0000
0000
0000
0000
1001
0000
0001
0100
,
0010
0000
1000
0000
0101
0000
0000
1001
0000
0000
0000
0000
1001
0000
0100
0000
,
1000
0000
0010
0000
0110
0000
0000
0110
0000
0000
0000
0000
0010
0000
1000
0000
,
0001
0100
0010
0000
1000
0000
0100
0000
0010
0100
1000
0000
0001
0000
1000
0000
,
0001
0100
0010
0000
1000
0000
0001
1000
0000
1000
0001
0000
1000
0100
0010
0001
,
1000
0100
0010
0000
0001
0000
0001
1000
0000
1010
0000
0000
0000
0000
0000
0000
,
1000
0100
0010
0000
0001
0000
1000
0001
0000
0001
1000
0000
0001
0100
0010
1000
,
0001
0100
0010
0000
1000
0000
1000
0001
0000
0011
0000
0001
0010
0100
1000
0100
,
0010
0001
1000
0000
0100
0000
1000
0010
0000
0010
1000
0000
0001
0000
1000
0000
,
0010
0100
0001
0000
1000
0000
0010
0100
0000
0100
0000
1001
0000
0000
0000
0000
,
1000
0100
0010
0000
0001
0000
0100
0001
0000
0001
0100
0000
0010
0000
0010
0000
,
0100
0001
0100
0001
0100
0001
0100
0001
1000
0010
1000
0010
1000
0010
1000
0010
;

//---------------dance-single - ----------------
#NOTEDATA:;
#CHARTNAME:;
#STEPSTYPE:dance-single;
#DESCRIPTION:;
#CHARTSTYLE:;
#DIFFICULTY:Medium;
#METER:10;
#RADARVALUES:0.491,0.571,0.392,0.140,0.033,311.000,42.000,15.000,0.000,0.000,0.000,0.000,0.000,0.491,0.571,0.392,0.140,0.033,311.000,42.000,15.000,0.000,0.000,0.000,0.000,0.000;
#CREDIT:;
#OFFSET:1.312;
#BPMS:0.000=78.000
,2.000=156.000
,6.000=312.000
,12.000=624.000
,16.000=156.000
,77.000=312.000
,78.000=156.000
,109.000=624.000
,113.000=156.000
;
#STOPS:72.000=0.385
,72.500=0.385
,77.000=0.192
,159.000=0.385
;
#DELAYS:;
#WARPS:;
#TIMESIGNATURES:0.000=4=4
;
#TICKCOUNTS:0.000=4
;
#COMBOS:0.000=1
;
#SPEEDS:0.000=1.000=0.000=0
;
#SCROLLS:0.000=1.000
;
#FAKES:;
#LABELS:0.000=Song Start
;
#DISPLAYBPM:156.000;
#NOTES:
0000
0000
2002
0000
,
0000
0000
0000
0000
,
0000
0000
0000
0000
,
3003
0000
0000
0000
,
1000
0001
0100
0000
0010
0000
0010
0000
,
1000
0001
0010
0000
0100
0000
0100
0000
,
1000
0100
0010
0000
0001
0000
1000
0000
,
0001
0100
0010
0000
1000
0000
0001
0000
,
1000
0010
0100
0000
0010
0000
1010
0000
,
0001
0100
0010
0000
0100
0000
0011
0000
,
1000
0100
0001
0000
1000
0000
1100
0000
,
0001
0100
1000
0000
0001
0000
0011
0000
,
0010
0000
1010
0000
1000
1000
1000
0000
,
0001
0100
1000
0100
0001
1000
0001
0000
,
1000
0000
1100
0000
0100
0010
0001
0000
,
1000
0100
0001
0100
1000
0100
0010
0000
,
0001
0000
1100
0000
1000
0001
0001
0000
,
0100
0010
1000
0001
0100
0010
1000
0000
,
1001
1001
1001
1001
0001
0100
1000
0100
,
0010
1000
0001
0000
1000
0100
0010
0000
,
0100
0000
1100
0000
0100
0010
0001
0000
,
0010
0000
0011
0000
0010
0001
0100
0000
,
0001
0000
0101
0000
0100
0010
1000
0000
,
0010
0000
1001
0000
0001
0100
0010
0000
,
1000
0000
1010
0000
1000
0100
0010
0000
,
0100
0000
0011
0000
0001
1000
0100
0000
,
1000
0000
1001
0000
0001
0100
0010
0000
,
0100
0020
0000
0000
,
0030
0000
0100
0100
0100
0000
0001
0100
,
1000
0000
0010
0010
0010
0000
1000
0010
,
0001
0000
1000
1000
1000
0000
0100
1000
,
0010
0000
0001
0001
0001
0000
0010
0001
,
0100
0000
1000
0001
0001
0000
0100
0001
,
0010
0000
0001
1000
1000
0000
0010
1000
,
0100
0000
1000
0100
0100
0000
0001
0010
,
0010
0000
1000
0010
0001
0010
1000
0001
,
1001
1000
1100
0010
,
0011
0001
1001
1000
,
1010
0100
0101
0001
,
1001
1000
1100
0110
,
0020
0031
0200
0301
,
0020
1030
0200
1300
,
0002
0013
2000
3100
,
2000
3010
0002
0103
,
1001
0100
0000
0100
,
0000
0100
0000
0100
,
1010
0101
0011
1100
,
1000
0100
0001
0000
0001
0100
1000
0000
,
2000
0000
0000
0002
0000
0000
3003
0000
,
1001
0010
0000
0010
,
0011
1100
1010
0101
,
0001
0100
1000
0100
0001
1000
1001
0000
,
1000
0000
0000
0000
0100
0000
0000
0100
0000
0000
0000
0000
0000
0000
0000
0000
,
0001
0000
0000
0000
0010
0000
0000
0010
0000
0000
0000
0000
0000
0000
0000
0000
,
0001
0000
0000
0000
1000
0000
0000
1000
0000
0000
0000
0000
0000
0000
0000
0000
,
1000
0000
0000
0000
0001
0000
0000
0001
0000
0000
0000
0000
0000
0000
0000
0000
,
0100
0000
0000
0000
0010
0000
0000
1000
0000
0000
0000
0000
0000
0000
0000
0000
,
0100
0000
0000
0000
0010
0000
0000
0001
0000
0000
0000
0000
0000
0000
0000
0000
,
1000
0000
0000
0000
0001
0000
0000
0100
0000
0000
0000
0000
0000
0000
0000
0000
,
0010
0010
0010
0010
,
0100
0001
0010
0001
1000
0001
1000
0000
,
0100
1000
0010
1000
0001
1000
0001
0000
,
0100
0001
0100
0010
1000
0001
1000
0000
,
0100
1000
0100
0010
0001
1000
0001
0000
,
1000
0100
0010
0001
0100
0001
1000
0000
,
0001
0100
0010
1000
0100
1000
0001
0000
,
1000
1010
0010
0011
,
2002
0000
0000
0000
0000
0000
0000
0000
0000
0000
0000
0000
0000
0000
0000
3003
;

//---------------dance-single - ----------------
#NOTEDATA:;
#CHARTNAME:;
#STEPSTYPE:dance-single;
#DESCRIPTION:;
#CHARTSTYLE:;
#DIFFICULTY:Easy;
#METER:7;
#RADARVALUES:0.367,0.349,0.299,0.084,0.000,234.000,32.000,9.000,0.000,0.000,0.000,0.000,0.000,0.367,0.349,0.299,0.084,0.000,234.000,32.000,9.000,0.000,0.000,0.000,0.000,0.000;
#CREDIT:;
#OFFSET:1.312;
#BPMS:0.000=78.000
,2.000=156.000
,6.000=312.000
,12.000=624.000
,16.000=156.000
,77.000=312.000
,78.000=156.000
,109.000=624.000
,113.000=156.000
;
#STOPS:72.000=0.385
,72.500=0.385
,77.000=0.192
,159.000=0.385
;
#DELAYS:;
#WARPS:;
#TIMESIGNATURES:0.000=4=4
;
#TICKCOUNTS:0.000=4
;
#COMBOS:0.000=1
;
#SPEEDS:0.000=1.000=0.000=0
;
#SCROLLS:0.000=1.000
;
#FAKES:;
#LABELS:0.000=Song Start
;
#DISPLAYBPM:156.000;
#NOTES:
0000
0000
1001
0000
,
0000
0000
0000
0000
,
0000
0000
0000
0000
,
0000
0000
0000
0000
,
0100
0001
0010
0110
,
0100
1000
0010
0110
,
1000
0001
0100
1001
,
0001
1000
0100
1001
,
0010
0010
0001
0101
,
0010
0010
1000
1100
,
1000
0100
0010
0001
,
0001
0100
0010
1001
,
1000
1000
1000
0000
0001
0001
0001
0000
,
0100
0010
0100
0010
,
1000
1000
1000
0000
0001
0001
0001
0000
,
0010
0100
0010
0100
,
1000
1000
1000
0000
0001
0001
0001
0000
,
1000
0100
0010
0001
,
1001
0000
0000
0000
1000
0001
1000
0001
,
1000
1001
0100
0010
,
0001
1000
0001
0100
,
0010
1000
0001
1000
,
0100
1000
0010
0100
,
0110
0000
0100
0001
,
1000
0010
0100
0001
,
1000
0100
0010
0001
,
1000
0010
0100
0010
,
0100
0020
0000
0000
,
0030
0100
0101
1000
,
1001
1000
0001
1000
,
0001
0100
1100
0001
,
1001
0010
0100
0010
,
0100
0010
1010
1000
,
1001
0010
1000
0100
,
0001
0010
0011
0001
,
1001
0010
0001
0100
,
1000
0020
0100
0100
,
0100
1000
1000
1000
,
0130
0000
1000
1000
,
1000
0010
0010
0011
,
2000
0100
0100
0100
,
0001
0001
0010
3010
,
0100
0010
0100
0010
,
2002
0000
0000
3003
,
0010
0010
0000
0010
,
0000
0010
0000
0010
,
0000
0100
0000
0100
,
0000
0100
0000
0100
,
2000
0000
0000
0002
0000
0000
3003
0000
,
0000
1000
0000
1000
,
0000
0001
0000
0001
,
0100
0100
1001
0000
,
0100
0001
0100
0010
,
0000
1001
0000
1001
,
0100
0010
0001
1000
,
0000
1010
0000
1010
,
0100
1000
0010
0100
,
0000
0011
0000
0011
,
0010
0001
1000
0100
,
0000
0110
0000
0110
,
0100
1000
0001
1000
,
0010
0000
0100
0000
0010
0010
0010
0000
,
1000
0001
1000
0100
,
0010
0000
0001
0000
1000
1000
1000
0000
,
0010
1000
0100
1000
,
0010
0000
0001
0000
0100
0100
0100
0000
,
0010
1000
0001
0110
,
2002
0000
0000
0000
0000
0000
0000
3003
;

//---------------dance-single - ----------------
#NOTEDATA:;
#CHARTNAME:;
#STEPSTYPE:dance-single;
#DESCRIPTION:;
#CHARTSTYLE:;
#DIFFICULTY:Beginner;
#METER:4;
#RADARVALUES:0.201,0.222,0.103,0.047,0.000,135.000,11.000,5.000,0.000,0.000,0.000,0.000,0.000,0.201,0.222,0.103,0.047,0.000,135.000,11.000,5.000,0.000,0.000,0.000,0.000,0.000;
#CREDIT:;
#OFFSET:1.312;
#BPMS:0.000=78.000
,2.000=156.000
,6.000=312.000
,12.000=624.000
,16.000=156.000
,77.000=312.000
,78.000=156.000
,109.000=624.000
,113.000=156.000
;
#STOPS:72.000=0.385
,72.500=0.385
,77.000=0.192
,159.000=0.385
;
#DELAYS:;
#WARPS:;
#TIMESIGNATURES:0.000=4=4
;
#TICKCOUNTS:0.000=4
;
#COMBOS:0.000=1
;
#SPEEDS:0.000=1.000=0.000=0
;
#SCROLLS:0.000=1.000
;
#FAKES:;
#LABELS:0.000=Song Start
;
#DISPLAYBPM:156.000;
#NOTES:
0000
0000
0000
0000
,
0000
0000
0000
0000
,
0000
0000
0000
0000
,
0000
0000
0000
0000
,
0000
0100
0000
0100
,
0000
0100
0000
0100
,
0000
1000
0000
1000
,
0000
1000
0000
1000
,
0000
0001
0000
0001
,
0000
0001
0000
0001
,
0020
0000
0000
0000
,
0000
0000
0000
0030
,
0100
0000
1000
0000
,
0100
0000
0100
0000
,
0001
0000
0010
0000
,
0001
0000
0001
0000
,
1000
0000
0001
0000
,
0100
0000
0100
0000
,
1001
0000
1000
1000
,
1000
1000
0001
0000
,
0100
0000
0010
0000
,
0100
0000
0001
0000
,
1000
0000
0100
0000
,
0010
0000
1000
0000
,
0010
0000
0001
0000
,
1000
0000
0001
0000
,
0100
0000
1000
0000
,
1001
0000
0000
0000
,
0000
1000
1000
1000
,
0000
0001
0001
0001
,
0000
0100
0100
0100
,
0000
0010
0010
0010
,
0000
1000
0001
1000
,
0000
0001
1000
0001
,
0000
0100
0010
0100
,
0000
0010
0100
0010
,
0000
1000
1000
0001
,
0000
0001
0001
1000
,
0000
0100
0100
0010
,
0000
0010
0010
0110
,
1000
0000
1000
0000
,
0001
0000
0001
0000
,
0100
0000
0100
0000
,
0020
0000
0000
0030
,
0010
0000
0000
0000
,
0010
0000
0000
0000
,
0100
0000
0000
0000
,
0100
0000
0000
0000
,
2000
0000
0000
0000
,
3000
0000
0000
0000
,
0100
0000
0000
0000
,
0100
0000
0000
0000
,
0010
0010
0010
0000
,
0001
0000
1001
0000
,
0100
0100
0100
0000
,
1000
0000
1001
0000
,
1000
1000
1000
0000
,
0010
0000
0110
0000
,
0001
0001
0001
0000
,
0100
0000
0110
0000
,
1000
0001
1000
0000
,
0001
0000
1001
0000
,
0001
1000
0001
0000
,
1000
0000
1001
0000
,
0010
0100
0010
0000
,
0010
0000
1010
0000
,
0100
0100
0100
0000
,
2002
0000
0000
0000
0000
0000
0000
3003
;

//---------------dance-single - ----------------
#NOTEDATA:;
#CHARTNAME:;
#STEPSTYPE:dance-single;
#DESCRIPTION:;
#CHARTSTYLE:;
#DIFFICULTY:Challenge;
#METER:18;
#RADARVALUES:0.891,1.000,0.476,0.289,0.747,586.000,51.000,31.000,0.000,0.000,0.000,0.000,0.000,0.891,1.000,0.476,0.289,0.747,586.000,51.000,31.000,0.000,0.000,0.000,0.000,0.000;
#CREDIT:;
#OFFSET:1.312;
#BPMS:0.000=78.000
,2.000=156.000
,6.000=312.000
,12.000=624.000
,16.000=156.000
,77.000=312.000
,78.000=156.000
,109.000=624.000
,113.000=156.000
;
#STOPS:72.000=0.385
,72.500=0.385
,77.000=0.192
,159.000=0.385
;
#DELAYS:;
#WARPS:;
#TIMESIGNATURES:0.000=4=4
;
#TICKCOUNTS:0.000=4
;
#COMBOS:0.000=1
;
#SPEEDS:0.000=1.000=0.000=0
;
#SCROLLS:0.000=1.000
;
#FAKES:;
#LABELS:0.000=Song Start
;
#DISPLAYBPM:156.000;
#NOTES:
0000
0000
2002
0000
,
0000
3003
1000
0001
,
1000
0001
1000
0001
,
1000
0001
1000
0001
,
1000
0001
1000
0000
0001
0000
1000
0000
0100
0000
1000
0000
0001
0000
1000
0000
,
0001
1000
0001
0000
1000
0000
0001
0000
0010
0000
0001
0000
1000
0000
0001
0000
,
0100
0001
0100
0000
0010
0000
1000
0000
0010
0000
0100
0000
0010
0000
1000
0000
,
0100
1000
0100
0000
0010
0000
0001
0000
0010
0000
0100
0000
0010
0000
0001
0000
,
1000
0100
0010
0000
0001
0000
1000
0000
0001
0000
0100
0000
0010
0000
1000
0000
,
0001
0100
0010
0000
1000
0000
0001
0000
1000
0000
0100
0000
0010
0000
0001
0000
,
1000
0001
0100
0000
0010
0000
1000
0000
0001
1000
0010
0000
0100
0000
0001
0000
,
0010
0001
0100
0000
0010
1000
0100
0000
0010
0001
0100
0010
0100
0001
1000
0100
,
0010
0000
0010
0000
0011
0000
0001
0100
1000
0000
1000
0000
1100
0100
0010
0000
,
1000
0000
0100
0000
1000
0100
0000
0100
0010
0001
2000
0000
0100
0100
3100
0000
,
0010
0000
0100
0000
1100
0000
1000
0010
0001
0000
0010
0000
0110
0100
0001
0000
,
1000
0000
0010
0000
0100
0010
0000
0010
1000
0001
0200
0000
0010
0010
0310
0000
,
1000
0000
1000
0000
1001
0000
1000
0010
0001
0000
0010
0000
0101
1000
0100
0000
,
0010
0000
0100
0000
1000
0001
0000
0001
1000
0100
0020
0000
0100
0100
0130
0000
,
0220
0330
0000
0000
2002
3003
0000
0000
1010
0000
0000
0000
0101
0000
0000
0000
0001
0000
0100
0000
0010
0000
0000
0000
0100
0000
0000
0000
0001
0000
0100
0000
,
1000
0100
0001
1000
0220
0000
0330
0000
0001
0000
0100
0001
0010
0000
0010
0100
,
0000
0100
0010
0001
1000
0001
1000
0000
0100
0000
1000
0010
0100
0000
0010
1000
,
0000
0100
0010
0000
0000
0000
0000
0000
0010
0000
0001
1000
0100
0000
1000
0010
,
0000
0010
0100
0010
1000
0001
1000
0000
0001
0000
0010
0001
0100
0000
0001
1000
,
0000
0000
0000
0000
0000
0000
0000
0000
0100
0000
0010
0100
1000
0000
1000
0001
,
0000
0001
0100
0000
0010
0100
0001
0100
0010
1000
0001
0000
1000
0001
0000
0001
,
1000
0000
0000
0000
0110
0000
0000
0000
0010
0000
1000
0010
0100
0000
0100
0010
,
0000
0010
1000
0001
1000
0000
0010
0000
0100
0000
0010
0100
0010
0000
1000
0000
,
0001
1000
0001
0000
1000
0000
0000
0000
0100
0000
0000
0000
0010
0000
0000
0000
,
0001
0000
0000
0000
0100
0000
0010
1000
0010
0000
1000
0001
0000
0101
0000
0000
,
1000
0000
0001
0010
1000
0000
0010
0001
0100
0000
0001
1000
0000
1010
0000
0000
,
1001
0000
0000
0000
1000
0000
0001
0100
0001
0000
1000
0010
0000
1010
0000
0000
,
0100
0000
0001
0010
0100
0000
0100
1000
0001
0000
1000
0010
0000
0101
0000
1000
,
0010
0001
0100
1000
0001
0000
0010
0100
0001
0000
1000
0010
0000
0110
0000
0010
,
0001
0000
1000
0000
0010
0000
0100
1000
0001
0000
0010
1000
0000
0101
0000
0000
,
1001
0000
0000
0000
1000
0100
0010
0000
0100
0000
1000
0001
0000
0001
1000
0000
,
0001
0100
0101
0000
0001
0100
1000
0000
0100
0000
0010
1000
0000
1000
0000
0001
,
0100
0010
1000
0100
1000
0000
0100
0000
0001
0000
0010
0000
0001
0000
1000
0000
,
0010
0001
0100
1000
0001
0010
0001
0100
,
1000
0001
1000
0100
0001
0010
1000
0001
,
0010
1000
0100
0010
0001
1000
1001
0000
,
2000
0100
0010
0001
3002
0100
0010
1000
,
2003
0010
0001
0100
3002
0010
1000
0100
,
0023
1000
0100
0001
0230
0001
0010
1000
,
1300
0001
1000
0000
0110
0000
0000
0000
0100
0010
0100
0010
0100
0010
0100
0010
,
0100
0000
1010
0000
0100
0001
0010
0000
,
0100
0000
0011
0000
0100
1000
0010
0000
,
1010
0000
0101
0000
0001
0110
1000
0110
,
0000
0100
0110
0010
0000
1000
1001
0000
,
2000
0000
0000
0002
0000
0000
3003
0000
,
0001
0100
0100
0000
1000
0010
0010
0000
,
0101
0000
1010
0000
1000
0100
0010
0001
,
1000
0000
0001
0000
1000
0000
0001
0000
0100
0001
0010
1000
0001
0100
1000
0000
,
1000
0000
0010
0000
0110
0000
0000
0220
0000
0000
0000
0000
0330
0000
0000
0000
,
0001
0000
0010
0000
0110
0000
0000
0220
0000
0000
0000
0000
0330
0000
0000
0000
,
1000
0001
1000
0000
0101
0000
0000
2020
0000
0000
0000
0000
3030
0000
0000
0000
,
0001
1000
0001
0000
1001
0000
0000
0000
0001
0100
1000
0100
0001
1000
0100
0010
,
0001
0000
1000
0000
1100
0000
0000
0022
0000
0000
0000
0000
0033
0000
0000
0000
,
0001
0000
0100
0000
1010
0000
0000
2020
0000
0000
0000
0000
3030
0000
1000
0000
,
0010
0100
0001
0000
1001
0000
0000
2002
0000
0000
0000
0000
3003
0000
1000
0000
,
0100
0010
0001
0010
0100
1000
0100
1000
0001
0100
0010
0100
0001
1000
0001
0000
,
0100
0001
0100
0000
0010
0000
1000
0001
0000
0001
1000
0000
0100
0100
0100
0000
,
0100
1000
0100
0000
0010
0000
0001
1000
0000
1000
0001
0000
0010
0010
0010
0000
,
0001
0100
0010
0000
1010
0000
1000
0001
0000
0001
0100
0000
0010
0010
0010
0000
,
1000
0100
0010
0000
0011
0000
0001
1000
0000
1000
0100
0001
0010
0010
0010
1000
,
0001
0000
0100
0000
1010
0000
1000
0001
0000
0001
1000
0000
0100
0100
0100
0000
,
1000
0001
0100
0000
0101
0000
0010
1000
0000
1000
0001
0000
0010
0010
0010
0000
,
0001
0100
1000
0100
0001
1000
0100
0010
,
0001
0010
0100
1000
0001
1000
0010
0100
0001
1000
0001
0100
1000
0010
0001
0100
;

//---------------dance-double - ----------------
#NOTEDATA:;
#CHARTNAME:;
#STEPSTYPE:dance-double;
#DESCRIPTION:;
#CHARTSTYLE:;
#DIFFICULTY:Hard;
#METER:16;
#RADARVALUES:0.755,0.856,0.411,0.140,0.537,507.000,44.000,15.000,0.000,0.000,0.000,0.000,0.000,0.755,0.856,0.411,0.140,0.537,507.000,44.000,15.000,0.000,0.000,0.000,0.000,0.000;
#CREDIT:;
#OFFSET:1.312;
#BPMS:0.000=78.000
,2.000=156.000
,6.000=312.000
,12.000=624.000
,16.000=156.000
,77.000=312.000
,78.000=156.000
,109.000=624.000
,113.000=156.000
;
#STOPS:72.000=0.385
,72.500=0.385
,77.000=0.192
,159.000=0.385
;
#DELAYS:;
#WARPS:;
#TIMESIGNATURES:0.000=4=4
;
#TICKCOUNTS:0.000=4
;
#COMBOS:0.000=1
;
#SPEEDS:0.000=1.000=0.000=0
;
#SCROLLS:0.000=1.000
;
#FAKES:;
#LABELS:0.000=Song Start
;
#DISPLAYBPM:156.000;
#NOTES:
00000000
00000000
02200000
00000000
,
00000000
00000000
00000000
00000000
,
00000000
00000000
00000000
00000000
,
03300000
00000000
00000000
00000000
,
00100000
00010000
00100000
01000000
10000000
01000000
10000000
00100000
,
10000000
00010000
01000000
00010000
00100000
00001000
00100000
00001000
,
00010000
00000100
00010000
00000100
00000010
00000100
00001000
00000001
,
00001000
00000001
00000100
00000001
00001000
00000010
00001001
00000000
,
00000001
00000100
00000001
00000000
00000100
00000000
00000010
00000000
00000100
00000000
00001000
00000000
00011000
00000000
00000000
00000000
,
00100000
01000000
00100000
00000000
01000000
00000000
10000000
00000000
01000000
00000000
00010000
00000000
00011000
00000000
00000000
00000000
,
00000100
00000010
00000100
00000000
00000001
00000000
00000100
00000000
00001000
00000000
00010000
00000000
00100000
00000000
01000000
00000000
,
00010000
00000000
10000000
00000000
00010000
00000000
00100000
00000000
01000000
00100000
01000000
00100000
01000000
00100000
01000000
00100000
,
01000000
00000000
11000000
00000000
10000000
01000000
00100000
00000000
,
00010000
00000000
10000000
00000000
00100000
00010000
00000000
00100000
00010000
00001000
00020000
00000000
00000000
00000000
00030000
00000000
,
00001000
00010000
00001000
00000100
00000010
00001000
00001001
00000000
,
00001000
00000000
00000001
00000000
00000010
00001000
00000000
00000010
00001000
00010000
00002000
00000000
00000000
00000000
00003000
00000000
,
00010000
00000000
00010100
00000000
00001000
00000100
00000010
00000000
,
00000001
00000000
00001000
00000000
00000010
00000100
00000000
00000100
00001000
00010000
00000200
00000000
00000000
00000000
00000300
00000000
,
00001100
00000000
00011000
00000000
01010000
00000000
01010000
00000000
00100000
00000000
10000000
00000000
00010000
10000000
00000000
10000000
,
00010000
10000000
01000000
00000000
01100000
00000000
00000000
00000000
01000000
00000000
10000000
01000000
10000000
00000000
10000000
00010000
,
00000000
00010000
00100000
00000000
00010000
01000000
00010000
00000000
00100000
00000000
00010000
01000000
10000000
00000000
01000000
00010000
,
00000000
00010000
10000000
00000000
00000000
00000000
00000000
00000000
00010000
00000000
10000000
00010000
10000000
00000000
00010000
00100000
,
00000000
00100000
00001000
00000000
00010000
00000010
00010000
00000000
00000001
00000000
00001000
00000010
00000001
00000000
00001000
00000010
,
00000000
00000010
00000000
00000000
00000110
00000000
00000000
00000000
00000100
00000000
00001000
00010000
00001000
00000000
00001000
00010000
,
00000000
00010000
00100000
00000000
10000000
01000000
00010000
00000000
00001000
00000000
00010000
01000000
10000000
00000000
01000000
00100000
,
00000000
00010000
10000000
00000000
00000000
00000000
00000000
00000000
00010000
00000000
00100000
00010000
00100000
00000000
00010000
00100000
,
00000000
00100000
00001000
00000000
00001000
00000100
00000001
00000000
00001000
00000000
00000001
00000010
00001000
00000000
00010000
00000100
,
00000000
00000100
00001000
00000000
00000100
00000000
00000000
00000000
00010000
00000000
00000000
00000000
00000100
00000000
00000000
00000000
,
00010000
00000000
00000000
00000000
00001000
00000000
00010000
00000000
00001000
00000000
00000000
00100000
00000000
01000000
00000000
00000000
,
00100000
00000000
00010000
10000000
00010000
00000000
10000000
00000000
00100000
00000000
00000000
00010000
00000000
00001000
00000000
00000000
,
00011000
00000000
00000000
00000000
00000100
00000000
00000010
00000000
00000001
00000000
00000000
00000100
00000000
00000010
00000000
00000000
,
00000100
00000000
00001000
00010000
00001000
00000000
00100000
00000000
01000000
00000000
00000000
10000000
00000000
01000000
00000000
01000000
,
10000000
01000000
10000000
01000000
00100000
00000000
00010000
00000000
00000100
00000000
00000000
00001000
00000000
00100000
00000000
00000000
,
00010000
00000000
00100000
00001000
00010000
00000000
00000010
00000000
00000001
00000000
00000000
00001000
00000000
00000100
00000000
00000000
,
00000110
00000000
00000000
00000000
00000100
00001000
00000100
00000000
00000010
00000000
00000001
00000000
00000100
00000001
00000100
00000000
,
00001000
00000000
00010000
00000000
00100000
10000000
00100000
00000000
01000000
00010000
01000000
00000000
00010000
00000000
10000000
00000000
,
00010000
00100000
00010000
00000000
10000000
00000000
01000000
00000000
00010000
00000000
00001000
00000000
00010000
00000000
01000000
00000000
,
10000000
00010000
00100000
00001000
00010000
00000010
00001000
00000100
,
00000010
00000001
00001000
00000010
00000001
00000010
00001000
00010000
,
01000000
00010000
00001000
00000010
00000100
00000010
00001000
00000000
,
00000001
00000100
00000010
00001000
00010000
01000000
00100000
10000000
,
01000000
00100000
00010000
10000000
00010000
00100000
00001000
00000100
,
00000010
00001000
00000001
00000100
00001000
00010000
00100000
10000000
,
00010000
00000000
10000000
00000000
01000000
00000000
00010000
00000000
00001000
00010000
00001000
00010000
00001000
00010000
00001000
00010000
,
00001000
00011000
00000100
00000110
,
00000010
00001010
00001000
00000001
,
00000101
00001100
00001010
00000011
,
00000001
00000100
00001000
00010000
,
00200000
00000000
00000000
02000000
00000000
00000000
03300000
00000000
,
00100000
10000000
01000000
00000000
01000000
10000000
00100000
00000000
,
10100000
00110000
01010000
11000000
,
10000000
01000000
00010000
00001000
00000100
00000010
00001001
00000000
,
00000001
00000000
00000100
00000000
00001010
00000000
00000000
00002020
00000000
00000000
00000000
00000000
00003030
00000000
00001000
00000100
,
00001000
00000100
00010000
00011000
00001000
01000000
00100000
10100000
,
10000000
00000000
00010000
00000000
00110000
00000000
00000000
00220000
00000000
00000000
00000000
00000000
00330000
00000000
10000000
01000000
,
10000000
01000000
00010000
01010000
00001000
00000100
00000001
00000101
,
00000010
00000000
00001000
00000000
00001100
00000000
00000000
00020200
00000000
00000000
00000000
00000000
00030300
00000000
00010000
00001000
,
00010000
00100000
01000000
01010000
00010000
00100000
00001000
00011000
,
00100000
00000000
00010000
00000000
00010100
00000000
00000000
00002200
00000000
00000000
00000000
00000000
00003300
00000000
00000100
00000010
,
00000100
00001000
00000001
00000100
00001000
00010000
00100000
10000000
,
00010000
01000000
00010000
00000000
10000000
00000000
00010000
00100000
00000000
00100000
00010000
00000000
01000000
01000000
01000000
00000000
,
00100000
00000000
10000000
00000000
10010000
00000000
00000000
00010000
00000000
00100000
00000000
00001000
00010000
00000000
00000000
00000000
,
00010000
00000100
00010000
00000000
00000010
00000000
00000100
00000001
00000000
00000001
00001000
00000000
00000010
00000010
00000010
00000000
,
00000100
00000000
00000001
00000000
00001001
00000000
00000000
00000100
00000000
00010000
00000000
00001000
00010000
00000000
00000000
00000000
,
00010000
00100000
10000000
00000000
00010000
00000000
10000000
01000000
00000000
01000000
00010000
00000000
00001000
00001000
00001000
00000000
,
00000100
00000000
00000010
00000000
00001010
00000000
00000000
00000001
00000000
00000100
00000000
00000010
00001000
00000000
00000000
00000000
,
00000001
00000100
00001000
00000000
00000100
00000000
00001000
00010000
00000000
00010000
00100000
00000000
10000000
10000000
10000000
00000000
,
00010000
01000000
00010000
01000000
00010000
01000000
00010000
01000000
00100000
10000000
00100000
10000000
00100000
10000000
00100000
10000000
;

//---------------dance-double - ----------------
#NOTEDATA:;
#CHARTNAME:;
#STEPSTYPE:dance-double;
#DESCRIPTION:;
#CHARTSTYLE:;
#DIFFICULTY:Challenge;
#METER:18;
#RADARVALUES:0.898,0.856,0.439,0.215,0.812,603.000,47.000,23.000,0.000,0.000,0.000,0.000,0.000,0.898,0.856,0.439,0.215,0.812,603.000,47.000,23.000,0.000,0.000,0.000,0.000,0.000;
#CREDIT:;
#OFFSET:1.312;
#BPMS:0.000=78.000
,2.000=156.000
,6.000=312.000
,12.000=624.000
,16.000=156.000
,77.000=312.000
,78.000=156.000
,109.000=624.000
,113.000=156.000
;
#STOPS:72.000=0.385
,72.500=0.385
,77.000=0.192
,159.000=0.385
;
#DELAYS:;
#WARPS:;
#TIMESIGNATURES:0.000=4=4
;
#TICKCOUNTS:0.000=4
;
#COMBOS:0.000=1
;
#SPEEDS:0.000=1.000=0.000=0
;
#SCROLLS:0.000=1.000
;
#FAKES:;
#LABELS:0.000=Song Start
;
#DISPLAYBPM:156.000;
#NOTES:
00000000
00000000
02200000
00000000
,
00000000
03300000
10000000
00010000
,
10000000
00010000
10000000
00010000
,
10000000
00010000
10000000
00010000
,
10000000
00010000
10000000
00000000
01000000
00000000
00010000
00000000
00001000
00000000
00000010
00000000
00000001
00000000
00001000
00000000
,
00000001
00001000
00000001
00000000
00000100
00000000
00001000
00000000
00010000
00000000
00100000
00000000
10000000
00000000
00010000
00000000
,
10000000
01000000
10000000
00000000
01000000
00000000
00010000
00000000
00001000
00000000
00000100
00000000
00000010
00000000
00001000
00000000
,
00000001
00000100
00000001
00000000
00000010
00000000
00001000
00000000
00010000
00000000
01000000
00000000
00100000
00000000
00010000
00000000
,
10000000
01000000
00100000
00000000
01000000
10000000
00100000
00000000
01000000
00100000
00010000
00000000
00011000
00000000
00000000
00000000
,
00010000
00000100
00001000
00000000
00000100
00010000
00001000
00000000
00010000
00000010
00000100
00000000
00000110
00000000
00000000
00000000
,
00000001
00000100
00000010
00000000
00001000
00000010
00000100
00000000
00000001
00000100
00001000
00000000
00011000
00000000
00000000
00000000
,
00010000
00000000
00000100
00000000
00001000
00000000
00000001
00000000
00000100
00000001
00000010
00000100
00001000
00000001
00000100
00001000
,
00010000
00000000
00001000
00000000
01001000
00000000
01000000
00100000
00010000
00000000
00001000
00000000
00010000
00001000
00010000
00000000
,
00000100
00000000
00000010
00000000
00000001
00001000
00000000
00001000
00000100
00000010
00000002
00000000
00001000
00001000
00001003
00000000
,
00000001
00000000
00000010
00000000
00001100
00000000
00001000
00000100
00000010
00000000
00000001
00000000
00000100
00000010
00000100
00000000
,
00001000
00000000
00010000
00000000
00001000
00100000
00000000
00100000
00010000
01000000
20000000
00000000
01000000
01000000
31000000
00000000
,
01000000
00000000
00010000
00000000
10010000
00000000
10000000
00100000
00010000
00000000
00001000
00000000
00010000
00000100
00010000
00000000
,
00000100
00000000
00001000
00000000
00000010
00000100
00000000
00000100
00000001
00001000
00000002
00000000
00001000
00001000
00001003
00000000
,
00000101
00000000
00001100
00000000
00011000
00000000
00011000
00000000
00010000
00100000
00010000
00100000
01000000
00100000
01000000
00100000
,
10000000
00100000
01000000
00100000
10000000
00000000
00000000
00000000
01000000
00000000
10000000
01000000
10000000
00000000
10000000
00010000
,
00000000
00010000
00100000
00000000
00010000
01000000
00010000
00000000
00100000
00000000
00010000
01000000
10000000
00000000
01000000
00010000
,
00000000
00010000
10000000
00000000
00000000
00000000
00000000
00000000
00010000
00000000
10000000
00010000
10000000
00000000
00010000
00100000
,
00000000
00100000
00001000
00000000
00010000
00000010
00010000
00000000
00000001
00000000
00001000
00000010
00000001
00000000
00001000
00000010
,
00000000
00000010
00000000
00000000
00000110
00000000
00000000
00000000
00000100
00000000
00001000
00010000
00001000
00000000
00001000
00010000
,
00000000
00010000
00100000
00000000
10000000
01000000
00010000
00000000
00001000
00000000
00010000
01000000
10000000
00000000
01000000
00100000
,
00000000
00010000
10000000
00000000
00000000
00000000
00000000
00000000
00010000
00000000
00100000
00010000
00100000
00000000
00010000
00100000
,
00000000
00100000
00001000
00000000
00001000
00000100
00000001
00000000
00001000
00000000
00000001
00000010
00001000
00000000
00010000
00000100
,
00000000
00000100
00001000
00000000
00000100
00000000
00000000
00000000
00010000
00000000
00000000
00000000
00000100
00000000
00000000
00000000
,
00010000
00000000
00000000
00000000
00000100
00001000
00000100
00000000
00001000
00000000
00000001
00000100
00000000
00000100
00000010
00000000
,
00001000
00001000
00001000
00000000
00000001
00000100
00000001
00000000
00000100
00000000
00000010
00001000
00000000
00001000
00000100
00000000
,
00010100
00000000
00000000
00000000
00010000
00001000
00010000
00000000
00001000
00000000
01000000
00010000
00000000
00010000
01000000
00000000
,
00100000
00100000
00100000
00000000
10000000
00010000
01000000
00000000
00100000
00000000
01000000
00010000
00000000
00010000
10000000
00010000
,
01000000
00100000
10000000
01000000
00010000
00001000
00010000
00000000
00000100
00000000
00001000
00000001
00000000
00000001
00000100
00000000
,
00000010
00000010
00000010
00000000
00000100
00001000
00010000
00000000
00001000
00000000
00100000
00010000
00000000
00010000
01000000
00000000
,
01100000
00000000
00000000
00000000
01000000
00100000
10000000
00000000
01000000
00000000
00010000
00001000
00000000
00001000
00010000
00000000
,
00000010
00000010
00000010
00000000
00000100
00000001
00000100
00000010
00001000
00000001
00001000
00000100
00000010
00000001
00000100
00001000
,
00010000
00001000
00010000
01000000
00100000
00000000
00010000
00000000
01000000
00000000
10000000
00000000
00010000
00000000
10000000
00000000
,
00100000
00010000
01000000
00010000
00100000
10000000
00010000
00100000
,
10000000
00010000
00100000
00001000
00010000
00000010
00000100
00001000
,
00010000
00100000
01000000
00010000
00100000
00001000
00011000
00000000
,
00020000
00001000
00000100
00031000
00002000
00010000
00100000
00013000
,
00020000
00000100
00001000
00030010
00002000
01000000
00010000
00103000
,
00100000
00010000
01000000
00100000
00010000
00001000
00000100
00000010
,
00001000
00000001
00001000
00000001
00000100
00000001
00000100
00000001
00000010
00001000
00000010
00001000
00000100
00010000
00000100
00010000
,
00001000
00000000
00011000
00000000
00001000
00010000
00001000
00000000
,
00100000
00000000
00110000
00000000
00010000
01000000
10000000
00000000
,
01010000
00000000
10010000
00000000
00110000
00010000
00011000
00100000
,
00000000
00001000
00010100
00000000
00000010
00000100
00000001
00000000
,
00000200
00000000
00000000
00000020
00000000
00000000
00000330
00000000
,
00000001
00000010
00001000
00000000
00010000
00100000
10000000
00000000
,
10100000
00000000
00110000
00000000
00010000
00101000
00010000
00010100
,
00000000
00000000
00000100
00000000
00000010
00000000
00000001
00000000
00001000
00000001
00001000
00000001
00001000
00000001
00001000
00000001
,
00000100
00000000
00000001
00000000
00001001
00000000
00000000
00002020
00000000
00000000
00000000
00000000
00003030
00000000
00001000
00000100
,
00001000
00000000
00000100
00000000
00010100
00000000
00000000
00022000
00000000
00000000
00000000
00000000
00033000
00000000
00010000
00000000
,
00100000
00000000
10000000
00000000
01010000
00000000
00000000
20200000
00000000
00000000
00000000
00000000
30300000
00000000
10000000
01000000
,
10000000
00000000
00010000
00000000
00110000
00000000
00000000
10010000
00000000
10000000
01000000
00010000
00001000
00010000
01000000
10000000
,
00010000
00000000
01000000
00000000
10100000
00000000
00000000
02200000
00000000
00000000
00000000
00000000
03300000
00000000
00100000
00010000
,
00001000
00000000
00010000
00000000
00010100
00000000
00000000
00000220
00000000
00000000
00000000
00000000
00000330
00000000
00000000
00000000
,
00000001
00000000
00000100
00000000
00001010
00000000
00000000
00000220
00000000
00000000
00000000
00000000
00000330
00000000
00000100
00001000
,
00010000
00000000
00001000
00000000
00101000
00000000
00000000
00011000
00000000
00001000
00010000
01000000
10000000
00010000
10000000
00100000
,
00010000
00001000
00010000
00000000
00001000
00000000
00000100
00000010
00000000
00000010
00001000
00000000
00000001
00000001
00000001
00000000
,
00001000
00000100
00000001
00000000
00001000
00000000
00000010
00000100
00000000
00000100
00001000
00000000
00001001
00000000
00000000
00000000
,
00000001
00000100
00001000
00000000
00001100
00000000
00001000
00010000
00000000
00010000
00100000
00000000
10000000
10000000
10000000
00000000
,
10000000
01000000
00010000
00000000
01010000
00000000
00010000
00001000
00000000
00001000
00000100
00000001
00000100
00000100
00000100
00000010
,
00001000
00000001
00001000
00000000
00000101
00000000
00000100
00001000
00000000
00001000
00010000
00000000
00100000
00100000
00100000
00000000
,
10000000
00010000
10000000
00000000
00110000
00000000
00100000
01000000
00000000
01000000
00010000
00000000
00001000
00001000
00001000
00000000
,
00000100
00000001
00000100
00000000
00000010
00000000
00001000
00000001
00000000
00000001
00001000
00000000
00000001
00000001
00000001
00000000
,
00000100
00001000
00010000
00100000
10000000
00100000
00010000
00001000
00010000
01000000
10000000
00010000
10000000
00100000
00010000
00001000
;

//---------------dance-double - ----------------
#NOTEDATA:;
#CHARTNAME:;
#STEPSTYPE:dance-double;
#DESCRIPTION:;
#CHARTSTYLE:;
#DIFFICULTY:Medium;
#METER:10;
#RADARVALUES:0.455,0.476,0.317,0.112,0.028,295.000,34.000,12.000,0.000,0.000,0.000,0.000,0.000,0.455,0.476,0.317,0.112,0.028,295.000,34.000,12.000,0.000,0.000,0.000,0.000,0.000;
#CREDIT:;
#OFFSET:1.312;
#BPMS:0.000=78.000
,2.000=156.000
,6.000=312.000
,12.000=624.000
,16.000=156.000
,77.000=312.000
,78.000=156.000
,109.000=624.000
,113.000=156.000
;
#STOPS:72.000=0.385
,72.500=0.385
,77.000=0.192
,159.000=0.385
;
#DELAYS:;
#WARPS:;
#TIMESIGNATURES:0.000=4=4
;
#TICKCOUNTS:0.000=4
;
#COMBOS:0.000=1
;
#SPEEDS:0.000=1.000=0.000=0
;
#SCROLLS:0.000=1.000
;
#FAKES:;
#LABELS:0.000=Song Start
;
#DISPLAYBPM:156.000;
#NOTES:
00000000
00000000
00011000
00000000
,
00000000
00000000
00000000
00000000
,
00000000
00000000
00000000
00000000
,
00000000
00000000
00000000
00000000
,
00010000
00000000
00001000
00000000
00000100
00000010
00000100
00000000
,
00000001
00000000
00001000
00000000
00000100
00010000
00000100
00000000
,
00010000
00000000
00100000
00000000
10000000
00100000
10000000
00000000
,
00010000
00000000
10000000
00000000
00010000
00100000
00010000
00000000
,
10000000
00000000
10100000
00000000
01000000
01000000
01000000
00000000
,
00010000
00000000
00110000
00000000
00001000
00001000
00001000
00000000
,
00010000
00000000
00010010
00000000
00000100
00000100
00000100
00000000
,
00000001
00001000
00000001
00001000
00000001
00000100
00000001
00000100
,
00000010
00000000
00001010
00000000
00001000
00001000
00001000
00000000
,
00000100
00010100
00011000
01001000
,
01000000
00000000
01100000
00000000
10000000
10000000
10000000
00000000
,
00010000
00110000
00101000
00010100
,
00001000
00000000
00001001
00000000
00000100
00000100
00000100
00000000
,
00000001
00000100
00000010
00000100
00000001
00001000
00000001
00000000
,
00001001
00001001
00000100
00000100
00000010
00000000
00001000
00000000
,
00000001
00001001
00000001
00000100
,
00000010
00001000
00000010
00001000
00000100
00000000
00010000
00000000
,
00011000
00000000
00010000
00001000
,
00100000
01000000
00100000
01000000
10000000
00000000
01000000
00000000
,
01100000
00000000
00001000
00010000
,
00000100
00010000
00000100
00010000
00001000
00000000
00000100
00000000
,
00000110
00000010
00001000
00000001
,
00001000
00000001
00001000
00000001
00001000
00000000
00000100
00000000
,
00010000
00002000
00000000
00000000
,
00000000
00000000
00013000
00010000
00010000
00000000
01000000
00000000
,
01100000
00000000
10000000
10000000
10000000
00000000
10010000
00000000
,
00000000
00000000
00001000
00001000
00001000
00000000
00000100
00000000
,
00000110
00000000
00000001
00000001
00000001
00000000
00002000
00000000
,
00000000
00000000
00003001
00000001
00000001
00000000
00001000
00000000
,
00001100
00000000
00010000
00010000
00010000
00000000
00011000
00000000
,
00000000
00000000
00100000
00100000
00100000
00000000
00010000
00000000
,
01010000
00000000
10000000
10000000
10000000
00000000
00010000
01000000
,
00010000
01000000
00100000
00000000
10000000
00000000
01000000
00000000
,
00010000
00001000
00000100
00000001
,
00000010
00000001
00000100
00001000
,
00010000
00100000
10000000
10010000
,
00010000
01000000
00010000
00000000
10000000
00000000
01000000
00000000
,
00100000
00010000
00100000
00000000
00010000
00000000
10000000
00000000
,
00100000
10000000
00100000
00000000
00010000
00000000
00001000
00000000
,
00000100
00000001
00000100
00000000
00000010
00001000
00000010
00001000
,
00000100
00000010
00000000
00000010
,
00000000
00000001
00000000
00000001
,
00001000
00000000
00000001
00000000
00001000
00000001
00001000
00000001
,
00000000
00000000
00000010
00000010
,
00002000
00000000
00000000
00000002
00000000
00000000
00003003
00000000
,
00000001
00000100
00000001
00000000
00001000
00000010
00001000
00000000
,
00000100
00000000
00010000
00000000
00001000
00010000
00001000
00010000
,
00000000
00000000
00011000
00011000
,
00010000
00000000
00000000
00000000
00100000
00000000
00000000
00200000
00000000
00000000
00000000
00000000
00300000
00000000
00000000
00000000
,
10000000
00000000
00000000
00000000
00010000
00000000
00000000
00020000
00000000
00000000
00000000
00000000
00030000
00000000
00000000
00000000
,
01000000
00000000
00000000
00000000
00100000
00000000
00000000
00200000
00000000
00000000
00000000
00000000
00300000
00000000
00000000
00000000
,
00100000
00010000
00001000
00000100
,
00000001
00000000
00000000
00000000
00001000
00000000
00000000
00002000
00000000
00000000
00000000
00000000
00003000
00000000
00000000
00000000
,
00000100
00000000
00000000
00000000
00000010
00000000
00000000
00000020
00000000
00000000
00000000
00000000
00000030
00000000
00000000
00000000
,
00000001
00000000
00000000
00000000
00000100
00000000
00000000
00000200
00000000
00000000
00000000
00000000
00000300
00000000
00000000
00000000
,
00000001
00000100
00001000
00010000
,
00100000
00000000
10100000
00000000
10000000
00010000
10000000
00000000
,
00010000
00000000
00110000
00000000
00010000
00100000
01000000
00000000
,
10000000
00000000
11000000
00000000
01000000
00100000
01000000
00000000
,
00010000
00001000
00010000
00000100
00000010
00000001
00001000
00000000
,
00000001
00000000
00000101
00000000
00000100
00000010
00000100
00000000
,
00001000
00000000
00011000
00000000
00010000
00100000
10000000
00000000
,
10000000
01000000
00100000
00000000
00100000
00001000
00010000
00000000
,
00001000
00000000
00010000
00000000
00001000
00000000
00010000
00000000
00001000
00000000
00000000
00000000
00022000
00000000
00000000
00033000
;

//---------------dance-double - ----------------
#NOTEDATA:;
#CHARTNAME:;
#STEPSTYPE:dance-double;
#DESCRIPTION:;
#CHARTSTYLE:;
#DIFFICULTY:Easy;
#METER:7;
#RADARVALUES:0.335,0.349,0.187,0.047,0.000,226.000,20.000,5.000,0.000,0.000,0.000,0.000,0.000,0.335,0.349,0.187,0.047,0.000,226.000,20.000,5.000,0.000,0.000,0.000,0.000,0.000;
#CREDIT:;
#OFFSET:1.312;
#BPMS:0.000=78.000
,2.000=156.000
,6.000=312.000
,12.000=624.000
,16.000=156.000
,77.000=312.000
,78.000=156.000
,109.000=624.000
,113.000=156.000
;
#STOPS:72.000=0.385
,72.500=0.385
,77.000=0.192
,159.000=0.385
;
#DELAYS:;
#WARPS:;
#TIMESIGNATURES:0.000=4=4
;
#TICKCOUNTS:0.000=4
;
#COMBOS:0.000=1
;
#SPEEDS:0.000=1.000=0.000=0
;
#SCROLLS:0.000=1.000
;
#FAKES:;
#LABELS:0.000=Song Start
;
#DISPLAYBPM:156.000;
#NOTES:
// measure 0
00000000
00000000
10010000
00000000
,  // measure 1
00000000
00000000
00000000
00000000
,  // measure 2
00000000
00000000
00000000
00000000
,  // measure 3
00000000
00000000
00000000
00000000
,  // measure 4
10000000
00010000
01000000
00100000
,  // measure 5
00010000
00001000
00010000
00000100
,  // measure 6
00001000
00000001
00000100
00000010
,  // measure 7
00001000
00000100
00000010
00000001
,  // measure 8
00001000
00001000
00001000
00000000
00000001
00000000
00000100
00000000
,  // measure 9
00000010
00001000
00000001
00001000
,  // measure 10
00000001
00000001
00000001
00000000
00001000
00000000
00000100
00000000
,  // measure 11
00000010
00000001
00000100
00000010
,  // measure 12
00001000
00000000
00001010
00000000
00001000
00001000
00001000
00000000
,  // measure 13
00000100
00010000
00001000
00100000
,  // measure 14
00010000
00000000
01010000
00000000
00010000
00010000
00010000
00000000
,  // measure 15
00100000
00001000
00010000
00011000
,  // measure 16
00000100
00000000
00000110
00000000
00000001
00000001
00000001
00000000
,  // measure 17
00000100
00000010
00001000
00000001
,  // measure 18
00001001
00000000
00000000
00000000
00000001
00001000
00000001
00001000
,  // measure 19
00000001
00001001
00000100
00000010
,  // measure 20
00000100
00001000
00010000
00000100
,  // measure 21
00001000
00000100
00010000
00001000
,  // measure 22
00100000
00010000
01000000
00100000
,  // measure 23
00000000
00010000
01000000
00100000
,  // measure 24
10000000
10000000
01000000
00100000
,  // measure 25
00010000
00000000
10000000
00010000
,  // measure 26
10000000
00100000
00010000
00001000
,  // measure 27
00010000
00002000
00000000
00000000
,  // measure 28
00003000
00010000
00001000
00010000
,  // measure 29
00000100
00000010
00000001
00001001
,  // measure 30
00000000
00000001
00000100
00000010
,  // measure 31
00001000
00000001
00001000
00001001
,  // measure 32
00000000
00001000
00000100
00000010
,  // measure 33
00000100
00001000
00000100
00010000
,  // measure 34
00001000
00100000
00010000
10000000
,  // measure 35
00010000
10000000
00100000
10000000
,  // measure 36
00000000
01000000
00100000
01000000
,  // measure 37
01000000
00010000
10000000
00010000
,  // measure 38
00010000
10000000
01000000
00100000
,  // measure 39
00010000
10000000
00010000
10010000
,  // measure 40
00010000
01000000
00100000
00010000
,  // measure 41
00001000
00010000
00000100
00000010
,  // measure 42
00000001
00001000
00000001
00000100
,  // measure 43
00000010
00000000
00001001
00000000
,  // measure 44
00000001
00000001
00000000
00000001
,  // measure 45
00000000
00000100
00000000
00001000
,  // measure 46
00000000
00000100
00000000
00000100
,  // measure 47
00000000
00001000
00000000
00010000
,  // measure 48
00002000
00000000
00000000
00020000
00000000
00000000
00033000
00000000
,  // measure 49
00000000
00010000
00000000
00010000
,  // measure 50
00000000
00100000
00000000
00100000
,  // measure 51
00000000
10000000
10010000
00000000
,  // measure 52
10000000
01000000
00100000
00000000
,  // measure 53
00100000
00010000
10010000
00000000
,  // measure 54
00010000
01000000
00100000
00000000
,  // measure 55
00100000
00010000
00011000
00000000
,  // measure 56
00000100
00000001
00001000
00000000
,  // measure 57
00000100
00000001
00000110
00000000
,  // measure 58
00000010
00001000
00000001
00000000
,  // measure 59
00000001
00000100
00000010
00001000
,  // measure 60
00000100
00000100
00001000
00001000
,  // measure 61
00000001
00000100
00001001
00000000
,  // measure 62
00001000
00000100
00010000
00001000
,  // measure 63
00100000
00010000
00110000
11000000
,  // measure 64
10000000
00100000
00010000
00001000
,  // measure 65
00010000
00000100
00001100
00000000
,  // measure 66
00000001
00000100
00001000
00010000
,  // measure 67
00022000
00000000
00000000
00000000
00000000
00000000
00000000
00033000
;
