#VERSION:0.81;
#TITLE:EGG;
#SUBTITLE:Light Pop;
#ARTIST:Nauts;
#TITLETRANSLIT:;
#SUBTITLETRANSLIT:;
#ARTISTTRANSLIT:;
#GENRE:;
#ORIGIN:;
#CREDIT:;
#BANNER:EGG.png;
#BACKGROUND:EGG-bg.png;
#PREVIEWVID:;
#JACKET:;
#CDIMAGE:;
#DISCIMAGE:;
#LYRICSPATH:;
#CDTITLE:;
#MUSIC:EGG.mp3;
#OFFSET:0.628;
#SAMPLESTART:48.306;
#SAMPLELENGTH:12.000;
#SELECTABLE:YES;
#DISPLAYBPM:176.000;
#BPMS:0.000=176.000;
#STOPS:;
#DELAYS:;
#WARPS:;
#TIMESIGNATURES:0.000=4=4;
#TICKCOUNTS:0.000=4;
#COMBOS:0.000=1;
#SPEEDS:0.000=1.000=0.000=0;
#SCROLLS:0.000=1.000;
#FAKES:;
#LABELS:0.000=Song Start;
#BGCHANGES:;
#KEYSOUNDS:;
#ATTACKS:
;

//---------------dance-single - ----------------
#NOTEDATA:;
#CHARTNAME:;
#STEPSTYPE:dance-single;
#DESCRIPTION:;
#CHARTSTYLE:;
#DIFFICULTY:Hard;
#METER:11;
#RADARVALUES:0.468,0.500,0.289,0.446,0.000,308.000,35.000,54.000,0.000,0.000,0.000,0.000,0.000,0.468,0.500,0.289,0.446,0.000,308.000,35.000,54.000,0.000,0.000,0.000,0.000,0.000;
#CREDIT:;
#OFFSET:0.630;
#BPMS:0.000=176.000
;
#STOPS:;
#DELAYS:;
#WARPS:;
#TIMESIGNATURES:0.000=4=4
;
#TICKCOUNTS:0.000=4
;
#COMBOS:0.000=1
;
#SPEEDS:0.000=1.000=0.000=0
;
#SCROLLS:0.000=1.000
;
#FAKES:;
#LABELS:0.000=Song Start
;
#DISPLAYBPM:176.000;
#NOTES:
0000
0000
0000
0000
,
0000
0000
0000
0000
,
0000
0000
0000
0000
,
0000
0000
0000
0000
,
0000
0000
0000
0000
,
0010
0000
0001
0100
0000
0100
0000
0000
,
0010
0000
1000
0100
0000
0100
0000
0000
,
0010
0000
0001
1000
0000
0010
1000
0000
,
0100
1000
0000
0100
0010
0000
0010
0000
,
2002
0000
3003
0000
,
0001
0100
0000
0100
0000
0100
0000
0000
,
1000
0000
0000
0001
0000
0000
0000
0101
,
0000
0000
0100
0110
,
0001
0000
0000
1000
0000
0000
0000
1100
,
0000
0000
0010
0110
,
0010
0000
0000
0001
0000
0000
0000
1000
,
0000
0000
0000
0010
0000
0000
0000
0000
,
0100
0000
0000
0010
0000
1000
0000
0220
,
0000
0000
0330
0000
,
0010
0000
0100
0000
0001
0100
0010
0000
,
1000
0100
0010
0000
0010
0000
1001
0000
,
0010
0000
0100
0000
1000
0100
0010
0000
,
0001
0100
0010
0000
0010
0000
1001
0000
,
0001
0000
0100
0000
0010
0001
1000
0000
,
0100
0000
0001
0000
0010
1000
0001
0000
,
0100
0000
0010
0000
0001
1000
0001
0000
,
0200
0000
0000
0300
,
0010
0000
1000
0100
0000
0110
0000
0011
,
0000
0010
0000
0010
,
0100
0000
0001
0100
0000
0101
0000
1001
,
0000
1000
0000
1000
,
0001
0000
0100
0010
0000
1010
0000
0110
,
0000
0100
0000
0001
1000
0000
0100
0000
,
0010
0000
0001
0000
1000
0000
0010
0100
,
0000
0001
0100
0001
0100
0000
0000
0000
,
2000
0000
3020
0000
0230
0000
0301
0200
,
0000
0302
0000
2003
0000
3001
1000
0001
,
2000
0000
0000
0000
0100
3100
0000
0110
,
0000
0011
0000
2002
0000
0000
3003
0000
,
0010
0000
0001
0000
1000
0010
0001
0000
,
0100
0000
1000
0000
0001
0010
1000
0000
,
0200
0000
0300
0002
0000
0003
2000
0000
,
3000
0020
0000
0030
0100
0000
1001
0000
,
0020
0000
2030
0000
3002
0000
0013
0200
,
0000
2300
0000
3002
0000
1003
0001
1000
,
0002
0000
0000
0000
0000
0003
0000
0110
,
0000
0010
0100
2002
0000
0000
3003
0000
,
1000
0000
0001
0000
0010
1000
0100
0000
,
0001
0000
1000
0000
0100
0001
0010
0000
,
0200
0000
0300
0002
0000
0003
2000
0000
,
3000
0020
0000
0030
0100
0000
1001
0000
,
1000
0000
0100
0000
0010
0001
1000
0000
,
0010
0000
0100
0000
0010
0100
0001
0100
,
0000
0000
0010
0010
0000
1001
0000
0000
,
1000
0100
0000
0110
0000
0110
0010
0100
,
0002
0000
0000
0000
,
0000
0000
0003
0000
,
1000
0100
1000
0001
0100
0001
1000
0010
,
1000
0001
0010
0001
1000
0100
0010
0001
,
2000
0000
3000
0100
,
0110
0000
0010
0001
0000
1001
0000
0200
,
0000
0000
0000
0000
0010
0010
0300
0010
,
0000
0100
0000
2002
0000
0000
3003
0000
,
1000
0000
0100
0200
0000
0000
0010
0000
,
0000
0000
0010
0000
0300
0010
0100
0010
,
2000
0000
3000
0002
0000
0023
0000
0230
,
0000
0320
0000
0032
0000
1003
0000
1000
,
0001
1000
0000
0001
0100
0010
1000
0100
,
0000
0010
0000
0001
0000
1000
0010
0100
,
0002
0000
0000
0100
0100
0100
0000
0013
,
0000
1010
0000
2002
0000
0000
3003
0000
,
0010
0000
0001
0100
0000
0100
0001
0000
,
0100
0000
0010
1000
0000
1000
0010
0000
,
0200
0000
0300
0002
0000
0003
2000
0000
,
3000
0020
0000
0030
0100
0000
1001
0000
,
1000
0010
0100
0000
0100
0001
0010
0000
,
0010
0100
1000
0000
1000
0001
0100
0001
,
0000
0000
0100
0100
0000
0110
0000
0000
,
0010
1000
0000
1001
0000
0001
0010
0100
,
0220
0000
0000
0000
,
0330
0000
0000
1001
,
1000
0000
0000
0100
0000
0000
0001
0000
,
0000
0100
0000
0000
0010
0000
0010
0000
,
0001
0000
0000
0100
0000
0000
0010
0000
,
0000
1000
0000
0000
0001
0000
0000
0000
,
2002
0000
0000
0000
,
0000
0000
3003
0000
;

//---------------dance-single - ----------------
#NOTEDATA:;
#CHARTNAME:;
#STEPSTYPE:dance-single;
#DESCRIPTION:;
#CHARTSTYLE:;
#DIFFICULTY:Medium;
#METER:8;
#RADARVALUES:0.323,0.357,0.066,0.289,0.000,231.000,8.000,35.000,0.000,0.000,0.000,0.000,0.000,0.323,0.357,0.066,0.289,0.000,231.000,8.000,35.000,0.000,0.000,0.000,0.000,0.000;
#CREDIT:;
#OFFSET:0.630;
#BPMS:0.000=176.000
;
#STOPS:;
#DELAYS:;
#WARPS:;
#TIMESIGNATURES:0.000=4=4
;
#TICKCOUNTS:0.000=4
;
#COMBOS:0.000=1
;
#SPEEDS:0.000=1.000=0.000=0
;
#SCROLLS:0.000=1.000
;
#FAKES:;
#LABELS:0.000=Song Start
;
#DISPLAYBPM:176.000;
#NOTES:
0000
0000
0000
0000
,
0000
0000
0000
0000
,
0000
0000
0000
0000
,
0000
0000
0000
0000
,
0000
0000
0000
0000
,
0100
0000
0000
0100
0000
0000
0100
0000
,
0010
0000
0000
0010
0000
0000
0010
0000
,
1000
0000
0000
0001
0000
0000
1000
0000
,
0000
0001
0000
0000
0100
0000
0100
0000
,
0200
0000
0000
0000
,
0000
0000
0300
0000
,
0010
0000
0000
1000
0000
0000
0000
0001
,
0000
0000
0200
0300
,
0001
0000
0000
1000
0000
0000
0000
0100
,
0000
0000
0020
0030
,
0100
0000
0000
1000
0000
0000
0000
0001
,
0000
0000
0000
0100
0000
0000
0000
0000
,
0010
0000
0000
0100
0000
0100
0000
0200
,
0000
0000
0300
0000
,
0010
0000
0010
0000
,
0100
0000
0100
1001
,
1000
0000
1000
0000
,
0001
0000
0001
0110
,
0010
0001
1000
0100
,
0010
0100
1000
0001
,
1000
0010
0100
0001
,
0220
0000
0330
0000
,
0010
0000
1000
1000
0000
0000
0001
0000
,
0100
0010
0000
0010
,
0100
0000
0001
0001
0000
0000
1000
0000
,
0100
0010
0000
0010
,
0100
0000
1000
1000
0000
0000
0010
0000
,
0100
0001
0000
1001
,
0200
0000
0000
0000
0000
0000
0300
0010
,
0000
1000
0001
1000
0001
0000
0000
0000
,
0100
0000
0010
0000
0100
0000
1000
0001
,
0000
1000
0000
0001
0000
0100
0000
0100
,
0020
0000
0000
0000
0000
0000
0000
0100
,
0000
0100
0000
0100
0000
0000
0030
0000
,
0010
0100
0010
1000
,
0001
1000
0100
1000
,
0020
0000
0030
0200
0000
0300
0020
0000
,
0030
0200
0000
0300
0010
0000
0100
0000
,
0010
0000
1000
0000
0001
0000
0010
0100
,
0000
1000
0000
0001
0000
1000
0000
1000
,
0020
0000
0000
0000
0000
0000
0000
0100
,
0000
0100
0000
0100
0000
0000
0030
0000
,
0100
0001
1000
0100
,
0010
0100
1000
0001
,
2000
0000
3000
0002
0000
0003
2000
0000
,
3000
0002
0000
0003
1000
0000
1000
0000
,
0100
0010
0100
1000
,
0001
0100
0010
0100
,
0002
1000
0000
1003
,
1000
0100
0010
0001
,
2002
0000
0000
0000
,
3003
0000
0000
0000
,
0020
0000
0000
0000
,
0200
0000
0000
0330
,
0010
0000
1000
0000
0010
1000
0010
0000
,
1000
0000
0001
0001
0000
1000
0000
0200
,
0000
0000
0000
0000
0000
0000
0000
0010
,
0000
0010
0000
0010
0300
0000
0000
0000
,
0010
0000
0100
0000
0010
0001
0010
0000
,
0100
1000
0001
0100
,
0020
0000
0030
1000
0000
0100
0000
0010
,
0000
0100
0000
1000
0000
0001
0000
0000
,
0100
0000
0010
0000
1000
0001
1000
0000
,
0001
0100
0010
0100
,
0020
0000
0000
0000
0000
0000
0000
0100
,
0000
0100
0000
0100
0000
0000
0030
0000
,
0100
0000
0001
0000
1000
0001
1000
0000
,
0100
0010
0000
0010
,
0002
0000
0003
2000
0000
3000
0002
0000
,
0003
2000
0000
3000
0010
0000
0010
0000
,
0100
0001
0100
0010
,
1000
0000
0100
0000
1000
0000
0010
0200
,
0000
0000
0000
0300
,
0010
1010
0100
0100
,
0020
0000
0000
0100
,
0000
0130
0000
0010
,
2002
0000
0000
0000
,
0000
0000
3003
0000
,
0001
0000
0000
0100
0000
0000
0010
0000
,
0000
1000
0000
0000
0001
0000
0000
0000
,
2002
0000
0000
0000
,
0000
0000
3003
0000
;

//---------------dance-single - ----------------
#NOTEDATA:;
#CHARTNAME:;
#STEPSTYPE:dance-single;
#DESCRIPTION:;
#CHARTSTYLE:;
#DIFFICULTY:Easy;
#METER:5;
#RADARVALUES:0.250,0.286,0.025,0.124,0.000,194.000,3.000,15.000,0.000,0.000,0.000,0.000,0.000,0.250,0.286,0.025,0.124,0.000,194.000,3.000,15.000,0.000,0.000,0.000,0.000,0.000;
#CREDIT:;
#OFFSET:0.630;
#BPMS:0.000=176.000
;
#STOPS:;
#DELAYS:;
#WARPS:;
#TIMESIGNATURES:0.000=4=4
;
#TICKCOUNTS:0.000=4
;
#COMBOS:0.000=1
;
#SPEEDS:0.000=1.000=0.000=0
;
#SCROLLS:0.000=1.000
;
#FAKES:;
#LABELS:0.000=Song Start
;
#DISPLAYBPM:176.000;
#NOTES:
0000
0000
0000
0000
,
0000
0000
0000
0000
,
0000
0000
0000
0000
,
0000
0000
0000
0000
,
0000
0000
0000
0000
,
0000
0010
0000
0010
,
0000
0010
0000
0100
,
0010
0000
0000
0010
,
0000
0000
0010
1000
,
0002
0000
0000
0000
,
0000
0000
0003
0000
,
0100
0000
0010
0000
,
0100
0000
0001
0001
,
1000
0000
0001
0000
,
1000
0000
0100
0100
,
0010
0000
0001
0000
,
1000
0000
0010
0000
,
0100
0000
0001
0000
,
1000
0000
0001
0001
,
0100
0001
0100
0001
,
1000
0100
0000
0100
,
1000
0010
1000
0010
,
0100
0001
0000
0001
,
1000
0100
0010
0100
,
1000
0001
1000
0001
,
0100
0100
0010
0010
,
1001
0000
0000
0000
,
1000
0100
0001
0000
,
0001
0001
0001
0000
,
0001
0010
1000
0000
,
1000
1000
1000
0000
,
0010
1000
0001
0000
,
0100
0100
0100
0000
,
0001
1000
0100
0000
,
0010
0010
0010
0000
,
0001
0100
0001
0100
,
0001
0100
0001
0100
,
0002
0000
0000
0000
,
0000
0000
0000
0003
,
1000
0010
1000
0010
,
1000
0010
1000
0010
,
0200
0300
0000
0200
,
0300
0000
0010
0010
,
1000
0100
1000
0100
,
1000
0100
1000
0100
,
2000
0000
0000
0000
,
0000
0000
3000
0000
,
0001
0010
0001
0010
,
0001
0010
0001
0010
,
0200
0300
0000
0200
,
0300
0000
0010
0010
,
0001
1000
0001
1000
,
0001
1000
0001
1000
,
0100
0000
0100
0000
,
0010
0000
0010
0000
,
2002
0000
0000
0000
,
3003
0000
0000
0000
,
0200
0000
0000
0000
,
0000
0000
0000
0300
,
0010
0000
0010
0000
,
0100
0000
0100
0000
,
0001
1000
0001
1000
,
0100
0010
0100
0010
,
0001
0000
0001
0000
,
1000
0000
1000
0000
,
0010
1000
0100
0001
,
0100
1000
0001
0010
,
0100
0000
0100
0000
,
1000
0000
1000
0000
,
0002
0000
0000
0000
,
0000
0000
0003
0000
,
0100
0010
0100
0001
,
1000
0100
0010
0100
,
2000
3000
0000
0002
,
0003
0000
0100
0100
,
0010
1000
0001
1000
,
0100
0001
1000
0001
,
0100
0000
0100
0000
,
0010
0000
0010
0000
,
1001
0000
0000
0000
,
0000
0000
0000
0100
,
0020
0000
0000
0000
,
0000
0000
0030
0000
,
0001
0000
0000
0100
,
0000
0000
0000
0000
,
0200
0000
0000
0000
,
0000
0000
0300
0000
;

//---------------dance-single - ----------------
#NOTEDATA:;
#CHARTNAME:;
#STEPSTYPE:dance-single;
#DESCRIPTION:;
#CHARTSTYLE:;
#DIFFICULTY:Challenge;
#METER:5;
#RADARVALUES:0.231,0.286,0.025,0.124,0.000,178.000,3.000,15.000,76.000,0.000,0.000,0.000,0.000,0.231,0.286,0.025,0.124,0.000,178.000,3.000,15.000,76.000,0.000,0.000,0.000,0.000;
#CREDIT:;
#OFFSET:0.630;
#BPMS:0.000=176.000
;
#STOPS:;
#DELAYS:;
#WARPS:;
#TIMESIGNATURES:0.000=4=4
;
#TICKCOUNTS:0.000=4
;
#COMBOS:0.000=1
;
#SPEEDS:0.000=1.000=0.000=0
;
#SCROLLS:0.000=1.000
;
#FAKES:;
#LABELS:0.000=Song Start
;
#DISPLAYBPM:176.000;
#NOTES:
0000
0000
0000
0000
,
0000
0000
0000
0000
,
0000
0000
0000
0000
,
0000
0000
0000
0000
,
0000
0000
0000
0000
,
0000
0010
0000
0010
,
0000
0010
0000
0100
,
0010
0000
0000
0010
,
0000
0000
0010
MMMM
,
0002
0000
0000
0000
,
0000
0000
0003
0000
,
0100
0000
0010
0000
,
0100
0000
0001
MMMM
,
1000
0000
0001
0000
,
1000
0000
0100
MMMM
,
0010
0000
0001
0000
,
1000
0000
0010
0000
,
0100
0000
0001
0000
,
1000
0000
0001
MMMM
,
0100
0001
0100
0001
,
1000
0100
0000
0100
,
1000
0010
1000
0010
,
0100
0001
0000
0001
,
1000
0100
0010
0100
,
1000
0001
1000
0001
,
0100
0100
0010
0010
,
1001
0000
MMMM
0000
,
1000
0100
0001
0000
,
0001
MMMM
0001
0000
,
0001
0010
1000
0000
,
1000
MMMM
1000
0000
,
0010
1000
0001
0000
,
0100
MMMM
0100
0000
,
0001
1000
0100
0000
,
0010
0010
0010
0000
,
0001
0100
0001
0100
,
MMMM
0100
0001
0100
,
0002
0000
0000
0000
,
0000
0000
0000
0003
,
1000
0010
1000
0010
,
MMMM
0010
1000
0010
,
0200
0300
0000
0200
,
0300
0000
0010
0010
,
1000
0100
1000
0100
,
MMMM
0100
1000
0100
,
2000
0000
0000
0000
,
0000
0000
3000
0000
,
0001
0010
0001
0010
,
MMMM
0010
0001
0010
,
0200
0300
0000
0200
,
0300
0000
0010
0010
,
0001
1000
0001
1000
,
MMMM
1000
0001
1000
,
0100
0000
0100
0000
,
0010
0000
0010
0000
,
2002
0000
0000
0000
,
3003
0000
0000
0000
,
0200
0000
0000
0000
,
0000
0000
0000
0300
,
0010
0000
0010
0000
,
0100
0000
0100
0000
,
0001
1000
0001
MMMM
,
0100
0010
0100
0010
,
0001
0000
0001
0000
,
1000
0000
1000
0000
,
0010
1000
0100
MMMM
,
0100
1000
0001
0010
,
0100
0000
0100
0000
,
1000
0000
1000
0000
,
0002
0000
0000
0000
,
0000
0000
0003
0000
,
0100
0010
0100
MMMM
,
1000
0100
0010
0100
,
2000
3000
0000
0002
,
0003
0000
0100
0100
,
0010
1000
0001
MMMM
,
0100
0001
1000
0001
,
0100
0000
0100
0000
,
0010
0000
0010
0000
,
1001
0000
0000
0000
,
MMMM
0000
0000
0100
,
0020
0000
0000
0000
,
0000
0000
0030
0000
,
0001
0000
0000
0100
,
0000
0000
MMMM
0000
,
0200
0000
0000
0000
,
0000
0000
0300
0000
;

//---------------dance-single - ----------------
#NOTEDATA:;
#CHARTNAME:;
#STEPSTYPE:dance-single;
#DESCRIPTION:;
#CHARTSTYLE:;
#DIFFICULTY:Beginner;
#METER:1;
#RADARVALUES:0.103,0.140,0.017,0.074,0.000,76.000,2.000,9.000,0.000,0.000,0.000,0.000,0.000,0.103,0.140,0.017,0.074,0.000,76.000,2.000,9.000,0.000,0.000,0.000,0.000,0.000;
#CREDIT:;
#OFFSET:0.630;
#BPMS:0.000=176.000
;
#STOPS:;
#DELAYS:;
#WARPS:;
#TIMESIGNATURES:0.000=4=4
;
#TICKCOUNTS:0.000=4
;
#COMBOS:0.000=1
;
#SPEEDS:0.000=1.000=0.000=0
;
#SCROLLS:0.000=1.000
;
#FAKES:;
#LABELS:0.000=Song Start
;
#DISPLAYBPM:176.000;
#NOTES:
0000
0000
0000
0000
,
0000
0000
0000
0000
,
0000
0000
0000
0000
,
0000
0000
0000
0000
,
0000
0000
0000
0000
,
1000
0000
0000
0000
,
0000
0000
0000
0000
,
0100
0000
0000
0000
,
0000
0000
0000
0000
,
2000
0000
0000
0000
,
3000
0000
0000
0000
,
0001
0000
0000
0000
,
0000
0000
0000
0000
,
0001
0000
0000
0000
,
0000
0000
0000
0000
,
0001
0000
0000
0000
,
0000
0000
0000
0000
,
0001
0000
0000
0000
,
0000
0000
0000
0000
,
0100
0000
0000
0000
,
0100
0000
0000
0000
,
0100
0000
0000
0000
,
0100
0000
0000
0000
,
0010
0000
0000
0000
,
0010
0000
0000
0000
,
0010
0000
0000
0000
,
0010
0000
0000
0000
,
1000
1000
0000
0000
,
0000
0000
0000
0000
,
0001
0001
0000
0000
,
0000
0000
0000
0000
,
1000
1000
0000
0000
,
0000
0000
0000
0000
,
0001
0001
0000
0000
,
0000
0000
0000
0000
,
0100
0000
0100
0000
,
0100
0000
0100
0000
,
0200
0000
0000
0000
,
0300
0000
0000
0000
,
0010
0000
0010
0000
,
0010
0000
0010
0000
,
0020
0000
0000
0000
,
0000
0000
0030
0000
,
1000
0000
1000
0000
,
1000
0000
1000
0000
,
2000
0000
0000
0000
,
0000
0000
3000
0000
,
0001
0000
0001
0000
,
0001
0000
0001
0000
,
0002
0000
0000
0000
,
0000
0000
0003
0000
,
0100
0000
0100
0000
,
0100
0000
0100
0000
,
0010
0000
0010
0000
,
0010
0000
0010
0000
,
1001
0000
0000
0000
,
0000
0000
0000
0000
,
0000
0000
0000
0000
,
0000
0000
0000
0000
,
0100
0000
0000
0000
,
0100
0000
0000
0000
,
0020
0000
0000
0000
,
0000
0000
0030
0000
,
0001
0000
0000
0000
,
0001
0000
0000
0000
,
2000
0000
0000
0000
,
0000
0000
3000
0000
,
0100
0000
0000
0000
,
0100
0000
0000
0000
,
0020
0000
0000
0000
,
0000
0000
0030
0000
,
0001
0000
0001
0000
,
0001
0000
0001
0000
,
2000
0000
0000
0000
,
0000
0000
3000
0000
,
0100
0000
0100
0000
,
0100
0000
0100
0000
,
0100
0000
0000
0000
,
0010
0000
0000
0000
,
0010
0000
0000
0000
,
0000
0000
0000
0000
,
1001
0000
0000
0000
,
0000
0000
0000
0000
,
0100
0000
0000
0000
,
0000
0000
0000
0000
,
0100
0000
0000
0000
;

//---------------dance-double - ----------------
#NOTEDATA:;
#CHARTNAME:;
#STEPSTYPE:dance-double;
#DESCRIPTION:;
#CHARTSTYLE:;
#DIFFICULTY:Hard;
#METER:11;
#RADARVALUES:0.452,0.500,0.231,0.429,0.000,303.000,28.000,52.000,0.000,0.000,0.000,0.000,0.000,0.452,0.500,0.231,0.429,0.000,303.000,28.000,52.000,0.000,0.000,0.000,0.000,0.000;
#CREDIT:;
#OFFSET:0.630;
#BPMS:0.000=176.000
;
#STOPS:;
#DELAYS:;
#WARPS:;
#TIMESIGNATURES:0.000=4=4
;
#TICKCOUNTS:0.000=4
;
#COMBOS:0.000=1
;
#SPEEDS:0.000=1.000=0.000=0
;
#SCROLLS:0.000=1.000
;
#FAKES:;
#LABELS:0.000=Song Start
;
#DISPLAYBPM:176.000;
#NOTES:
00000000
00000000
00000000
00000000
,
00000000
00000000
00000000
00000000
,
00000000
00000000
00000000
00000000
,
00000000
00000000
00000000
00000000
,
00000000
00000000
00000000
00000000
,
00010000
00000000
00100000
01000000
00000000
01000000
00000000
00000000
,
00010000
00000000
00001000
00000100
00000000
00000100
00000000
00000000
,
00000010
00000000
00000100
00001000
00000000
00010000
00100000
00000000
,
00010000
00001000
00000000
00001000
00000100
00000000
00000100
00000000
,
00002002
00000000
00003003
00000000
,
00000001
00000100
00000000
00000100
00000000
00000100
00000000
00000000
,
00000010
00000000
00000000
00001000
00000000
00000000
00000000
00001100
,
00000000
00000000
00001000
00011000
,
00010000
00000000
00000000
01000000
00000000
00000000
00000000
01100000
,
00000000
00000000
00010000
10010000
,
01000000
00000000
00000000
00100000
00000000
00000000
00000000
00010000
,
00000000
00000000
00000000
00001000
00000000
00000000
00000000
00000000
,
00010000
00000000
00000000
00001000
00000000
00010000
00000000
00022000
,
00000000
00000000
00033000
00000000
,
00010000
00000000
01000000
00000000
00100000
01000000
10000000
00000000
,
10000000
00100000
00010000
00000000
00001000
00010000
00001000
00000000
,
00010000
00000000
00000010
00000000
00000100
00000001
00001000
00000000
,
00000100
00000010
00001000
00000000
00010000
00001000
00010000
00000000
,
00010000
00000000
01000000
00000000
10000000
00010000
10000000
00000000
,
00100000
00000000
00010000
00000000
00001000
00010000
00001000
00000000
,
00000100
00000000
00000001
00000000
00001000
00000001
00001000
00000000
,
00000020
00000000
00000000
00000030
,
00000100
00000000
00000001
00000100
00000000
00001000
00000000
00011000
,
00000000
00100000
00000000
00100000
,
01000000
00000000
10000000
01000000
00000000
00010000
00000000
00011000
,
00000000
00000100
00000000
00000100
,
00000001
00000000
00000010
00001000
00000000
00010000
00000000
11000000
,
00000000
10000000
00000000
00100000
00010000
00000000
00001000
00000000
,
00010000
00000000
00000100
00000000
00001000
00000000
00000010
00000100
,
00000000
00000001
00000100
00001000
00010000
00000000
00000000
00000000
,
20000000
00000000
30200000
00000000
00320000
00000000
00130000
20000000
,
00000000
30020000
00000000
20030000
00000000
31000000
00010000
00001000
,
00000020
00000000
00000000
00000000
00000100
00000130
00000000
00000110
,
00000000
00001100
00000000
00022000
00000000
00000000
00033000
00000000
,
00010000
00000000
00000100
00000000
00000010
00000001
00000010
00000000
,
00000100
00000000
00010000
00000000
00001000
00100000
00001000
00000000
,
00200000
00000000
00300000
02000000
00000000
03000000
00020000
00000000
,
00030000
00002000
00000000
00003000
00000010
00000000
00000110
00000000
,
00000002
00000000
00000203
00000000
00002300
00000000
00003100
00000002
,
00000000
00002003
00000000
00003002
00000000
00000013
00001000
00010000
,
02000000
00000000
00000000
00000000
00000000
03000000
00000000
01100000
,
00000000
01000000
00010000
00002000
00000000
00000000
00003000
00000000
,
00010000
00000000
00000010
00000000
00001000
00000001
00000010
00000000
,
00001000
00000000
00100000
00000000
00010000
10000000
00100000
00000000
,
02000000
00000000
03000000
00020000
00000000
00030000
00200000
00000000
,
00300000
00002000
00000000
00003000
00010000
00000000
00011000
00000000
,
00001000
00000000
00000100
00000000
00000010
00001000
00000001
00000000
,
00000010
00000000
00000100
00000000
00001000
00000100
00010000
00001000
,
00000000
00000000
00100000
00100000
00000000
10010000
00000000
00000000
,
10000000
01000000
00000000
01100000
00000000
00110000
00000000
00001000
,
00020000
00000000
00000000
00000000
,
00000000
00000000
00030000
00000000
,
00001000
00010000
00001000
00010000
00000010
00010000
00001000
01000000
,
00001000
00010000
00001000
00100000
00001000
00010000
00000010
00001000
,
00000200
00000000
00000300
00000010
,
00000110
00000000
00000100
00001000
00000000
00011000
00000000
00200000
,
00000000
00000000
00000000
00000000
00010000
00010000
00000000
00310000
,
00000000
01000000
00000000
20020000
00000000
00000000
30030000
00000000
,
00100000
00000000
01000000
02000000
00000000
00000000
00000000
00000000
,
00000000
00000000
00000000
00000000
03000000
00100000
00010000
00001000
,
00020000
00000000
00030000
00002000
00000000
00003200
00000000
00002300
,
00000000
00023000
00000000
00230000
00000000
10300000
00000000
10000000
,
00010000
10000000
00000000
10000000
01000000
00010000
00001000
00010000
,
00000000
00000100
00000000
00000010
00000000
00000001
00000100
00000010
,
00002000
00000000
00000000
00000100
00000100
00003100
00000000
00000100
,
00000000
00011000
00000000
00220000
00000000
00000000
00330000
00000000
,
00100000
01000000
10000000
00010000
,
01000000
00100000
00010000
00001000
,
00020000
00000000
00030000
00002000
00000000
00003000
00000200
00000000
,
00000300
00000020
00000000
00000030
00000100
00000000
00001001
00000000
,
00000001
00000000
00000100
00000000
00000010
00001000
00000100
00000000
,
00010000
00000000
00001000
00000000
01000000
00100000
10000000
01000000
,
00000000
00000000
01000000
01000000
00000000
01100000
00000000
00000000
,
00100000
00010000
00000000
00011000
00000000
00001000
00000010
00000001
,
00000200
00000000
00000000
00000000
,
00000300
00000000
00000000
00000110
,
00000100
00000000
00000000
00001000
00000000
00000000
00010000
00000000
,
00000000
00001000
00000000
00000000
00100000
00000000
00100000
00000000
,
00010000
00000000
00000000
10000000
00000000
00000000
00100000
00000000
,
00000000
00010000
00000000
00000000
00001000
00000000
00000000
00000000
,
00022000
00000000
00000000
00000000
,
00000000
00000000
00033000
00000000
;

//---------------dance-double - ----------------
#NOTEDATA:;
#CHARTNAME:;
#STEPSTYPE:dance-double;
#DESCRIPTION:;
#CHARTSTYLE:;
#DIFFICULTY:Medium;
#METER:7;
#RADARVALUES:0.312,0.357,0.066,0.281,0.000,223.000,8.000,34.000,0.000,0.000,0.000,0.000,0.000,0.312,0.357,0.066,0.281,0.000,223.000,8.000,34.000,0.000,0.000,0.000,0.000,0.000;
#CREDIT:;
#OFFSET:0.630;
#BPMS:0.000=176.000
;
#STOPS:;
#DELAYS:;
#WARPS:;
#TIMESIGNATURES:0.000=4=4
;
#TICKCOUNTS:0.000=4
;
#COMBOS:0.000=1
;
#SPEEDS:0.000=1.000=0.000=0
;
#SCROLLS:0.000=1.000
;
#FAKES:;
#LABELS:0.000=Song Start
;
#DISPLAYBPM:176.000;
#NOTES:
00000000
00000000
00000000
00000000
,
00000000
00000000
00000000
00000000
,
00000000
00000000
00000000
00000000
,
00000000
00000000
00000000
00000000
,
00000000
00000000
00000000
00000000
,
00001000
00000000
00000000
00001000
00000000
00000000
00001000
00000000
,
00000010
00000000
00000000
00000010
00000000
00000000
00000010
00000000
,
00000100
00000000
00000000
00001000
00000000
00000000
00010000
00000000
,
00000000
00001000
00000000
00000000
01000000
00000000
01000000
00000000
,
02000000
00000000
00000000
00000000
,
00000000
00000000
03000000
00000000
,
00100000
00000000
00100000
00000000
,
01000000
00000000
02000000
03000000
,
00010000
00000000
00010000
00000000
,
00001000
00000000
00002000
00003000
,
00010000
00000000
00000000
00010000
00000000
00000000
00000000
00001000
,
00000000
00000000
00000000
00000100
00000000
00000000
00000000
00000000
,
00000010
00000000
00000000
00000100
00000000
00000100
00000000
00000200
,
00000000
00000000
00000300
00000000
,
00001000
00000000
00001000
00000000
,
00000100
00000000
00000100
00011000
,
00010000
00000000
00010000
00000000
,
00100000
00000000
00100000
01100000
,
01000000
00000000
10000000
00000000
,
01000000
00000000
00100000
00000000
,
00010000
00100000
00001000
00010000
,
00022000
00000000
00033000
00000000
,
00010000
00001000
00000000
00010000
,
00001000
00000100
00000000
00000100
,
00000010
00001000
00000000
00001000
,
00000100
00010000
00000000
00010000
,
01000000
00100000
00000000
00100000
,
01000000
10000000
00000000
10010000
,
00200000
00000000
00000000
00000000
00000000
00000000
00300000
00001000
,
00000000
00010000
00001000
00010000
00001000
00000000
00000000
00000000
,
00001000
00000000
00000100
00000000
00000001
00000000
00000100
00001000
,
00000000
00010000
00000000
00001000
00000000
00100000
00000000
00100000
,
02000000
00000000
00000000
00000000
00000000
00000000
00000000
00100000
,
00000000
00100000
00000000
00100000
03000000
00000000
00000000
00000000
,
10000000
01000000
00010000
01000000
,
10000000
01000000
00010000
00001000
,
00020000
00000000
00030000
00002000
00000000
00003000
00020000
00000000
,
00030000
00002000
00000000
00003000
00010000
00000000
00000010
00000000
,
00000100
00000000
00000001
00000000
00000100
00000000
00001000
00010000
,
00000000
00001000
00000000
00010000
00000000
00001000
00000000
00010000
,
00200000
00000000
00000000
00000000
00000000
00000000
00000000
01000000
,
00000000
01000000
00000000
01000000
00300000
00000000
00000000
00000000
,
01000000
00100000
10000000
01000000
,
00100000
01000000
10000000
00010000
,
00200000
00000000
00300000
00002000
00000000
00003000
00020000
00000000
,
00030000
00000020
00000000
00000030
00000100
00000000
00000100
00000000
,
00000001
00001000
00000000
00001000
,
00000100
00000000
00000100
00000010
,
00000200
00010000
00000000
00010300
,
00010000
00001000
00100000
01000000
,
02200000
00000000
00000000
00000000
,
03300000
00000000
00000000
00000000
,
00020000
00000000
00000000
00000000
,
00002000
00000000
00000000
00033000
,
00010000
00000000
00001000
00000000
00010000
00010000
00001000
00000000
,
00010000
00000000
00000010
00000010
00000000
00000100
00000000
00002000
,
00000000
00000000
00000000
00000000
00000000
00000000
00000000
00010000
,
00000000
00010000
00000000
00010000
00003000
00000000
00000000
00000000
,
00001000
00000000
00010000
00000000
00001000
00001000
00010000
00000000
,
01000000
10000000
00010000
01000000
,
00200000
00000000
00300000
00010000
00000000
00001000
00000000
00000100
,
00000000
00000010
00000000
00000100
00000000
00001000
00000000
00000000
,
00010000
00000000
00001000
00000000
00010000
00010000
00001000
00000000
,
00010000
00001000
00000100
00000010
,
00002000
00000000
00000000
00000000
00000000
00000000
00000000
00000001
,
00000000
00000001
00000000
00000001
00003000
00000000
00000000
00000000
,
00000100
00000000
00000010
00000000
00000100
00000100
00000010
00000000
,
00000100
00001000
00010000
00001000
,
00020000
00000000
00030000
00002000
00000000
00003000
00020000
00000000
,
00030000
00002000
00000000
00003000
01000000
00000000
01000000
00000000
,
00100000
01000000
00010000
10000000
,
00010000
00000000
10000000
00000000
01000000
00000000
00100000
00020000
,
00000000
00000000
00000000
00030000
,
00100000
00110000
00110000
00010000
,
00002000
00000000
00000000
00013000
,
00000000
00010000
00000000
00000100
,
00020000
00000000
00000000
00000000
,
00000000
00000000
00030000
00000000
,
00001000
00000000
00000000
00000100
00000000
00000000
00000010
00000000
,
00000000
00001000
00000000
00000000
00000001
00000000
00000000
00000000
,
00002002
00000000
00000000
00000000
,
00000000
00000000
00003003
00000000
;

//---------------dance-double - ----------------
#NOTEDATA:;
#CHARTNAME:;
#STEPSTYPE:dance-double;
#DESCRIPTION:;
#CHARTSTYLE:;
#DIFFICULTY:Easy;
#METER:5;
#RADARVALUES:0.246,0.286,0.033,0.132,0.000,189.000,4.000,16.000,0.000,0.000,0.000,0.000,0.000,0.246,0.286,0.033,0.132,0.000,189.000,4.000,16.000,0.000,0.000,0.000,0.000,0.000;
#CREDIT:;
#OFFSET:0.630;
#BPMS:0.000=176.000
;
#STOPS:;
#DELAYS:;
#WARPS:;
#TIMESIGNATURES:0.000=4=4
;
#TICKCOUNTS:0.000=4
;
#COMBOS:0.000=1
;
#SPEEDS:0.000=1.000=0.000=0
;
#SCROLLS:0.000=1.000
;
#FAKES:;
#LABELS:0.000=Song Start
;
#DISPLAYBPM:176.000;
#NOTES:
00000000
00000000
00000000
00000000
,
00000000
00000000
00000000
00000000
,
00000000
00000000
00000000
00000000
,
00000000
00000000
00000000
00000000
,
00000000
00000000
00000000
00000000
,
00000000
00010000
00000000
10000000
,
00000000
00010000
00000000
10000000
,
00100000
00000000
00000000
00100000
,
00000000
00000000
00100000
00010000
,
00002000
00000000
00000000
00000000
,
00000000
00000000
00003000
00000000
,
00010000
00000000
00001000
00000000
,
00010000
00000000
00000100
00000100
,
00001000
00000000
00000001
00000000
,
00001000
00000000
00000010
00000010
,
00000100
00000000
00000010
00000000
,
00000100
00000000
00001000
00000000
,
00010000
00000000
00001000
00000000
,
00100000
00000000
00010000
00010000
,
10000000
01000000
10000000
01000000
,
00100000
00100000
00000000
00100000
,
00010000
00001000
00010000
00001000
,
00010000
00010000
00000000
00000100
,
00001000
00000001
00001000
00000001
,
00000010
00000010
00000000
00000001
,
00000100
00000010
00000100
00001000
,
00011000
00000000
00000000
00000000
,
00001000
00010000
01000000
00000000
,
00010000
00000000
00010000
00000000
,
00010000
00001000
00000100
00000000
,
00001000
00000000
00001000
00000000
,
00001000
00010000
00100000
00000000
,
01000000
00000000
01000000
00000000
,
00100000
00010000
00001000
00000100
,
00000010
00000010
00000010
00000000
,
00010000
01000000
00010000
01000000
,
00010000
01000000
00010000
01000000
,
00020000
00000000
00000000
00000000
,
00030000
00000000
00000000
00000000
,
00001000
00000100
00001000
00000100
,
00001000
00000100
00001000
00000100
,
00000020
00000030
00000000
00000020
,
00000030
00000000
00000100
00000100
,
00001000
00010000
00100000
00010000
,
00001000
00010000
00100000
00010000
,
00002000
00000000
00000000
00000000
,
00003000
00000000
00000000
00000000
,
00000010
00000001
00000010
00000001
,
00000010
00000001
00000010
00000001
,
00000200
00000300
00000000
00000200
,
00000300
00000000
00001000
00001000
,
00010000
00100000
10000000
00100000
,
00010000
00100000
10000000
00010000
,
01000000
00000000
01000000
00000000
,
00100000
00000000
00100000
00000000
,
20020000
00000000
00000000
00000000
,
30030000
00000000
00000000
00000000
,
00000200
00000000
00000000
00000000
,
00000000
00000000
00000000
00000300
,
00000010
00000000
00000010
00000000
,
00000100
00000000
00000100
00000000
,
00001000
00000001
00001000
00000000
,
00001000
00000100
00001000
00000000
,
00000100
00000000
00000100
00000000
,
00010000
00000000
00010000
00000000
,
00001000
00010000
01000000
00010000
,
00001000
00000100
00000001
00000100
,
00001000
00000000
00001000
00000000
,
00010000
00000000
00010000
00000000
,
02000000
00000000
00000000
00000000
,
00000000
00000000
03000000
00000000
,
00100000
00010000
00100000
00010000
,
10000000
01000000
00010000
01000000
,
20000000
30000000
00000000
00020000
,
00030000
00000000
01000000
01000000
,
00100000
00010000
00001000
00010000
,
00100000
00010000
00001000
00000100
,
00000010
00000000
00000010
00000000
,
00000100
00000000
00000100
00000000
,
00011000
00000000
00000000
00000000
,
00000000
00000000
00000000
00001000
,
00020000
00000000
00000000
00000000
,
00000000
00000000
00030000
00000000
,
00001000
00000000
00000000
00100000
,
00000000
00000000
00000000
00000000
,
20020000
00000000
00000000
00000000
,
00000000
00000000
30030000
00000000
;

//---------------dance-double - ----------------
#NOTEDATA:;
#CHARTNAME:;
#STEPSTYPE:dance-double;
#DESCRIPTION:;
#CHARTSTYLE:;
#DIFFICULTY:Challenge;
#METER:6;
#RADARVALUES:0.232,0.286,0.033,0.132,0.000,177.000,4.000,16.000,152.000,0.000,0.000,0.000,0.000,0.232,0.286,0.033,0.132,0.000,177.000,4.000,16.000,152.000,0.000,0.000,0.000,0.000;
#CREDIT:;
#OFFSET:0.630;
#BPMS:0.000=176.000
;
#STOPS:;
#DELAYS:;
#WARPS:;
#TIMESIGNATURES:0.000=4=4
;
#TICKCOUNTS:0.000=4
;
#COMBOS:0.000=1
;
#SPEEDS:0.000=1.000=0.000=0
;
#SCROLLS:0.000=1.000
;
#FAKES:;
#LABELS:0.000=Song Start
;
#DISPLAYBPM:176.000;
#NOTES:
// measure 0
00000000
00000000
00000000
00000000
,  // measure 1
00000000
00000000
00000000
00000000
,  // measure 2
00000000
00000000
00000000
00000000
,  // measure 3
00000000
00000000
00000000
00000000
,  // measure 4
00000000
00000000
00000000
00000000
,  // measure 5
00000000
00010000
00000000
10000000
,  // measure 6
00000000
00010000
00000000
10000000
,  // measure 7
00100000
00000000
00000000
00100000
,  // measure 8
00000000
00000000
00100000
MMMMMMMM
,  // measure 9
00002000
00000000
00000000
00000000
,  // measure 10
00000000
00000000
00003000
00000000
,  // measure 11
00010000
00000000
00001000
00000000
,  // measure 12
00010000
00000000
00000100
MMMMMMMM
,  // measure 13
00001000
00000000
00000001
00000000
,  // measure 14
00001000
00000000
00000010
MMMMMMMM
,  // measure 15
00000100
00000000
00000010
00000000
,  // measure 16
00000100
00000000
00001000
00000000
,  // measure 17
00010000
00000000
00001000
00000000
,  // measure 18
00100000
00000000
00010000
MMMMMMMM
,  // measure 19
10000000
01000000
10000000
01000000
,  // measure 20
00100000
00100000
00000000
00100000
,  // measure 21
00010000
00001000
00010000
00001000
,  // measure 22
00010000
00010000
00000000
00000100
,  // measure 23
00001000
00000001
00001000
00000001
,  // measure 24
00000010
00000010
00000000
00000001
,  // measure 25
00000100
00000010
00000100
00001000
,  // measure 26
00011000
00000000
MMMMMMMM
00000000
,  // measure 27
00001000
00010000
01000000
00000000
,  // measure 28
00010000
MMMMMMMM
00010000
00000000
,  // measure 29
00010000
00001000
00000100
00000000
,  // measure 30
00001000
MMMMMMMM
00001000
00000000
,  // measure 31
00001000
00010000
00100000
00000000
,  // measure 32
01000000
MMMMMMMM
01000000
00000000
,  // measure 33
00100000
00010000
00001000
00000100
,  // measure 34
00000010
00000010
00000010
00000000
,  // measure 35
00010000
01000000
00010000
01000000
,  // measure 36
MMMMMMMM
01000000
00010000
01000000
,  // measure 37
00020000
00000000
00000000
00000000
,  // measure 38
00030000
00000000
00000000
00000000
,  // measure 39
00001000
00000100
00001000
00000100
,  // measure 40
MMMMMMMM
00000100
00001000
00000100
,  // measure 41
00000020
00000030
00000000
00000020
,  // measure 42
00000030
00000000
00000100
00000100
,  // measure 43
00001000
00010000
00100000
00010000
,  // measure 44
MMMMMMMM
00010000
00100000
00010000
,  // measure 45
00002000
00000000
00000000
00000000
,  // measure 46
00003000
00000000
00000000
00000000
,  // measure 47
00000010
00000001
00000010
00000001
,  // measure 48
MMMMMMMM
00000001
00000010
00000001
,  // measure 49
00000200
00000300
00000000
00000200
,  // measure 50
00000300
00000000
00001000
00001000
,  // measure 51
00010000
00100000
10000000
00100000
,  // measure 52
MMMMMMMM
00100000
10000000
00010000
,  // measure 53
01000000
00000000
01000000
00000000
,  // measure 54
00100000
00000000
00100000
00000000
,  // measure 55
20020000
00000000
00000000
00000000
,  // measure 56
30030000
00000000
00000000
00000000
,  // measure 57
00000200
00000000
00000000
00000000
,  // measure 58
00000000
00000000
00000000
00000300
,  // measure 59
00000010
00000000
00000010
00000000
,  // measure 60
00000100
00000000
00000100
00000000
,  // measure 61
00001000
00000001
00001000
MMMMMMMM
,  // measure 62
00001000
00000100
00001000
00000000
,  // measure 63
00000100
00000000
00000100
00000000
,  // measure 64
00010000
00000000
00010000
00000000
,  // measure 65
00001000
00010000
01000000
MMMMMMMM
,  // measure 66
00001000
00000100
00000001
00000100
,  // measure 67
00001000
00000000
00001000
00000000
,  // measure 68
00010000
00000000
00010000
00000000
,  // measure 69
02000000
00000000
00000000
00000000
,  // measure 70
00000000
00000000
03000000
00000000
,  // measure 71
00100000
00010000
00100000
MMMMMMMM
,  // measure 72
10000000
01000000
00010000
01000000
,  // measure 73
20000000
30000000
00000000
00020000
,  // measure 74
00030000
00000000
01000000
01000000
,  // measure 75
00100000
00010000
00001000
MMMMMMMM
,  // measure 76
00100000
00010000
00001000
00000100
,  // measure 77
00000010
00000000
00000010
00000000
,  // measure 78
00000100
00000000
00000100
00000000
,  // measure 79
00011000
00000000
00000000
00000000
,  // measure 80
MMMMMMMM
00000000
00000000
00001000
,  // measure 81
00020000
00000000
00000000
00000000
,  // measure 82
00000000
00000000
00030000
00000000
,  // measure 83
00001000
00000000
00000000
00100000
,  // measure 84
00000000
00000000
MMMMMMMM
00000000
,  // measure 85
20020000
00000000
00000000
00000000
,  // measure 86
00000000
00000000
30030000
00000000
;
