#TITLE:D2;
#SUBTITLE:Progressive;
#ARTIST:FIRST AID;
#TITLETRANSLIT:;
#SUBTITLETRANSLIT:;
#ARTISTTRANSLIT:;
#GENRE:;
#CREDIT:;
#BANNER:D2.png;
#BACKGROUND:D2-bg.png;
#LYRICSPATH:;
#CDTITLE:;
#MUSIC:D2.mp3;
#OFFSET:0.212;
#SAMPLESTART:8.363;
#SAMPLELENGTH:12.000;
#SELECTABLE:YES;
#DISPLAYBPM:89.000:356.000;
#BPMS:0.000=356.000
,3.000=89.000
,6.000=133.500
,8.000=178.000
,12.000=267.000
,20.000=356.000
,180.000=178.000
,212.000=356.000
;
#STOPS:3.000=0.506,
3.250=0.506,
3.500=0.506,
3.750=0.506
;
#BGCHANGES:;
#KEYSOUNDS:;
#ATTACKS:;

//---------------dance-single - ----------------
#NOTES:
     dance-single:
     :
     Challenge:
     18:
     1.000,1.000,1.000,0.107,0.387,667.000,117.000,12.000,0.000,0.000,0.000,1.000,1.000,1.000,0.107,0.387,667.000,117.000,12.000,0.000,0.000,0.000:
0000
0000
0000
0000
0000
0000
0000
0000
0000
0000
0000
0000
1001
0101
1010
1100
,
0220
0000
0000
0000
,
0000
0000
0000
0000
,
0000
0000
0000
0000
,
0000
0000
0330
0000
,
0010
0001
0010
0100
,
1000
0001
1000
0000
1000
0001
1000
0000
,
0010
1000
0001
0100
,
0001
0000
1000
0000
1000
0001
1000
0000
,
0010
0100
1000
0100
,
0010
0001
0010
0000
0010
0001
0010
0000
,
0100
1000
0001
1000
,
0010
0000
0100
0000
0100
0001
0010
0000
,
0100
1000
0001
0100
,
0001
1000
0001
0000
0001
1000
0001
0000
,
0100
0010
0100
0001
,
1000
0000
0100
0000
0010
0001
1000
0000
,
0100
0010
0100
1000
,
0010
1000
0010
0000
0100
0001
0100
0000
,
0010
1000
0001
1000
,
0100
0010
0100
0010
,
1010
0000
0101
0000
0001
0100
1000
0000
,
1000
0100
0001
0010
0100
0010
0000
0000
,
0010
0001
1000
0100
,
1000
0000
0010
0000
0100
0001
0100
0000
,
0011
0000
1100
0000
1000
0100
0001
0000
,
0001
0100
1000
0010
0100
0010
0000
0000
,
1000
0010
0100
0001
,
0010
0000
0001
0000
1000
0100
1000
0000
,
1100
0000
0110
0000
0010
0001
0100
0000
,
0010
0001
1000
0100
0010
1000
0000
0000
,
0001
0100
0010
1000
,
0001
0000
1000
0000
0100
1000
0100
0000
,
0011
0000
0110
0000
0100
1000
0010
0000
,
0100
1000
0001
0010
0100
0001
0000
0000
,
0010
0100
1000
0001
,
0010
0000
0001
0000
1000
0100
0010
0000
,
0011
0000
0001
0010
0001
0000
1000
0001
,
1000
1010
0000
0001
,
0101
0000
1000
0010
1000
0000
0001
1000
,
0001
1100
0000
1000
,
1001
0000
1000
0001
1000
0000
0100
0010
,
0100
0110
0000
0010
,
0011
0000
0010
0001
1000
0000
0100
1000
,
0001
1010
0000
0100
,
1100
1000
0001
0000
1001
0000
0101
0001
1000
0000
1001
0000
,
1010
0010
0001
0000
0110
0000
0011
0010
1000
0000
1001
0000
,
0010
0000
0001
0000
0100
0000
0100
0000
0010
0000
1000
0000
,
0100
0010
0100
0000
0011
0000
0220
0000
0000
0330
1100
0000
,
1000
0010
1010
0000
0101
0000
0001
0010
0011
0000
0110
0000
,
0010
0001
0101
0000
0110
0000
0010
1000
1100
0000
1001
0000
,
1000
0000
0001
0000
0100
0000
0001
0000
0010
0000
0100
0000
,
0010
0100
0010
0000
0011
0000
2200
0000
0000
3300
1001
0000
,
1000
0100
1000
0100
1000
0000
0001
0100
,
0001
0100
0001
0000
1000
0010
1000
0010
,
1000
0000
0000
0000
0001
1000
0001
1000
,
0001
0000
1000
0010
1000
0010
1000
0000
,
0010
0100
0010
0100
0010
0000
0000
0000
,
0100
0001
0100
0001
0100
0000
0010
1000
,
0010
1000
0010
0000
1000
0001
1000
0001
,
1000
0100
0010
0001
1000
0010
0100
0001
,
0200
0000
0000
0000
,
0000
0000
0000
0000
,
0000
0000
0000
0000
,
0000
0000
0300
0000
,
0010
0000
0001
0000
1000
0100
0010
0000
,
0010
0001
1000
0001
0100
0010
0000
0000
,
1010
1010
0101
0101
,
1010
1001
1010
1001
,
1000
0000
0100
0000
0010
0001
1000
0000
,
1000
0100
0010
0100
1000
0001
0000
0000
,
0011
0011
1100
1100
,
0011
1001
0011
1001
,
1000
0000
0100
0000
0010
0001
0100
0000
,
0100
0010
1000
0001
1000
0010
0000
0000
,
0101
0101
0110
0110
,
1100
1100
0110
0110
,
0010
0000
1000
0000
0001
1000
0010
0000
,
0010
0100
0001
1000
0001
0010
0000
0000
,
1100
1100
0110
0110
,
0101
0101
0110
0110
,
0010
0000
0100
0000
1000
0100
1000
0000
,
0001
0010
0100
1000
0001
0100
0000
0000
,
0010
1000
0010
0000
0100
0001
0100
0000
,
0001
1000
0001
0000
1000
0001
1000
0000
,
0100
0000
0010
0000
0001
1000
0001
0000
,
0100
0001
0100
0010
1000
0100
0000
0000
,
0010
0001
0010
0000
0100
1000
0100
0000
,
1000
0001
1000
0000
0001
1000
0001
0000
,
0100
0000
0010
0000
1000
0001
1000
0000
,
0010
0100
0001
0100
0010
1000
0000
0000
,
0100
1000
0100
0000
0010
0001
0010
0000
,
0110
0110
1001
1001
,
0100
0000
0001
0000
1000
0001
1000
0000
,
0010
0100
0010
1000
0001
0100
0000
0000
,
0010
1000
0010
0000
0100
0001
0100
0000
,
1001
1001
0110
0110
,
0010
0000
0100
0001
0100
0000
0110
0000
,
0000
1010
1010
0000
,
1000
0000
0100
0010
0100
0000
0011
0000
,
0000
1001
1001
0000
,
0010
0000
0001
0000
0010
0000
0000
0000
0110
0000
0000
0000
,
0100
0000
1000
0000
0100
0000
0000
0000
0110
0000
0000
0000
,
0100
0000
1000
0000
0001
0000
0000
0000
1001
0000
0000
0000
,
0100
0000
0001
0000
1000
0000
0000
0000
1001
0000
0000
0000
,
0011
0000
0000
0000
0101
0000
0000
0000
1100
0000
0000
0000
,
1010
0000
0000
0000
1100
0000
0000
0000
0101
0000
0000
0000
,
0011
0000
0100
0000
1000
0000
0000
0000
1001
0000
0000
0000
,
2020
0000
0000
0000
0000
0000
3030
0000
0101
0000
0000
0000
,
1000
0000
0010
0000
0001
0000
0000
0000
1100
0000
0000
0000
,
0001
0000
0100
0000
1000
0000
0000
0000
0011
0000
0000
0000
,
1000
0000
0100
0000
0001
0000
0000
0000
1010
0000
0000
0000
,
0001
0000
0010
0000
1000
0000
0000
0000
0101
0000
0000
0000
,
0100
0000
0001
0000
0010
0000
1000
0000
0100
0000
1000
0000
,
0010
0000
0001
0000
0100
0000
0010
0000
0100
0000
0001
0000
,
1000
0000
0100
0000
1000
0000
0000
0000
0110
0000
0000
0000
,
2002
0000
3003
0000
,
1000
0010
1000
0010
1000
0000
0001
1000
,
0001
1000
0001
0000
0010
0001
0010
0001
,
0010
0000
0110
0000
0100
1000
0100
1000
,
0100
0000
0010
0100
0010
0100
0010
0000
,
0001
1000
0001
1000
0001
0000
1010
0000
,
1000
0010
0100
0010
0100
0000
0001
1000
,
0100
1000
0100
0000
0010
0001
1000
0001
,
1000
0000
0101
0000
0100
0010
1000
0010
,
0100
0000
0001
0010
0100
0010
0001
0000
,
1000
0100
0010
0100
1000
0000
1001
0000
,
0001
0100
0010
1000
0100
0000
1000
0010
,
0100
0001
1000
0000
0001
1000
0100
0010
,
0001
0000
0011
0000
0010
0100
1000
0010
,
0100
0000
0010
1000
0001
0010
0100
0000
,
1000
0001
0100
0010
1000
0000
1010
0000
,
0010
0100
0001
0100
0010
1000
0001
1000
,
0100
0010
1000
0010
0100
1000
0010
0100
,
0010
0001
1000
0100
0001
1000
0100
0001
,
0200
0000
0000
0000
,
0000
0000
0000
0000
,
0000
0000
0000
0000
,
0000
0000
0000
0000
,
0000
0000
0000
0000
,
0000
0000
0000
0000
,
0300
0101
1100
0000
0000
0000
0000
0000
0000
0000
0000
0000
0000
0000
0000
0000
0000
0000
0000
0000
0000
0000
0000
0000
;

//---------------dance-single - ----------------
#NOTES:
     dance-single:
     :
     Hard:
     16:
     0.798,1.000,0.409,0.338,0.382,545.000,46.000,38.000,0.000,0.000,0.000,0.798,1.000,0.409,0.338,0.382,545.000,46.000,38.000,0.000,0.000,0.000:
0000
0000
0000
0000
0000
0000
0000
0000
0000
0000
0000
0000
1000
1100
0001
0101
,
0220
0000
0000
0000
,
0000
0000
0000
0000
,
0000
0000
0000
0000
,
0000
0000
0330
0000
,
1000
0001
0101
0000
,
0010
0010
0010
0000
,
1000
0001
0010
0100
,
0010
0001
1000
0001
,
0100
0010
1010
0000
,
0100
0100
0100
0000
,
0010
0100
0001
1000
,
0001
0100
0010
1000
,
0100
0010
0011
0000
,
1000
1000
1000
0000
,
0001
0100
0001
1000
,
0100
0010
0100
1000
,
0010
1000
1100
0000
,
0001
0001
0001
0000
,
0010
0100
0010
0001
,
1000
0010
1000
0100
,
0010
0000
0100
1000
0100
0000
0000
0000
,
0020
0030
0020
0030
0020
0030
0000
0000
,
0001
0100
1000
0100
,
0010
1000
0001
0010
,
0100
0000
0010
0001
0010
0000
0000
0000
,
0200
0300
0200
0300
0200
0300
0000
0000
,
0010
0100
1000
0001
,
0100
1000
0100
0010
,
1000
0000
0001
0100
0001
0000
0000
0000
,
2000
3000
2000
3000
2000
3000
0000
0000
,
0100
0010
0001
0100
,
1000
0001
0010
1000
,
0100
0000
1000
0010
1000
0000
0000
0000
,
0002
0003
0002
0003
0002
0003
0000
0000
,
0010
0100
1000
0100
,
0001
1000
0010
0001
,
0100
0000
1000
0100
1000
0000
0001
0100
,
0000
0100
0001
0000
0000
0000
0010
0000
,
0011
0000
0000
1100
,
0000
0000
0001
1000
0001
0000
0000
0000
,
0100
0000
0001
0100
0001
0000
1000
0100
,
0000
0100
1000
0000
0000
0000
0010
0000
,
1010
0000
0000
0101
,
0000
0000
0000
0000
0000
0110
0000
0000
,
0010
1000
0001
0000
1000
0000
0010
1000
0001
0000
1000
0000
,
0100
1000
0010
0000
0001
0000
0010
1000
0100
0000
0001
0000
,
0100
0000
1000
0000
0010
0000
0001
0000
0100
0000
1000
0000
,
0001
1000
0001
0000
0100
0000
0220
0000
0000
0330
0100
0000
,
0010
0100
0001
0000
1000
0000
0100
1000
0010
0000
0100
0000
,
0001
1000
0100
0000
0010
0000
0100
1000
0010
0000
0100
0000
,
0001
0000
0010
0000
1000
0000
0100
0000
0001
0000
1000
0000
,
0100
0010
0100
0000
1000
0000
2002
0000
0000
3003
0000
0000
,
1000
0001
0000
0001
1000
0000
0010
1000
,
0000
1000
0010
0000
0220
0000
0000
0000
,
0000
0000
0330
0000
0010
0100
0000
0100
,
0001
0000
1000
0100
0000
0100
0010
0000
,
2002
0000
0000
3003
,
1000
0100
0000
0100
0001
0000
1000
0010
,
0000
0010
0001
0000
1001
0000
0000
0000
,
1000
0100
0010
0001
1000
0100
0010
0001
,
0200
0000
0000
0000
,
0000
0000
0000
0000
,
0000
0000
0000
0000
,
0000
0000
0000
0300
,
0010
1000
0010
0100
,
0001
0100
0001
1000
0001
0100
0000
0000
,
0010
1000
0010
0000
1000
0000
0001
0000
,
1000
0100
0100
0100
,
0010
0001
0010
0100
,
1000
0100
1000
0001
1000
0010
0000
0000
,
0100
0001
0100
0000
0001
0000
1000
0000
,
0001
0010
0010
0010
,
0100
1000
0001
0100
,
0010
0100
0001
0100
0010
1000
0000
0000
,
0100
1000
0001
0000
0100
0000
0010
0000
,
0100
0001
0001
0001
,
0010
0001
1000
0010
,
0100
0001
0100
0010
1000
0001
0000
0000
,
0010
0001
1000
0000
0100
0000
1000
0000
,
0010
0100
0100
0100
,
0010
1000
0010
0000
0101
0000
0100
0000
,
0010
0100
0001
0100
0001
0010
0000
0000
,
0100
1000
0001
1000
,
0100
0000
1000
0001
1000
0000
0100
0000
,
0010
0001
0010
0000
1100
0000
0100
0000
,
0010
0100
1000
0100
1000
0010
0000
0000
,
0100
0001
1000
0001
,
0100
0000
0001
1000
0001
0000
0010
0000
,
0100
1000
0100
0000
0011
0000
0001
0000
,
1000
0001
1000
0100
0010
0001
0000
0000
,
0100
0001
0100
0010
,
1000
0000
0001
1000
0010
0000
0100
0000
,
0100
0001
0100
0000
1010
0000
1000
0000
,
0001
1000
0001
0100
0010
1000
0000
0000
,
0100
1000
0100
0010
,
0001
0000
1000
0001
0010
0000
0100
0000
,
1000
1000
0100
1100
,
0000
0010
0110
0000
,
0101
0000
0000
1010
,
0000
0000
1001
0000
,
1000
0000
0010
0000
0001
0000
0000
0000
1000
0000
0000
0000
,
0001
0000
0010
0000
1000
0000
0000
0000
0001
0000
0000
0000
,
1000
0000
0100
0000
0001
0000
0000
0000
1000
0000
0000
0000
,
0001
0000
0100
0000
1000
0000
0000
0000
0001
0000
0000
0000
,
1000
0000
0010
0000
0001
0000
0100
0000
0001
0000
0010
0000
,
1000
0000
0000
0000
0001
0000
0000
0000
0100
0000
0000
0000
,
0001
0000
0010
0000
1000
0000
0100
0000
1000
0000
0010
0000
,
0001
0000
0000
0000
1000
0000
0000
0000
0100
0000
0000
0000
,
0010
0000
0001
0000
0100
0000
0000
0000
0110
0000
0000
0000
,
0010
0000
1000
0000
0100
0000
0000
0000
0110
0000
0000
0000
,
0010
0000
0001
0000
1000
0000
0000
0000
1001
0000
0000
0000
,
0100
0000
1000
0000
0001
0000
0000
0000
1001
0000
0000
0000
,
1010
0000
0000
0000
0110
0000
0000
0000
0011
0000
0000
0000
,
1100
0000
0000
0000
0110
0000
0000
0000
0101
0000
0000
0000
,
1000
0000
0010
0000
0100
0000
0000
0000
0101
0000
0000
0000
,
2002
0000
3003
0000
,
1000
0001
0000
0001
1000
0000
1000
0100
,
0000
0100
1000
0000
2200
0000
0000
0000
,
3300
0000
0000
0000
0001
0100
0000
0100
,
0001
0000
1000
0010
0000
0010
0100
0000
,
0220
0000
0330
0000
,
0010
1000
0000
0001
0010
0000
0100
1000
,
0000
0001
0100
0000
2020
0000
0000
0000
,
3030
0000
0000
0000
0100
0001
0000
1000
,
0010
0000
1000
0100
0000
0010
0001
0000
,
0022
0000
0033
0000
,
1000
0100
1000
0100
1000
0000
0001
0100
,
0000
0100
0001
0000
2002
0000
0000
0000
,
3003
0000
0000
0000
0010
0001
0010
0001
,
0010
0000
0100
1000
0000
1000
0001
0000
,
0220
0000
0330
0000
,
0010
1000
0010
0100
0001
0000
0100
0001
,
0100
0010
1000
0000
0001
1000
0001
1000
,
0010
0100
0010
0100
0010
0100
0010
1000
,
0200
0000
0000
0000
,
0000
0000
0000
0000
,
0000
0000
0000
0000
,
0000
0000
0000
0000
,
0000
0000
0000
0000
,
0000
0000
0000
0000
,
0300
0101
1100
0000
0000
0000
0000
0000
0000
0000
0000
0000
0000
0000
0000
0000
0000
0000
0000
0000
0000
0000
0000
0000
;

//---------------dance-single - ----------------
#NOTES:
     dance-single:
     :
     Medium:
     14:
     0.614,0.878,0.400,0.204,0.302,416.000,45.000,23.000,0.000,0.000,0.000,0.614,0.878,0.400,0.204,0.302,416.000,45.000,23.000,0.000,0.000,0.000:
0000
0000
0000
0000
0000
0000
0000
0000
0000
0000
0000
0000
0010
0110
0100
0110
,
2000
0000
0000
0000
,
0000
0000
0000
0000
,
0000
0000
0000
0000
,
0000
0000
3000
0000
,
1000
0000
1100
0000
,
0010
0010
0010
0000
,
0001
0100
1000
0100
,
0001
0100
1000
0000
,
0001
0000
0011
0000
,
0100
0100
0100
0000
,
1000
0010
0001
0010
,
1000
0010
0001
0000
,
1000
0000
1001
0000
,
0001
0001
0001
0000
,
1000
0100
0010
0100
,
1000
0001
1000
0000
,
0001
0000
1001
0000
,
1000
1000
1000
0000
,
0001
0100
0010
0100
,
0001
1000
0001
0000
,
0010
0100
0110
0000
,
1000
1000
1000
0000
,
0001
1000
0100
1000
,
0010
1000
0100
0000
,
0100
0010
0110
0000
,
0001
0001
0001
0000
,
1000
0010
0100
0001
,
1000
0001
0010
0000
,
0100
1000
1100
0000
,
0010
0010
0010
0000
,
0001
0100
1000
0100
,
0010
1000
0001
0000
,
0100
0001
0101
0000
,
0010
0010
0010
0000
,
0100
1000
0001
1000
,
0010
0100
0001
1000
,
0100
0000
0110
0000
,
2000
0002
3000
0003
,
1000
0000
1001
0000
,
0020
0200
0030
0300
,
1000
0000
1010
0000
,
0200
0002
0300
0003
,
0010
0000
0011
0000
,
0200
2000
0300
3000
,
1000
0100
1000
0000
0000
0000
0001
0100
0001
0000
0000
0000
,
1000
0010
1000
0000
0000
0000
0001
0010
0001
0000
0000
0000
,
1000
0000
0001
0000
1000
0000
0001
0000
1000
0000
0001
0000
,
0100
0010
0100
0000
0001
0000
2002
0000
0000
3003
0000
0000
,
1000
0100
0010
0000
0000
0000
0010
0100
1000
0000
0000
0000
,
0001
0100
0010
0000
0000
0000
0010
0100
0001
0000
0000
0000
,
1000
0000
0010
0000
0100
0000
0010
0000
0100
0000
0010
0000
,
1000
0001
1000
0000
0100
0000
0220
0000
0000
0330
0000
0000
,
0010
0000
0000
0001
0000
0000
1000
0000
,
0000
0100
0000
0000
0110
0000
0000
0000
,
0000
0000
0000
0000
0100
0000
0000
1000
,
0000
0000
0001
0000
0000
0010
0000
0000
,
0110
0000
0000
0000
,
1000
0000
0000
0010
0000
0000
0100
0000
,
0000
0001
0000
0000
1001
0000
0000
0000
,
1000
0000
0001
0000
1000
0001
1000
0001
,
0200
0000
0000
0000
,
0000
0000
0000
0000
,
0000
0000
0000
0000
,
0000
0000
0300
0000
,
0010
1000
0010
0000
,
0100
0000
0100
0010
0100
0000
0000
0000
,
1000
0100
0010
0001
,
1000
0001
0100
0000
,
0010
1000
0010
0000
,
0100
0000
0100
0010
0100
0000
0000
0000
,
0001
0100
0010
1000
,
0001
1000
0100
0000
,
0010
0001
0100
0000
,
0001
0000
1000
0001
1000
0000
0000
0000
,
0001
1000
0100
1000
,
0010
0100
0001
0000
,
0010
0100
1000
0000
,
1000
0000
0001
1000
0001
0000
0000
0000
,
0100
0010
1000
0001
,
0010
0100
1000
0000
,
0001
0100
1000
0100
,
0010
1000
0010
0000
0100
0000
0000
0000
,
0010
0000
1010
0000
,
0100
0000
0101
0000
,
1000
0100
0001
0100
,
0010
0001
0010
0000
0100
0000
0000
0000
,
0010
0000
0011
0000
,
1000
0000
1100
0000
,
1000
0100
0010
0001
,
1000
0010
1000
0000
0100
0000
0000
0000
,
0010
0001
1000
0010
,
1000
0001
1001
0000
,
0001
0100
0010
1000
,
0001
1000
0001
0000
0100
0000
0000
0000
,
0010
0100
0001
1000
,
0001
0010
0110
0000
,
0100
1000
1001
0000
,
1000
1010
0000
0100
,
0101
0000
0000
0011
,
0000
0000
0110
0000
,
1000
0000
0010
0000
1000
0000
0000
0000
0000
0000
0000
0000
,
0001
0000
0100
0000
0001
0000
0000
0000
0000
0000
0000
0000
,
1000
0000
0100
0000
1000
0000
0000
0000
0000
0000
0000
0000
,
0001
0000
0010
0000
0001
0000
0000
0000
0000
0000
0000
0000
,
0010
0000
0000
0000
0001
0000
0000
0000
0100
0000
0000
0000
,
0010
0000
0000
0000
1000
0000
0000
0000
0100
0000
0000
0000
,
1000
0000
0001
0000
1000
0000
0000
0000
0100
0000
0000
0000
,
0220
0000
0330
0000
,
0010
0000
0001
0000
0100
0000
0000
0000
0110
0000
0000
0000
,
0010
0000
1000
0000
0100
0000
0000
0000
0110
0000
0000
0000
,
1000
0000
0001
0000
0100
0000
0000
0000
1001
0000
0000
0000
,
0001
0000
1000
0000
0100
0000
0000
0000
1001
0000
0000
0000
,
1000
0000
0000
0000
0001
0000
0000
0000
0100
0000
0000
0000
,
0001
0000
0000
0000
1000
0000
0000
0000
0010
0000
0000
0000
,
0100
0000
0010
0000
0100
0000
0000
0000
0001
0000
0000
0000
,
2002
0000
3003
0000
,
1000
0000
0000
0001
0000
0000
0100
0000
,
0000
0010
0000
0000
1001
0000
0001
0000
,
0000
0000
0000
0000
0001
0000
0000
1000
,
0000
0000
0100
0000
0000
0010
0000
0000
,
1001
1000
0000
0000
,
0010
0000
0000
1000
0000
0000
0100
0000
,
0000
0001
0000
0000
0100
0000
0110
0000
,
0000
0000
0000
0000
0010
0000
0000
0001
,
0000
0000
0100
0000
0000
1000
0000
0000
,
0100
0110
0000
0000
,
1000
0010
0000
0010
1000
0000
0100
0000
,
0000
0001
0000
0000
2002
0000
0000
0000
,
0003
0000
3000
0000
0001
0010
0000
0010
,
0001
0000
0100
0000
0000
1000
0000
0000
,
2002
0000
3000
0003
,
1000
0100
0000
0100
0010
0000
0010
0001
,
0000
0001
0100
0000
0110
0000
0010
0000
,
1000
0000
0001
0000
1000
0001
1000
0001
,
0200
0000
0000
0000
,
0000
0000
0000
0000
,
0000
0000
0000
0000
,
0000
0000
0000
0000
,
0000
0000
0000
0000
,
0000
0000
0000
0000
,
0300
0101
1100
0000
0000
0000
0000
0000
0000
0000
0000
0000
0000
0000
0000
0000
0000
0000
0000
0000
0000
0000
0000
0000
;

//---------------dance-single - ----------------
#NOTES:
     dance-single:
     :
     Easy:
     11:
     0.526,0.627,0.293,0.089,0.240,371.000,33.000,10.000,0.000,0.000,0.000,0.526,0.627,0.293,0.089,0.240,371.000,33.000,10.000,0.000,0.000,0.000:
0000
0000
0000
0000
0000
0000
0000
0000
0000
0000
0000
0000
1000
1001
0001
1001
,
0200
0000
0000
0000
,
0000
0000
0000
0000
,
0000
0000
0000
0000
,
0000
0000
0300
0000
,
0010
0000
1001
0000
,
0100
0100
0100
0000
,
0010
0000
1000
0000
,
0001
0000
1000
0000
,
0100
0000
1001
0000
,
0010
0010
0010
0000
,
0100
0000
1000
0000
,
0001
0000
1000
0000
,
0010
0000
0110
0000
,
1000
1000
1000
0000
,
0010
0000
0100
0000
,
0001
0000
1000
0000
,
0100
0000
0110
0000
,
0001
0001
0001
0000
,
0010
0000
0001
0000
,
1000
0001
1000
0001
,
0100
0000
0110
0000
,
0010
0010
0010
0000
,
1000
0000
0100
0000
,
1000
0000
0001
1000
,
0001
0000
0011
0000
,
0010
0010
0010
0000
,
0100
0000
1000
0000
,
0001
0000
1000
0100
,
1000
0000
1010
0000
,
0100
0100
0100
0000
,
0001
0000
1000
0000
,
0001
0000
0010
0001
,
0100
0000
0011
0000
,
1000
1000
1000
0000
,
0010
0000
0010
0000
,
0100
0010
0100
0010
,
1000
0000
1001
0000
,
0001
0100
0000
0000
,
0010
0000
0110
0000
,
0100
0001
0000
0000
,
1000
0000
1010
0000
,
0100
0001
0000
0000
,
0001
0000
0011
0000
,
0100
1000
0000
0000
,
0100
0000
0100
0000
0000
0000
1000
0000
1000
0000
0000
0000
,
0010
0000
0010
0000
0000
0000
0001
0000
0001
0000
0000
0000
,
0010
0000
1000
0000
0000
0000
0001
0000
0100
0000
0000
0000
,
0001
0000
0010
0000
0000
0000
0100
0000
1000
0000
0000
0000
,
0010
1000
0010
0000
0000
0000
0100
0001
0100
0000
0000
0000
,
0010
1000
0010
0000
0000
0000
0100
0001
0100
0000
0000
0000
,
0001
0000
0100
0000
0000
0000
0010
0000
1000
0000
0000
0000
,
0100
0010
0100
0000
1000
0000
1001
0000
0000
0000
0000
0000
,
1000
0100
0000
0100
,
1000
0000
0001
1000
,
0001
0000
0010
0001
,
0000
0001
0100
0000
,
0010
0100
0010
0000
,
1000
0010
0000
0010
,
0100
0000
0001
1000
,
0001
0100
0100
0100
,
0200
0000
0000
0000
,
0000
0000
0000
0000
,
0000
0000
0000
0000
,
0000
0000
0300
0000
,
0010
1000
0100
0000
,
0010
0001
0100
0000
,
0010
1000
0001
1000
,
0001
1000
0100
0000
,
0010
0001
1000
0000
,
0010
1000
0001
0000
,
0100
0010
1000
0001
,
0100
0001
1000
0000
,
0100
0010
0001
0000
,
0100
0010
1000
0000
,
0001
1000
0001
1000
,
0010
1000
0100
0000
,
0010
0100
1000
0000
,
0010
0100
0001
0000
,
1000
0010
0100
0010
,
0100
0001
0010
0000
,
0001
1000
0100
0000
,
0010
0010
0011
0000
,
1000
0000
1001
0000
,
0010
0000
0110
0000
,
0010
1000
0001
0000
,
0100
0100
1100
0000
,
0010
0001
1000
0001
,
0100
0010
1000
0000
,
0001
0010
0100
0000
,
1000
1000
1001
0000
,
1000
0001
0010
0001
,
0100
0010
1000
0000
,
0100
0010
0001
0000
,
0100
0100
0101
0000
,
1000
0010
0100
0010
,
0100
0001
1000
0000
,
0100
0000
1100
0000
,
0010
0001
0000
1000
,
0001
0000
0101
0000
,
0010
1000
0000
0100
,
0010
0000
0001
0000
0010
0000
0000
0000
0000
0000
0000
0000
,
0100
0000
1000
0000
0100
0000
0000
0000
0000
0000
0000
0000
,
1000
0000
0010
0000
1000
0000
0000
0000
0000
0000
0000
0000
,
0001
0000
0100
0000
0001
0000
0000
0000
0000
0000
0000
0000
,
1001
0000
0000
0000
0000
0000
0000
0000
0001
0000
0000
0000
,
0100
0000
0000
0000
0000
0000
0000
0000
1000
0000
0000
0000
,
0010
0000
0000
0000
0000
0000
0000
0000
1000
0000
0000
0000
,
0001
0000
0000
0000
0000
0000
0000
0000
0100
0000
0000
0000
,
0001
0000
1000
0000
0001
0000
0000
0000
0100
0000
0000
0000
,
0010
0000
1000
0000
0010
0000
0000
0000
1000
0000
0000
0000
,
0001
0000
0010
0000
0001
0000
0000
0000
0010
0000
0000
0000
,
0100
0000
1000
0000
0100
0000
0000
0000
0010
0000
0000
0000
,
0100
0000
0000
0000
1000
0000
0000
0000
0001
0000
0000
0000
,
1000
0000
0000
0000
0001
0000
0000
0000
1000
0000
0000
0000
,
0100
0000
0000
0000
0000
0000
0000
0000
0100
0000
0000
0000
,
0020
0000
0000
0030
,
0010
0001
0000
0001
,
0100
0000
0110
0100
,
0000
0000
0010
1000
,
0000
1000
0100
0000
,
0110
0010
0000
0000
,
0001
1000
0000
1000
,
0100
0000
0011
0001
,
0000
0000
1000
0001
,
0000
0001
0100
0000
,
1010
1000
0000
0000
,
0010
0010
0100
0100
,
0001
0001
2002
0000
,
3003
0000
1000
1000
,
0100
0100
0010
0010
,
0220
0000
0330
0000
,
0010
0010
0001
0001
,
1000
1000
2020
0000
,
3030
0000
0001
0000
0100
0001
0100
0001
,
0200
0000
0000
0000
,
0000
0000
0000
0000
,
0000
0000
0000
0000
,
0000
0000
0000
0000
,
0000
0000
0000
0000
,
0000
0000
0000
0000
,
0300
0101
1100
0000
0000
0000
0000
0000
0000
0000
0000
0000
0000
0000
0000
0000
0000
0000
0000
0000
0000
0000
0000
0000
;

//---------------dance-single - ----------------
#NOTES:
     dance-single:
     :
     Beginner:
     7:
     0.385,0.501,0.231,0.240,0.018,250.000,26.000,27.000,0.000,0.000,0.000,0.385,0.501,0.231,0.240,0.018,250.000,26.000,27.000,0.000,0.000,0.000:
0000
0000
0000
0000
0000
0000
0000
0000
0000
0000
0000
0000
1000
0001
0100
0010
,
0200
0000
0000
0000
,
0000
0000
0000
0000
,
0000
0000
0000
0000
,
0000
0000
0300
0000
,
0010
0000
1000
0000
,
0001
0001
0001
0000
,
0000
0000
0100
0000
,
0000
0000
0100
0000
,
0001
0000
0010
0000
,
0100
0100
0100
0000
,
0000
0000
1000
0000
,
0000
0000
1000
0000
,
0100
0000
0010
0000
,
1000
1000
1000
0000
,
0000
0000
0010
0000
,
0000
0000
0010
0000
,
0100
0000
0001
0000
,
0010
0010
0010
0000
,
0000
0000
1000
0000
,
0000
0000
1000
0000
,
0010
0000
0100
0000
,
0001
0001
1000
0000
,
0000
0000
0100
0000
,
0000
0000
1000
0000
,
0100
0000
1000
0000
,
0010
0010
1000
0000
,
0000
0000
0001
0000
,
0000
0000
0010
0000
,
0100
0000
0001
0000
,
1000
1000
0010
0000
,
0000
0000
0100
0000
,
0000
0000
1000
0000
,
0001
0000
0010
0000
,
0001
0001
0010
0000
,
0000
0000
0100
0000
,
0000
0000
0100
0000
,
1001
0000
0110
0000
,
0000
0110
0000
0000
,
1001
0000
0000
0110
,
0000
0000
0110
0000
,
1001
0000
0110
0000
,
0000
0110
0000
0000
,
0110
0000
0000
0110
,
0000
0000
1001
0000
,
2000
3000
0002
0003
,
0200
0300
0020
0030
,
2000
3000
0002
0003
,
0020
0030
0200
0300
,
2000
3000
0002
0003
,
0200
0300
0020
0030
,
0200
0300
0020
0030
,
2000
3000
0002
0003
,
1000
0100
0000
0100
,
1000
0000
0001
0000
,
0000
0000
0100
0001
,
0000
0001
0100
0000
,
0010
0000
0000
0000
,
1000
0001
0000
0001
,
1000
0000
0100
0000
,
0110
0000
0000
0000
,
0200
0000
0000
0000
,
0000
0000
0000
0000
,
0000
0000
0000
0000
,
0000
0000
0300
0000
,
0010
0000
0001
0000
,
1000
1000
1000
0000
,
0010
0000
0100
0000
,
0010
0000
0100
0000
,
0010
0000
1000
0000
,
0001
0001
0001
0000
,
1000
0000
0001
0000
,
1000
0000
0001
0000
,
0010
0000
0100
0000
,
1000
1000
1000
0000
,
0010
0000
0100
0000
,
0001
0000
0100
0000
,
0010
0000
0100
0000
,
0001
0001
0001
0000
,
1000
0000
0100
0000
,
1000
0000
0001
0000
,
0100
0000
0010
0000
,
1000
1000
0100
0000
,
0010
0000
0001
0000
,
1000
0000
0100
0000
,
0010
0000
0100
0000
,
0001
0001
0100
0000
,
0010
0000
1000
0000
,
0001
0000
0100
0000
,
0010
0000
1000
0000
,
0100
0100
0001
0000
,
1000
0000
0010
0000
,
0100
0000
0001
0000
,
0010
0000
0001
0000
,
0100
0100
1000
0000
,
0010
0000
0100
0000
,
0001
0000
1000
0000
,
0100
0000
0110
0000
,
0000
1001
0000
0000
,
1001
0000
0000
0110
,
0000
0000
1001
0000
,
0200
0000
0301
0000
,
0020
0000
1030
0000
,
2000
0000
3100
0000
,
0002
0000
0013
0000
,
0110
0000
0000
0000
,
1001
0000
0000
0000
,
0110
0000
0000
0000
,
1001
0000
0000
0000
,
0002
0000
0103
0000
,
0020
0000
1030
0000
,
2000
0000
3100
0000
,
0020
0000
0031
0000
,
0110
0000
0000
0000
,
1001
0000
0000
0000
,
0110
0000
0000
0000
,
1001
0000
0000
0000
,
0001
0001
0000
0100
,
0100
0000
0010
0000
,
0000
0000
1000
1000
,
0000
0100
0100
0000
,
0001
0000
0000
0000
,
0010
0010
0000
1000
,
1000
0000
0001
0000
,
0000
0000
0100
0100
,
0000
0001
0001
0000
,
1000
0000
0000
0000
,
0001
0100
0000
0100
,
0001
0000
1000
0000
,
0000
0000
0100
1000
,
0000
1000
0100
0000
,
0010
0000
0000
0000
,
0001
1000
0000
1000
,
0001
0000
0100
0000
,
0010
0100
0001
1000
,
0200
0000
0000
0000
,
0000
0000
0000
0000
,
0000
0000
0000
0000
,
0000
0000
0000
0000
,
0000
0000
0000
0000
,
0000
0000
0000
0000
,
0300
0010
0100
0000
0000
0000
0000
0000
0000
0000
0000
0000
0000
0000
0000
0000
0000
0000
0000
0000
0000
0000
0000
0000
;

//---------------dance-double - ----------------
#NOTES:
     dance-double:
     :
     Challenge:
     19:
     1.000,1.000,0.773,0.098,0.444,697.000,87.000,11.000,0.000,0.000,0.000,1.000,1.000,0.773,0.098,0.444,697.000,87.000,11.000,0.000,0.000,0.000: // measure 0
00000000
00000000
00000000
00000000
00000000
00000000
00000000
00000000
00000000
00000000
00000000
00000000
00000101
00010010
01001000
10100000
,  // measure 1
02000000
00000000
00000000
00000000
,  // measure 2
00000000
00000000
00000000
00000000
,  // measure 3
00000000
00000000
00000000
00000000
,  // measure 4
00000000
00000000
00000000
03000000
,  // measure 5
00100000
10000000
01000000
10000000
,  // measure 6
00100000
00010000
00100000
00000000
00100000
00010000
00100000
00000000
,  // measure 7
00010000
00001000
00000100
00000010
,  // measure 8
00001000
00000000
00000100
00000000
00010000
00001000
00000100
00000000
,  // measure 9
00001000
00000100
00000001
00000010
,  // measure 10
00001000
00000010
00001000
00000000
00001000
00000010
00001000
00000000
,  // measure 11
00010000
00001000
00000100
00001000
,  // measure 12
00010000
00000000
00100000
00000000
10000000
01000000
00100000
00000000
,  // measure 13
01000000
10000000
00010000
01000000
,  // measure 14
00010000
10000000
00010000
00000000
00010000
10000000
00010000
00000000
,  // measure 15
01000000
00100000
01000000
00010000
,  // measure 16
10000000
00000000
01000000
00000000
00100000
00010000
10000000
00000000
,  // measure 17
00100000
01000000
00010000
00100000
,  // measure 18
00001000
00010000
01000000
00000000
00010000
00001000
00000010
00000000
,  // measure 19
00000100
00001000
00000001
00000100
,  // measure 20
00000001
00000010
00000100
00001000
01000000
00010000
10000000
00100000
,  // measure 21
00110000
00000000
11000000
00000000
10000000
01000000
00100000
00000000
,  // measure 22
00100000
01000000
00010000
00001000
00010000
00000100
00000000
00000000
,  // measure 23
00010000
01000000
00100000
00010000
,  // measure 24
10000000
00100000
00010000
00100000
00001000
00010000
00000100
00000010
,  // measure 25
00001010
00000000
00000101
00000000
00000001
00000100
00000010
00000000
,  // measure 26
00000010
00000100
00001000
00010000
00001000
01000000
00000000
00000000
,  // measure 27
00100000
10000000
01000000
00100000
,  // measure 28
01000000
00100000
00001000
00010000
00001000
00000100
00000010
00000100
,  // measure 29
00000101
00000000
00001010
00000000
00001000
00000010
00000001
00000000
,  // measure 30
00000001
00000010
00000100
00001000
00010000
00100000
00000000
00000000
,  // measure 31
10000000
00010000
10000000
01000000
,  // measure 32
10000000
00100000
00010000
00001000
00010000
01000000
10000000
01000000
,  // measure 33
11000000
00000000
00110000
00000000
00010000
00100000
10000000
00000000
,  // measure 34
10000000
00100000
00001000
00010000
00000010
00000100
00000000
00000000
,  // measure 35
00000001
00001000
00000001
00000100
,  // measure 36
00000001
00000100
00001000
00010000
00001000
00000100
00000001
00000010
,  // measure 37
00000100
00000000
00001000
00000001
00001000
00000000
00000001
00001000
,  // measure 38
00000001
00000101
00000000
00000100
,  // measure 39
00001000
00000000
00010000
00001000
00010000
00000000
00001000
00010000
,  // measure 40
00001000
00101000
00000000
00100000
,  // measure 41
01000000
00000000
10000000
01000000
10000000
00000000
00010000
00100000
,  // measure 42
00010000
00101000
00000000
00100000
,  // measure 43
01000000
00000000
00010000
00001000
00010000
00000000
00001000
00010000
,  // measure 44
00001000
00001010
00000000
00000100
,  // measure 45
00000001
00000100
00001010
00000000
00001000
00000000
00001000
00000100
00000011
00000000
00000001
00000000
,  // measure 46
00000100
00001000
00010000
00000000
00001000
00000000
00010000
01000000
10000000
00000000
00100000
00000000
,  // measure 47
10000000
00100000
00010000
00001000
00010000
01000000
00010000
00001000
00000010
00000001
00000100
00001000
,  // measure 48
00010000
00001000
00010000
00000000
00000100
00000000
00000220
00000000
00000000
00000330
00000011
00000000
,  // measure 49
00000110
00000100
00010000
00000000
00011000
00000000
01010000
01000000
00100000
00000000
10100000
00000000
,  // measure 50
11000000
01000000
00100000
00000000
00110000
00000000
00011000
00001000
00000100
00000000
00000110
00000000
,  // measure 51
00000100
00000001
00000100
00001000
00010000
00001000
00010000
00100000
10000000
01000000
00010000
00001000
,  // measure 52
00010000
00000100
00010000
00000000
00001100
00000000
00000022
00000000
00000000
00000033
00000100
00000000
,  // measure 53
00001000
00000100
00001000
00000100
00001000
00000000
00000001
00000010
,  // measure 54
00000001
00000010
00000001
00000000
00000100
00000001
00000100
00000001
,  // measure 55
00000100
00000000
00000000
00000000
00000010
00010000
00000010
00010000
,  // measure 56
00000010
00000000
00010000
00001000
00010000
00001000
00010000
00000000
,  // measure 57
00001000
00100000
00001000
00100000
00001000
00000000
00000000
00000000
,  // measure 58
00100000
01000000
00100000
01000000
00100000
00000000
00010000
00100000
,  // measure 59
00010000
00100000
00010000
00000000
10000000
00100000
10000000
00100000
,  // measure 60
10000000
00010000
01000000
00100000
10000000
00010000
10000000
00100000
,  // measure 61
02000000
00000000
00000000
00000000
,  // measure 62
00000000
00000000
00000000
00000000
,  // measure 63
00000000
00000000
00000000
00000000
,  // measure 64
00000000
00000000
03000000
00000000
,  // measure 65
00100000
00000000
10000000
00000000
00010000
10000000
00010000
00000000
,  // measure 66
10000000
00100000
00010000
00100000
00010000
00001000
00000000
00000000
,  // measure 67
00000100
00000001
00001000
00000100
,  // measure 68
00010000
00001000
00010000
01000000
00100000
00010000
01000000
00100000
,  // measure 69
10000000
00000000
00010000
00000000
01000000
00010000
01000000
00000000
,  // measure 70
00100000
00010000
00001000
00010000
00001000
00000100
00000000
00000000
,  // measure 71
00000010
00001000
00000100
00010000
,  // measure 72
01000000
10000000
00100000
10000000
00100000
00010000
00001000
00000100
,  // measure 73
00000010
00000000
00001000
00000000
00000001
00000100
00000001
00000000
,  // measure 74
00000100
00001000
00010000
00001000
00000100
00000010
00000000
00000000
,  // measure 75
00000100
00000001
00001000
00000100
,  // measure 76
00000010
00000001
00000100
00001000
00000100
00001000
00010000
00100000
,  // measure 77
01000000
00000000
00100000
00000000
00010000
00001000
00010000
00000000
,  // measure 78
00001000
00000100
00000010
00000100
00000010
00001000
00000000
00000000
,  // measure 79
00000001
00001000
00000100
00010000
,  // measure 80
00001000
00000100
00000010
00001000
00010000
01000000
00100000
10000000
,  // measure 81
01000000
01000000
00110000
00000000
,  // measure 82
10000000
00100000
01000000
00010000
01000000
00100000
00000000
00000000
,  // measure 83
10100000
10010000
01010000
01001000
,  // measure 84
00110000
00101000
00010100
00001100
,  // measure 85
00000010
00000010
00000011
00000000
,  // measure 86
00000100
00001000
00000001
00001000
00000010
00000100
00000000
00000000
,  // measure 87
00000101
00001010
00010010
00010100
,  // measure 88
00011000
01001000
01010000
10100000
,  // measure 89
10000000
10000000
10010000
00000000
,  // measure 90
10000000
01000000
00100000
00010000
01000000
00001000
00000000
00000000
,  // measure 91
01010000
01100000
00110000
00011000
,  // measure 92
00001010
00000110
00010100
00011000
,  // measure 93
00010000
00010000
00011000
00000000
,  // measure 94
00001000
00000100
00000010
00001000
00000001
00001000
00000000
00000000
,  // measure 95
00000101
00001010
00010010
00010100
,  // measure 96
00101000
00110000
01100000
11000000
,  // measure 97
10000000
00000000
00000000
00000000
11000000
00000000
00000000
00100000
,  // measure 98
00010000
00110000
00000000
00010000
,  // measure 99
00011000
00000000
00000000
00010100
,  // measure 100
00000000
00000000
00001000
00000001
,  // measure 101
00000100
00000000
00000001
00000000
00000100
00000000
00000000
00000000
00000110
00000000
00000000
00000000
,  // measure 102
00000010
00000000
00001000
00000000
00000010
00000000
00000000
00000000
00001010
00000000
00000000
00000000
,  // measure 103
00001000
00000000
00000100
00000000
00010000
00000000
00000000
00000000
00011000
00000000
00000000
00000000
,  // measure 104
00001000
00000000
01000000
00000000
00010000
00000000
00000000
00000000
01010000
00000000
00000000
00000000
,  // measure 105
00100000
00000000
10000000
00000000
00010000
00000000
01000000
00000000
00100000
00000000
00010000
00000000
,  // measure 106
00001000
00000000
00000100
00000000
00000010
00000000
00001000
00000000
00000100
00000000
00000010
00000000
,  // measure 107
00000001
00000000
00000100
00000000
00000001
00000000
00000000
00000000
00001000
00000000
00000000
00000000
,  // measure 108
00002200
00000000
00000000
00000000
00000000
00000000
00003300
00000000
00011000
00000000
00000000
00000000
,  // measure 109
00010000
00000000
00100000
00000000
10100000
00000000
00000000
00000000
10000000
00000000
00000000
00000000
,  // measure 110
01000000
00000000
00010000
00000000
01010000
00000000
00000000
00000000
00001000
00000000
00000000
00000000
,  // measure 111
00000100
00000000
00000010
00000000
00001010
00000000
00000000
00000000
00000001
00000000
00000000
00000000
,  // measure 112
00000010
00000000
00000001
00000000
00001100
00000000
00000000
00000000
00001000
00000000
00000000
00000000
,  // measure 113
00000100
00000000
00001000
00000000
00000010
00000000
00000001
00000000
00001000
00000000
00010000
00000000
,  // measure 114
00001000
00000000
00000100
00000000
00010000
00000000
01000000
00000000
00100000
00000000
10000000
00000000
,  // measure 115
01000000
00000000
00100000
00000000
01000000
00000000
00000000
00000000
10000000
00000000
00000000
00000000
,  // measure 116
20200000
00000000
00000000
00000000
00000000
00000000
30300000
00000000
01010000
00000000
00000000
00000000
,  // measure 117
01000000
00010000
01000000
00010000
01000000
00000000
00100000
10000000
,  // measure 118
00100000
10000000
00100000
00000000
10000000
00010000
10000000
00010000
,  // measure 119
10000000
00000000
01100000
00000000
00100000
00010000
00100000
00010000
,  // measure 120
00100000
00000000
00010000
00001000
00010000
00001000
00010000
00000000
,  // measure 121
00000100
00001000
00000100
00001000
00000100
00000000
00000110
00000000
,  // measure 122
00000010
00000001
00000010
00000001
00000100
00000000
00001000
00000100
,  // measure 123
00001000
00000100
00000010
00000000
00010000
00001000
00010000
00001000
,  // measure 124
01000000
00000000
01010000
00000000
01000000
00100000
10000000
00100000
,  // measure 125
10000000
00000000
00010000
01000000
00100000
01000000
00100000
00000000
,  // measure 126
00010000
00001000
00000100
00001000
00000100
00000001
00001000
00000000
,  // measure 127
00000001
00000100
00001000
00010000
00000010
00000000
00001000
00000100
,  // measure 128
00010000
01000000
00100000
00000000
01000000
10000000
00010000
01000000
,  // measure 129
00001000
01000000
00100000
00000000
01000000
00100000
00010000
00000100
,  // measure 130
00001000
00000000
00000100
00010000
00001000
01000000
00100000
00000000
,  // measure 131
10000000
01000000
00100000
01000000
00010000
00001000
00010000
00000000
,  // measure 132
00001000
00000100
00000001
00001000
00000100
00010000
01000000
00100000
,  // measure 133
01000000
10000000
00100000
00010000
00001000
00000100
00000010
00010000
,  // measure 134
00001000
00000010
00000001
00000100
00001000
01000000
00010000
10000000
,  // measure 135
02000000
00000000
00000000
00000000
,  // measure 136
00000000
00000000
00000000
00000000
,  // measure 137
00000000
00000000
00000000
00000000
,  // measure 138
00000000
00000000
00000000
00000000
,  // measure 139
00000000
00000000
00000000
00000000
,  // measure 140
00000000
00000000
00000000
00000000
,  // measure 141
03000000
11000000
00000011
00000000
00000000
00000000
00000000
00000000
00000000
00000000
00000000
00000000
00000000
00000000
00000000
00000000
00000000
00000000
00000000
00000000
00000000
00000000
00000000
00000000
;

//---------------dance-double - ----------------
#NOTES:
     dance-double:
     :
     Hard:
     16:
     0.777,0.940,0.418,0.320,0.391,529.000,47.000,36.000,0.000,0.000,0.000,0.777,0.940,0.418,0.320,0.391,529.000,47.000,36.000,0.000,0.000,0.000:
00000000
00000000
00000000
00000000
00000000
00000000
00000000
00000000
00000000
00000000
00000000
00000000
00000101
00010010
01001000
10100000
,
02000000
00000000
00000000
00000000
,
00000000
00000000
00000000
00000000
,
00000000
00000000
00000000
00000000
,
00000000
00000000
00000000
03000000
,
00100000
00010000
00001000
00010000
,
01000000
01000000
01100000
00000000
,
10000000
00100000
00010000
00001000
,
00010000
00000000
00000100
00000000
00000010
00001000
00000010
00000000
,
00000001
00000100
00000010
00010000
,
00001000
00001000
00011000
00000000
,
00010000
01000000
00010000
00001000
,
00000100
00000000
00000010
00000000
00001000
00000001
00001000
00000000
,
00000010
00000100
00001000
00010000
,
00100000
00100000
00110000
00000000
,
00100000
10000000
00010000
01000000
,
00001000
00000000
00010000
00000000
00000100
00000010
00000100
00000000
,
00001000
00100000
00010000
00001000
,
01000000
01000000
01010000
00000000
,
01000000
10000000
00010000
00100000
,
00010000
00000000
00001000
00000000
00010000
00001000
00010000
00000000
,
00001000
00000000
00011000
00000000
,
00001000
00010000
02000000
03000000
,
10000000
00100000
01000000
00010000
,
10000000
00100000
10000000
00000000
00001000
01000000
00001000
00000000
,
00010000
00000000
00011000
00000000
,
00010000
00001000
00000200
00000300
,
00000001
00000010
00000100
00001000
,
00000001
00000010
00000001
00000000
00010000
00000100
00010000
00000000
,
00001000
00000000
00101000
00000000
,
00010000
00000010
00000200
00000300
,
00001000
00010000
00100000
10000000
,
00010000
01000000
00010000
00000000
01000000
00001000
00010000
00000000
,
00010000
00000000
00010010
00000000
,
00001000
00100000
02000000
03000000
,
10000000
00100000
00010000
00001000
,
00010000
00000100
00010000
00000000
00000001
00000010
00000100
00000000
,
00001000
00000000
00000000
00000000
00001100
00000000
00000000
00000020
,
00000001
00000000
00000031
00000010
00000000
00000000
00000010
00000000
,
00001100
00000000
00000000
00011000
,
00000000
00010000
00100000
01000000
,
00010000
00000000
00000000
00000000
01010000
00000000
00000000
00200000
,
10000000
00000000
10300000
00100000
00000000
00000000
00100000
00000000
,
01010000
00000000
00000000
00011000
,
00000000
00000000
00000101
00000000
,
00000001
00001000
00000001
00000000
00000100
00000000
00001000
00010000
00001000
00000000
00100000
00000000
,
01000000
10000000
01000000
00000000
10000000
00000000
00010000
01000000
00010000
00000000
10000000
00000000
,
00100000
00000000
00010000
00000000
00001000
00000000
00000100
00000000
00001000
00000000
00010000
00000000
,
00100000
10000000
00100000
00000000
00010000
00000000
00000002
00000000
00000000
00000003
00001000
00000000
,
00000100
00010000
00000100
00000000
00000010
00000000
00001000
00010000
00001000
00000000
01000000
00000000
,
00100000
00010000
00100000
00000000
10000000
00000000
02000000
00000000
00000000
03000000
00100000
00000000
,
01000000
00000000
10000000
00000000
00100000
00000000
00010000
00000000
00001000
00000000
00010000
00000000
,
00000100
00001000
00000100
00000000
00010000
00000000
00022000
00000000
00000000
00033000
00010000
00000000
,
01000000
10000000
00000000
10000000
01000000
00000000
10000000
00010000
,
00000000
00010000
10000000
00000000
20200000
00000000
00000000
00000000
,
30300000
00000000
00000000
00000000
01000000
00010000
00000000
00010000
,
01000000
00000000
00100000
00010000
00000000
00010000
00001000
00000000
,
00022000
00000000
00033000
00000000
,
00001000
00100000
00000000
00100000
00010000
00000000
01000000
00001000
,
00000000
00010000
00000010
00000000
00000220
00000000
00000330
00000000
,
00000100
00000000
00000001
00001000
00000001
00001000
00000001
00000100
,
00000020
00000000
00000000
00000000
,
00000000
00000000
00000000
00000000
,
00000000
00000000
00000000
00000000
,
00000000
00000000
00000030
00000000
,
00000100
00000000
00001010
00000000
,
00001000
00000001
00001000
00000100
00000010
00000100
00000000
00000000
,
00000100
00010000
00001000
01000000
,
00010000
10000000
00100000
00000000
,
10000000
00000000
00110000
00000000
,
01000000
10000000
00010000
10000000
01000000
00100000
00000000
00000000
,
01000000
00100000
00001000
00010000
,
00000010
00000100
00000001
00001000
,
00000100
00000000
00010100
00000000
,
00010000
00001000
00000100
00001000
00000100
00000001
00000000
00000000
,
00000010
00001000
00010000
01000000
,
00100000
00010000
10000000
00100000
,
01000000
00000000
01001000
00000000
,
00001000
00010000
01000000
00010000
01000000
10000000
00000000
00000000
,
00100000
00010000
00001000
00000100
,
00000010
00001000
00000001
00000010
,
00000100
00001000
00001001
00000000
,
00001000
00000001
00000010
00001000
00010000
00001000
00000000
00000000
,
00010000
00001000
00010000
01000000
,
00100000
00010000
10000000
00100000
,
01000000
00010000
10010000
00000000
,
00010000
10000000
00100000
00010000
00001000
00010000
00000000
00000000
,
00001000
00010000
00001000
00000100
,
00000010
00001000
00000001
00000010
,
00000100
00000010
00000011
00000000
,
00000010
00000100
00001000
00000100
00001000
00000001
00000000
00000000
,
00000100
00000010
00001000
00000010
,
00000100
00001000
00010000
00100000
,
01000000
00100000
10100000
00000000
,
00100000
01000000
00010000
01000000
00010000
10000000
00000000
00000000
,
01000000
00100000
00010000
00100000
,
01000000
00010000
00001000
00000010
,
00000100
00000000
00000000
00000000
00001001
00000000
00000000
00000001
,
00000100
00000110
00000000
00000000
,
00001010
00000000
00000000
00011000
,
00000000
00010000
00010000
00010000
,
00010000
00000000
00001000
00000000
00010000
00000000
00000000
00000000
00001000
00000000
00000000
00000000
,
00000100
00000000
00001000
00000000
00000100
00000000
00000000
00000000
00001000
00000000
00000000
00000000
,
00000100
00000000
00000001
00000000
00000100
00000000
00000000
00000000
00000001
00000000
00000000
00000000
,
00000010
00000000
00000001
00000000
00000010
00000000
00000000
00000000
00000001
00000000
00000000
00000000
,
00000010
00000000
00001000
00000000
00010000
00000000
01000000
00000000
00100000
00000000
00010000
00000000
,
10000000
00000000
00100000
00000000
01000000
00000000
00100000
00000000
00010000
00000000
00001000
00000000
,
00010000
00000000
01000000
00000000
00010000
00000000
00000000
00000000
01000000
00000000
00000000
00000000
,
02200000
00000000
00000000
00000000
00000000
00000000
03300000
00000000
10010000
00000000
00000000
00000000
,
01000000
00000000
00010000
00000000
01000000
00000000
00000000
00000000
00001000
00000000
00000000
00000000
,
00010000
00000000
00000010
00000000
00010000
00000000
00000000
00000000
00000100
00000000
00000000
00000000
,
00001000
00000000
00000001
00000000
00001000
00000000
00000000
00000000
00000100
00000000
00000000
00000000
,
00020000
00000000
00000000
00000000
00000000
00000000
00030000
00000000
00001000
00000000
00000000
00000000
,
00010000
00000000
01000000
00000000
10000000
00000000
00010000
00000000
10000000
00000000
00100000
00000000
,
01000000
00000000
00100000
00000000
00010000
00000000
00001000
00000000
00000100
00000000
00001000
00000000
,
00000100
00000000
00000010
00000000
00000100
00000000
00000000
00000000
00000001
00000000
00000000
00000000
,
00002002
00000000
00000000
00000000
00000000
00000000
00003003
00000000
00000110
00000000
00000000
00000000
,
00000010
00001000
00000000
00001000
00000001
00000000
00000001
00001000
,
00000000
00001000
00000100
00000000
00020200
00000000
00000000
00000000
,
00030300
00000000
00000000
00000000
00001000
00000010
00000000
00000010
,
00000100
00000000
00001000
00010000
00000000
00010000
00100000
00000000
,
20200000
00000000
30300000
00000000
,
10000000
01000000
00000000
01000000
00100000
00000000
00010000
01000000
,
00000000
01000000
00001000
00000000
00022000
00000000
00000000
00000000
,
00033000
00000000
00000000
00000000
00010000
00000100
00000000
00000100
,
00001000
00000000
00000010
00010000
00000000
00010000
00001000
00000000
,
02002000
00000000
03003000
00000000
,
00100000
10000000
00100000
10000000
00100000
00000000
01000000
00010000
,
01000000
00001000
01000000
00000000
00022000
00000000
00000000
00000000
,
00033000
00000000
00000000
00000000
00000100
00001000
00000100
00001000
,
00000100
00000000
00000010
00000001
00001000
00000001
00000100
00000000
,
00002020
00000000
00003030
00000000
,
00000100
00000001
00001000
00000100
00001000
00000000
00000100
00010000
,
00001000
00010000
01000000
00000000
00100000
00010000
00100000
00000000
,
01000000
10000000
00010000
10000000
00010000
10000000
00100000
10000000
,
02000000
00000000
00000000
00000000
,
00000000
00000000
00000000
00000000
,
00000000
00000000
00000000
00000000
,
00000000
00000000
00000000
00000000
,
00000000
00000000
00000000
00000000
,
00000000
00000000
00000000
00000000
,
03000000
11000000
00110000
00000000
00000000
00000000
00000000
00000000
00000000
00000000
00000000
00000000
00000000
00000000
00000000
00000000
00000000
00000000
00000000
00000000
00000000
00000000
00000000
00000000
;

//---------------dance-double - ----------------
#NOTES:
     dance-double:
     :
     Medium:
     14:
     0.684,0.752,0.355,0.391,0.338,455.000,40.000,44.000,0.000,0.000,0.000,0.684,0.752,0.355,0.391,0.338,455.000,40.000,44.000,0.000,0.000,0.000:
00000000
00000000
00000000
00000000
00000000
00000000
00000000
00000000
00000000
00000000
00000000
00000000
00000100
00001000
00010000
00100000
,
02000000
00000000
00000000
00000000
,
00000000
00000000
00000000
00000000
,
00000000
00000000
00000000
00000000
,
00000000
00000000
03000000
00000000
,
00100000
01000000
00010000
00000000
,
10000000
10000000
10000000
00000000
,
00100000
01000000
00010000
01000000
,
00100000
00010000
00001000
00000000
,
00000100
00000010
00001000
00000000
,
00000001
00000001
00000001
00000000
,
00000010
00000100
00001000
00000100
,
00000010
00001000
00010000
00000000
,
01000000
10000000
00100000
00000000
,
00010000
00010000
00010000
00000000
,
00100000
00010000
00001000
00010000
,
01000000
00010000
00001000
00000000
,
00000100
00000001
00000010
00000000
,
00001000
00001000
00001000
00000000
,
00000010
00001000
00010000
00001000
,
00000100
00001000
00010000
00000000
,
00100000
00100000
10100000
00000000
,
20000000
30000000
20000000
30000000
20000000
30000000
00000000
00000000
,
00100000
10000000
00010000
00100000
,
00001000
00010000
00000100
00000000
,
00000010
00000010
00000011
00000000
,
00000002
00000003
00000002
00000003
00000002
00000003
00000000
00000000
,
00000010
00000001
00001000
00000010
,
00010000
00001000
01000000
00000000
,
00100000
00100000
01100000
00000000
,
20000000
30000000
00020000
00030000
20000000
30000000
00000000
00000000
,
00100000
01000000
00001000
00010000
,
00000100
00000010
00001000
00000000
,
00000010
00000010
00000110
00000000
,
00000002
00000003
00002000
00003000
00000002
00000003
00000000
00000000
,
00000100
00000010
00000100
00001000
,
00010000
00100000
01000000
00000000
,
00100000
00000000
10100000
00000000
,
10000000
10010000
00000000
00100000
,
00110000
00000000
00000000
00011000
,
00000000
00001000
00001000
00001000
,
00000100
00000000
00001010
00000000
,
00000001
00001001
00000000
00001000
,
00001100
00000000
00000000
00010010
,
00000000
00000000
00011000
00000000
,
00001000
00010000
00001000
00000000
00000000
00000000
00010000
00001000
00010000
00000000
00000000
00000000
,
00100000
01000000
00100000
00000000
00000000
00000000
01000000
00100000
01000000
00000000
00000000
00000000
,
00100000
00000000
00010000
00000000
00001000
00000000
00000100
00000000
00001000
00000000
00010000
00000000
,
02000000
00000000
00000000
03000000
00100000
00000000
00020000
00000000
00000000
00030000
01000000
00000000
,
00100000
00010000
00100000
00000000
00000000
00000000
00001000
00000010
00001000
00000000
00000000
00000000
,
00001000
00000100
00001000
00000000
00000000
00000000
01000000
00010000
01000000
00000000
00000000
00000000
,
01000000
00000000
00010000
00000000
00001000
00000000
00000010
00000000
00001000
00000000
00010000
00000000
,
00000100
00001000
00000100
00000000
00010000
00000000
00022000
00000000
00000000
00033000
00000000
00000000
,
00000100
00000000
00000000
00001000
00000000
00000000
00000010
00000000
,
00000000
00000100
00000000
00000000
00002002
00000000
00000000
00000000
,
00003003
00000000
00000000
00000000
00000100
00000000
00000000
00001000
,
00000000
00000000
00010000
00000000
00000000
00100000
00000000
00000000
,
02200000
00000000
03300000
00000000
,
01000000
00000000
00000000
00010000
00000000
00000000
00100000
00000000
,
00000000
01000000
00000000
00000000
20020000
00000000
00000000
00000000
,
30030000
00000000
10000000
00000000
00010000
10000000
00010000
10000000
,
02000000
00000000
00000000
00000000
,
00000000
00000000
00000000
00000000
,
00000000
00000000
00000000
00000000
,
00000000
00000000
03000000
00000000
,
10000000
01000000
00100000
01000000
,
00100000
00100000
00100000
00010000
,
10000000
00100000
00010000
00001000
,
00000100
00000001
00001000
00000001
,
00000010
00000001
00001000
00000100
,
00000010
00000010
00000010
00000001
,
00000100
00001000
00010000
00100000
,
10000000
00010000
10000000
01000000
,
00100000
00010000
10000000
00100000
,
01000000
01000000
01000000
00100000
,
10000000
00010000
01000000
00001000
,
00100000
00000010
00010000
00001000
,
00000100
00000001
00001000
00000010
,
00000100
00000100
00000100
00000001
,
00000010
00000100
00010000
00001000
,
01000000
00000100
00010000
00001000
,
00100000
00010000
10000000
00010000
,
01000000
01000000
01100000
00100000
,
10000000
00100000
00010000
00001000
,
00010000
00001000
00000100
00000001
,
00000010
00000001
00001000
00000001
,
00000010
00000010
00000110
00000100
,
00000010
00000001
00000100
00001000
,
00010000
00100000
10000000
00010000
,
10000000
01000000
00100000
00010000
,
10000000
10000000
10010000
00010000
,
01000000
00100000
00010000
00001000
,
00010000
00001000
00000100
00000010
,
00001000
00000100
00000010
00000001
,
00001000
00001000
00001001
00000001
,
00000001
00000010
00001000
00010000
,
00001000
00010000
01000000
00100000
,
00110000
00000000
00000000
00000000
10010000
00000000
00000000
00010000
,
01000000
01100000
00000000
00100000
,
10100000
00000000
00000000
01010000
,
00000000
00010000
00010000
00010000
,
00100000
00000000
00010000
00000000
00100000
00000000
00000000
00000000
00001000
00000000
00000000
00000000
,
00001000
00000000
00010000
00000000
00001000
00000000
00000000
00000000
00010000
00000000
00000000
00000000
,
00010000
00000000
00000100
00000000
00010000
00000000
00000000
00000000
00000100
00000000
00000000
00000000
,
00002000
00000000
00000000
00000000
00000000
00000000
00003000
00000000
00001001
00000000
00000000
00000000
,
00000001
00000000
00000010
00000000
00001000
00000000
00010000
00000000
01000000
00000000
00100000
00000000
,
00010000
00000000
10000000
00000000
00010000
00000000
01000000
00000000
00100000
00000000
10000000
00000000
,
00010000
00000000
10000000
00000000
00010000
00000000
00000000
00000000
01000000
00000000
00000000
00000000
,
02200000
00000000
00000000
00000000
00000000
00000000
03300000
00000000
10010000
00000000
00000000
00000000
,
10000000
00000000
00100000
00000000
10000000
00000000
00000000
00000000
00010000
00000000
00000000
00000000
,
00010000
00000000
00100000
00000000
00010000
00000000
00000000
00000000
00100000
00000000
00000000
00000000
,
00100000
00000000
00001000
00000000
00100000
00000000
00000000
00000000
00001000
00000000
00000000
00000000
,
00022000
00000000
00000000
00000000
00000000
00000000
00033000
00000000
00010000
00000000
00000000
00000000
,
00001000
00000000
00000100
00000000
00000010
00000000
00001000
00000000
00000001
00000000
00000010
00000000
,
00000100
00000000
00001000
00000000
00000100
00000000
00010000
00000000
00001000
00000000
00100000
00000000
,
00010000
00000000
10000000
00000000
00010000
00000000
00000000
00000000
01000000
00000000
00000000
00000000
,
02200000
00000000
03300000
00000000
,
10000000
00000000
00000000
00100000
00000000
00000000
01000000
00000000
,
00000000
00001000
00000000
00000000
00022000
00000000
00000000
00000000
,
00033000
00000000
00000000
00000000
00000010
00000000
00000000
00000100
,
00000000
00000000
00000001
00000000
00000000
00010000
00000000
00000000
,
00022000
00000000
00033000
00000000
,
00010000
00000000
00000000
01000000
00000000
00000000
00100000
00000000
,
00000000
00010000
00000000
00000000
20020000
00000000
00000000
00000000
,
30030000
00000000
00000000
00000000
00001000
00000000
00000000
00000100
,
00000000
00000000
00000010
00000000
00000000
00001000
00000000
00000000
,
00002002
00000000
00003003
00000000
,
00000001
00000100
00000000
00000100
00000010
00000000
00001000
00000010
,
00001000
00000010
00001000
00000000
00002200
00000000
00000000
00000000
,
00003300
00000000
00000000
00000000
00010000
01000000
00000000
01000000
,
00100000
00000000
00010000
00100000
00010000
00100000
00010000
00000000
,
02020000
00000000
03030000
00000000
,
10000000
00100000
00000000
00010000
00001000
00000000
00010000
00001000
,
00010000
00001000
00010000
00000000
00010100
00000000
00000100
00000000
,
00001000
00000000
00000001
00000000
00001000
00000001
00001000
00000001
,
00000200
00000000
00000000
00000000
,
00000000
00000000
00000000
00000000
,
00000000
00000000
00000000
00000000
,
00000000
00000000
00000000
00000000
,
00000000
00000000
00000000
00000000
,
00000000
00000000
00000000
00000000
,
00000300
00001100
00000011
00000000
00000000
00000000
00000000
00000000
00000000
00000000
00000000
00000000
00000000
00000000
00000000
00000000
00000000
00000000
00000000
00000000
00000000
00000000
00000000
00000000
;

//---------------dance-double - ----------------
#NOTES:
     dance-double:
     :
     Easy:
     10:
     0.515,0.564,0.391,0.195,0.200,340.000,44.000,22.000,0.000,0.000,0.000,0.515,0.564,0.391,0.195,0.200,340.000,44.000,22.000,0.000,0.000,0.000:
00000000
00000000
00000000
00000000
00000000
00000000
00000000
00000000
00000000
00000000
00000000
00000000
00100000
00010000
10000000
00100000
,
02000000
00000000
00000000
00000000
,
00000000
00000000
00000000
00000000
,
00000000
00000000
00000000
00000000
,
00000000
00000000
03000000
00000000
,
00100000
10000000
00100000
00000000
,
01000000
01000000
01000000
00000000
,
00100000
00000000
01100000
00000000
,
00010000
00000000
00011000
00000000
,
00001000
00000100
00000001
00000000
,
00000010
00000010
00000010
00000000
,
00000100
00000000
00000110
00000000
,
00001000
00000000
00011000
00000000
,
00001000
00010000
01000000
00000000
,
00100000
00100000
00100000
00000000
,
01000000
00000000
01100000
00000000
,
10000000
00000000
10010000
00000000
,
00010000
00100000
00001000
00000000
,
00010000
00010000
00010000
00000000
,
00001000
00000000
00011000
00000000
,
00010000
00000000
00011000
00000000
,
00010000
00000100
00010000
00000000
,
00000010
00000010
00000010
00000000
,
00001000
00000000
00001001
00000000
,
00001000
00000000
00001100
00000000
,
00001000
00000100
00010000
00000000
,
00001000
00001000
00001000
00000000
,
00010000
00000000
00011000
00000000
,
00010000
00000000
00010010
00000000
,
00010000
00001000
01000000
00000000
,
00100000
00100000
00100000
00000000
,
10000000
00000000
10100000
00000000
,
10000000
00000000
10010000
00000000
,
00010000
00100000
01000000
00000000
,
00010000
00010000
00010000
00000000
,
00022000
00000000
00000000
00033000
,
00001000
00000100
00000010
00001000
,
00000001
00000000
00001001
00000000
,
00000001
00000100
00000000
00000100
,
00000010
00000000
00000000
00000110
,
00000000
00000000
00001000
00000000
,
00011000
00000000
00010000
00000000
,
00100000
10000000
00000000
10000000
,
00100000
00000000
00000000
01100000
,
00000000
00000000
10100000
00000000
,
10000000
00000000
01000000
00000000
00000000
00000000
10000000
00000000
00010000
00000000
00000000
00000000
,
10000000
00000000
00100000
00000000
00000000
00000000
02000000
00000000
00000000
03000000
00000000
00000000
,
00100000
00000000
00000000
00000000
00000000
00000000
10000000
00000000
01000000
00000000
00100000
00000000
,
00010000
00000000
00000000
00000000
01000000
00000000
00200000
00000000
00000000
00300000
00010000
00000000
,
00001000
00000000
00000100
00000000
00000000
00000000
00000010
00000000
00000100
00000000
00000000
00000000
,
00000001
00000000
00000100
00000000
00000000
00000000
00000002
00000000
00000000
00000003
00000000
00000000
,
00001000
00000000
00000010
00000000
00000100
00000000
00000001
00000000
00010000
00000000
00000000
00000000
,
00002000
00000000
00000000
00003000
00010000
00000000
02000000
00000000
00000000
03000000
00000000
00000000
,
00100000
00100000
00000000
00010000
,
00010000
00000000
10000000
00010000
,
10000000
00000000
00100000
00100000
,
00000000
00010000
00010000
00000000
,
00001000
00010000
00001000
00000000
,
00000100
00000100
00000000
00000010
,
00000010
00000000
00001000
00000001
,
00001000
00000100
00000100
00000100
,
00000020
00000000
00000000
00000000
,
00000000
00000000
00000000
00000000
,
00000000
00000000
00000000
00000000
,
00000000
00000000
00000030
00000000
,
00000001
00000000
00001001
00000000
,
00000100
00000100
00000100
00000000
,
00001000
00000000
00010000
00000000
,
00100000
00000000
01100000
00000000
,
10000000
00000000
10010000
00000000
,
01000000
01000000
01000000
00000000
,
00100000
00000000
00010000
00000000
,
00000100
00000000
00001100
00000000
,
00000010
00000000
00000110
00000000
,
00000001
00000001
00000001
00000000
,
00000100
00000000
00001000
00000000
,
00010000
00000000
01010000
00000000
,
00100000
00000000
01100000
00000000
,
10000000
10000000
10000000
00000000
,
00100000
00000000
00010000
00000000
,
00001000
00000000
00010100
00000000
,
00000010
00000000
00001001
00000000
,
00000100
00000100
00000100
00000000
,
00000010
00001000
00000001
00001000
,
00000001
00000100
00000010
00000000
,
00000100
00000000
00000110
00000000
,
00001000
00001000
00001000
00000000
,
00000100
00010000
00001000
00010000
,
00000100
00010000
00001000
00000000
,
00010000
00000000
00011000
00000000
,
00100000
00100000
00100000
00000000
,
10000000
00100000
01000000
00100000
,
10000000
00010000
10000000
00000000
,
01000000
00000000
01100000
00000000
,
00010000
00010000
00010000
00000000
,
20020000
00000000
30030000
00000000
,
10000000
00100000
00010000
00001000
,
00000100
00000000
00000110
00000000
,
00000100
00000001
00000000
00000000
,
00001001
00000000
00000000
00001100
,
00000000
00000000
00000110
00000000
,
00000010
00000000
00000000
00000000
00000001
00000000
00000000
00000000
00000001
00000000
00000000
00000000
,
00000100
00000000
00000000
00000000
00000010
00000000
00000000
00000000
00000010
00000000
00000000
00000000
,
00001000
00000000
00000000
00000000
00000100
00000000
00000000
00000000
00000100
00000000
00000000
00000000
,
00020000
00000000
00000000
00000000
00000000
00000000
00030000
00000000
00001000
00000000
00000000
00000000
,
01000000
00000000
00000000
00000000
00100000
00000000
00000000
00000000
00100000
00000000
00000000
00000000
,
10000000
00000000
00000000
00000000
00010000
00000000
00000000
00000000
00010000
00000000
00000000
00000000
,
00100000
00000000
00000000
00000000
01000000
00000000
00000000
00000000
01000000
00000000
00000000
00000000
,
02200000
00000000
00000000
00000000
00000000
00000000
03300000
00000000
01000000
00000000
00000000
00000000
,
10000000
00000000
00000000
00000000
00100000
00000000
00000000
00000000
00100000
00000000
00000000
00000000
,
01000000
00000000
00000000
00000000
00010000
00000000
00000000
00000000
00010000
00000000
00000000
00000000
,
00100000
00000000
00000000
00000000
00001000
00000000
00000000
00000000
00001000
00000000
00000000
00000000
,
00020000
00000000
00000000
00000000
00000000
00000000
00030000
00000000
00001000
00000000
00000000
00000000
,
00000010
00000000
00000000
00000000
00000100
00000000
00000000
00000000
00000100
00000000
00000000
00000000
,
00001000
00000000
00000000
00000000
00000001
00000000
00000000
00000000
00000001
00000000
00000000
00000000
,
00000100
00000000
00000000
00000000
00001000
00000000
00000000
00000000
00001000
00000000
00000000
00000000
,
00022000
00000000
00033000
00000000
,
00010000
00001000
00000000
00001000
,
00010000
00000000
00010000
01000000
,
00010000
00000000
01000000
10000000
,
00000000
10000000
01000000
00000000
,
00100000
00010000
00100000
00000000
,
00010000
01000000
00000000
01000000
,
00010000
00000000
00100000
00001000
,
00100000
00000000
00001000
00000100
,
00000000
00000100
00001000
00000000
,
00000100
00000001
00000100
00000000
,
00000010
00000000
00000000
00001000
00000000
00000000
00000010
00000000
,
00000000
00001000
00000000
00000000
00000220
00000000
00000000
00000000
,
00000330
00000000
00000000
00000000
00000100
00000000
00000000
00000001
,
00000000
00000000
00001000
00000000
00000000
00000100
00000000
00000000
,
00002200
00000000
00003300
00000000
,
00010000
00000000
00000000
00001000
00000000
00000000
00000010
00000000
,
00000000
00000001
00000000
00000000
00000110
00000000
00000100
00000000
,
00000010
00001000
00000001
00001000
,
00000200
00000000
00000000
00000000
,
00000000
00000000
00000000
00000000
,
00000000
00000000
00000000
00000000
,
00000000
00000000
00000000
00000000
,
00000000
00000000
00000000
00000000
,
00000000
00000000
00000000
00000000
,
00000300
00001100
00000011
00000000
00000000
00000000
00000000
00000000
00000000
00000000
00000000
00000000
00000000
00000000
00000000
00000000
00000000
00000000
00000000
00000000
00000000
00000000
00000000
00000000
;
