#VERSION:0.81;
#TITLE:CYPHER GATE;
#SUBTITLE:HI-BREAK CORE;
#ARTIST:7 SEQUENCE;
#TITLETRANSLIT:;
#SUBTITLETRANSLIT:;
#ARTISTTRANSLIT:;
#GENRE:;
#ORIGIN:;
#CREDIT:;
#BANNER:CYPHER GATE.png;
#BACKGROUND:CYPHER GATE-bg.png;
#PREVIEWVID:;
#JACKET:;
#CDIMAGE:;
#DISCIMAGE:;
#LYRICSPATH:;
#CDTITLE:;
#MUSIC:CYPHER GATE.mp3;
#OFFSET:1.671;
#SAMPLESTART:1.476;
#SAMPLELENGTH:12.000;
#SELECTABLE:YES;
#DISPLAYBPM:150.000;
#BPMS:0.000=150.000;
#STOPS:;
#DELAYS:;
#WARPS:;
#TIMESIGNATURES:0.000=4=4;
#TICKCOUNTS:0.000=4;
#COMBOS:0.000=1;
#SPEEDS:0.000=1.000=0.000=0;
#SCROLLS:0.000=1.000;
#FAKES:;
#LABELS:0.000=Song Start;
#BGCHANGES:;
#KEYSOUNDS:;
#ATTACKS:
;

//---------------dance-single - ----------------
#NOTEDATA:;
#CHARTNAME:;
#STEPSTYPE:dance-single;
#DESCRIPTION:;
#CHARTSTYLE:;
#DIFFICULTY:Hard;
#METER:15;
#RADARVALUES:0.694,0.808,0.131,0.075,0.425,498.000,14.000,8.000,0.000,0.000,0.000,0.000,0.000,0.694,0.808,0.131,0.075,0.425,498.000,14.000,8.000,0.000,0.000,0.000,0.000,0.000;
#CREDIT:;
#OFFSET:1.581;
#BPMS:0.000=150.000
;
#STOPS:;
#DELAYS:;
#WARPS:;
#TIMESIGNATURES:0.000=4=4
;
#TICKCOUNTS:0.000=4
;
#COMBOS:0.000=1
;
#SPEEDS:0.000=1.000=0.000=0
;
#SCROLLS:0.000=1.000
;
#FAKES:;
#LABELS:0.000=Song Start
;
#DISPLAYBPM:150.000;
#NOTES:
0000
0000
0000
0000
,
0200
0000
0000
0000
,
0310
0000
0001
0000
1000
0000
0001
0100
0000
0100
0001
0000
1000
0000
0100
0000
,
1000
0000
0010
0000
0100
0000
0001
0100
0000
0100
0010
0000
1000
0000
0001
1000
,
0000
0000
1000
0000
0010
0000
0100
0000
0001
1000
0001
0000
1000
0000
0010
0000
,
0100
0000
0010
1000
0000
0001
0010
0000
0100
1000
0000
1000
0001
0000
1000
0000
,
0010
0000
0100
0000
0001
0000
1000
0010
0000
0010
1000
0000
0001
0000
1000
0000
,
0100
0000
0010
0000
0100
0000
1000
0100
0000
0100
0010
0000
0001
0000
1000
0001
,
0000
0000
0010
0000
1000
0000
0001
0000
1000
0100
1000
0000
0001
0000
0100
0000
,
0010
0020
1000
2030
0002
3000
0000
0003
,
0100
0001
0010
0001
0100
0001
0010
0001
,
0100
0010
1000
0010
0100
0010
0001
0010
,
0100
1000
0001
1000
0010
1000
0001
1000
,
0010
0100
0001
0100
0010
0100
1000
0100
,
1001
1000
0010
1000
0001
1000
0100
1000
,
0001
0010
0100
0010
1000
0010
0100
0010
,
1000
0001
0100
0001
0010
0001
0100
0001
,
0010
0100
0001
0100
0010
0110
1000
0110
,
0001
0100
1000
0100
0010
1000
0010
0001
,
1000
0100
0001
0010
0001
0010
1000
0100
,
0001
0010
1000
0010
0100
1000
0100
0001
,
1000
0010
0001
0100
0001
0100
1000
0010
,
0110
0100
1000
0001
1000
0100
0010
0001
,
0010
1000
0001
0010
0100
1000
0001
0010
,
0100
0000
1000
0001
1000
0000
0010
0000
0100
0000
0001
1000
0001
0000
0010
0000
,
0100
0000
1000
0001
1000
0000
0010
0000
0000
0000
0100
0000
0100
0000
0100
0000
,
0010
0000
1000
0000
0001
0000
1000
0010
0000
0000
0010
0000
1000
0000
0001
0000
,
0010
0000
0001
0000
1000
0000
0001
0010
0000
0000
0001
0000
1000
0000
0010
0000
,
0100
0000
0001
0000
1000
0000
0100
1000
0000
0000
0100
0000
1000
0000
0001
0000
,
0100
0000
0001
0000
1000
0000
0001
0100
0000
0000
0010
0000
1000
0000
0001
0000
,
0100
0000
0100
0000
0010
0000
1000
0001
0000
0001
1000
0000
0001
0000
1000
0000
,
0100
0000
0100
0000
0010
0000
0001
1000
0000
1000
0001
0000
1000
0000
0001
0000
,
0100
0000
0100
0000
0010
0000
1000
0001
0000
0001
1000
0000
0010
0000
1000
0000
,
0001
0000
0001
0000
1000
0000
0100
1000
0000
1000
0100
0000
0010
0000
0001
0000
,
0100
0000
0000
0100
0000
0000
0100
0000
0000
0000
0010
0000
0010
0000
1000
0001
,
1000
0000
0000
0001
0000
0000
1000
0000
0110
0000
0000
0110
0000
0000
0100
0010
,
0100
0000
0000
0001
0000
0000
0001
0000
0000
0000
1000
0000
0001
0000
1000
0000
,
0100
0000
0000
0100
0000
0000
0100
0000
0000
0000
0010
0000
0001
0000
1000
0000
,
0010
0000
0000
1000
0000
0001
1000
0000
0001
0000
0000
0010
0000
0100
1000
0000
,
0010
0000
0000
0100
0000
0001
1000
0000
0001
0000
0000
0010
0000
0100
1000
0000
,
0010
0000
0000
0100
0001
0000
0000
0001
0010
0000
0000
0010
1000
0000
0000
1000
,
0100
1000
0010
0001
0100
0001
0010
1000
,
0200
0000
0000
0000
0000
0000
0000
0000
0000
0000
0300
0000
0000
0010
0100
0010
,
0200
0001
0010
1300
,
0010
0000
1000
0000
0001
0000
1000
0000
0100
0000
1000
0001
0000
1000
0001
1000
,
0100
0000
1000
0000
0010
0000
1000
0000
0001
0000
0100
0001
0000
0001
1000
0000
,
0010
0000
0100
0000
0010
0000
1000
0000
0001
0000
0010
0100
0000
0100
0010
0001
,
1000
0000
0010
0000
0100
0000
0010
0000
0001
0000
0010
0100
0000
0100
1000
0100
,
0001
0000
0010
0000
1000
0000
0001
0000
1000
0000
0010
0001
0000
0001
1000
0000
,
0100
0000
1000
0000
0010
0000
0001
0000
1000
0000
0100
0001
0000
0001
1000
0000
,
0100
0000
0010
0000
0001
0000
1000
0000
0001
0000
0010
0100
0000
0100
1000
0100
,
0010
0000
0001
0000
0100
0000
0010
0000
1000
0001
1000
0000
0001
0000
0100
0000
,
0010
1000
0010
0000
0100
0000
0001
0000
1000
0001
1000
0000
0100
0000
0010
0000
,
0001
0010
0001
0000
1000
0000
0010
0000
1000
0010
1000
0000
0001
0000
0100
0000
,
0001
1000
0001
0000
1000
0000
0100
0000
0010
0100
0010
0000
0001
0000
0100
0000
,
0001
0100
0001
0000
1000
0000
0010
0000
1000
0001
1000
0000
0001
0000
0100
0000
,
0010
0000
0100
0000
0001
0000
1000
0000
0010
0000
1000
0001
0000
0001
1000
0001
,
1000
0000
0100
0000
0010
0000
0001
0000
1000
0000
0001
1000
0000
0001
1000
0001
,
0110
1100
0110
0011
0110
1100
0110
0011
,
0001
0000
1000
0000
0001
0000
1000
0000
0001
1000
0001
1000
0001
1000
0001
1000
,
0200
0000
0000
0000
0000
0000
0000
0000
0010
0000
0010
0000
0310
0100
1000
0001
,
0200
0000
0000
0300
;

//---------------dance-single - ----------------
#NOTEDATA:;
#CHARTNAME:;
#STEPSTYPE:dance-single;
#DESCRIPTION:;
#CHARTSTYLE:;
#DIFFICULTY:Challenge;
#METER:18;
#RADARVALUES:0.911,0.924,0.159,0.103,1.000,654.000,17.000,11.000,0.000,0.000,0.000,0.000,0.000,0.911,0.924,0.159,0.103,1.000,654.000,17.000,11.000,0.000,0.000,0.000,0.000,0.000;
#CREDIT:;
#OFFSET:1.581;
#BPMS:0.000=150.000
;
#STOPS:;
#DELAYS:;
#WARPS:;
#TIMESIGNATURES:0.000=4=4
;
#TICKCOUNTS:0.000=4
;
#COMBOS:0.000=1
;
#SPEEDS:0.000=1.000=0.000=0
;
#SCROLLS:0.000=1.000
;
#FAKES:;
#LABELS:0.000=Song Start
;
#DISPLAYBPM:150.000;
#NOTES:
0000
0000
0000
0000
,
1100
0011
0101
1010
,
0010
1000
0010
0000
0100
0000
0001
1000
0000
1000
0001
0000
0010
0000
0100
0000
,
0010
0001
0010
0000
0100
0000
1000
0001
0000
0001
1000
0000
0001
0000
0010
0100
,
0000
0000
1000
0000
0101
0000
1000
0000
0010
1000
0010
0000
0100
0000
0001
0000
,
1000
0000
0001
0100
0000
0010
1000
0000
0001
0100
0001
0000
1000
0000
0000
0000
,
0001
0010
0001
0000
0100
0000
0010
1000
0000
1000
0001
0000
0010
0000
0100
0000
,
1000
0100
1000
0000
0001
0000
1000
0010
0000
0010
0100
0000
0001
0000
1000
0100
,
0000
0000
0010
0000
1100
0000
0010
0000
0001
1000
0001
0000
0100
0000
0001
0000
,
2000
0100
0100
0001
0001
0010
3010
0000
,
1000
0010
1000
0000
0001
1000
0001
0000
1000
0100
1000
0000
0100
0010
0100
0000
,
0010
0001
0010
0000
0001
1000
0001
0000
0100
0001
0100
0000
0010
0100
0010
0000
,
1000
0010
1000
0000
0001
1000
0001
0000
0010
0001
0010
0000
0001
1000
0001
0000
,
0100
0001
0100
0000
0001
1000
0001
0000
1000
0100
1000
0000
0001
1000
0001
0000
,
1000
0010
0100
0000
0010
0100
0001
0000
0100
0010
1000
0000
0010
1000
0001
0000
,
0010
0001
0100
0000
0001
0010
0100
0000
0010
0100
1000
0000
1000
0100
0010
0000
,
0001
1000
0010
0000
1000
0000
0220
0330
1000
0001
0010
0000
0001
0000
0220
0330
,
0100
0000
1000
0000
0001
0000
0000
0000
1000
0000
0000
0000
0220
0000
0330
0000
0001
0000
0000
0000
1000
0001
1000
0000
0100
0000
0000
0000
1000
0001
1000
0000
,
0100
1000
0010
0000
0100
0010
0001
0000
1000
0001
0010
0000
1000
0001
0010
0000
,
0001
0010
0100
0000
0010
1000
0001
0000
1000
0010
0001
0000
1000
0001
0100
0000
,
0010
0001
1000
0000
0100
1000
0001
0000
0010
1000
0001
0000
1000
0100
0001
0000
,
1000
0010
0100
0000
1000
0010
0001
0000
0010
0000
0100
0001
0000
1000
0010
0000
,
0100
0000
0101
0000
0001
0010
1000
0000
0100
0000
1100
0000
1000
0010
0001
0000
,
0100
0000
0101
0000
0001
0010
1000
0000
1000
0100
0001
0000
0001
1000
0001
0000
,
1000
0000
1000
0100
0001
0000
0010
0000
0001
0000
0010
1000
0100
0000
0010
0000
,
0100
0000
1000
0010
0001
0000
0100
0000
0001
0000
0100
1000
0001
0000
1000
0000
,
0001
0000
0001
0000
0001
0000
1000
0001
0000
0001
0100
0001
0100
0001
0100
0001
,
1000
0000
1000
0000
1000
0000
0001
1000
0000
1000
0100
1000
0100
1000
0100
1000
,
0010
0000
0010
0000
0010
0000
0100
0010
0000
0010
1000
0010
1000
0010
1000
0010
,
0100
0000
0100
0000
0100
0000
0010
0100
0000
0100
0001
0100
0001
0100
0001
0100
,
0010
0000
0010
0000
0010
0000
1000
0010
0000
0100
0001
0100
0001
1000
0010
1000
,
0100
0000
0100
0000
0100
0000
1000
0100
0000
0010
0001
0010
0001
1000
0010
1000
,
0010
0000
0010
0000
1000
0000
0001
1000
0000
1000
0001
1000
0010
0100
0001
0100
,
0010
0000
0010
0000
1000
0000
0001
1000
0000
1000
0001
0010
0001
0010
0100
0010
,
0001
0000
0000
1000
0000
0000
1000
0000
0000
0001
0000
0001
0100
0010
0100
0001
,
1000
0000
0000
0001
0000
0000
0001
0000
0110
0000
0000
1001
0000
0000
1000
0001
,
0010
0000
0000
0100
0000
0000
0100
0000
0000
0010
0000
0001
1000
0001
0100
0010
,
1000
0000
0000
0100
0000
0000
0100
0000
0000
0010
0000
0010
0100
0010
0001
1000
,
0010
0000
0000
0010
0000
0100
0001
0100
0010
0000
0000
0010
0000
0100
0001
0100
,
0010
0000
0000
0010
0000
0100
0001
0100
0010
0000
0000
0010
0000
0100
0001
0100
,
0010
0000
0000
1000
0010
0000
0000
0010
0001
0000
0000
0001
0100
0000
0000
0100
,
1000
0000
1001
0000
1010
0000
0110
0000
0010
1000
0001
0100
0001
1000
0100
0010
,
0002
0000
0000
0000
0000
0000
0000
0000
0000
0000
0000
0000
0003
1000
0100
0010
,
0002
0010
1000
0103
,
0010
1000
0010
0000
0100
0000
0001
0000
1000
0000
0001
1000
0000
1000
0001
1000
,
0001
0010
0001
0000
0010
0000
0100
0000
1000
0000
0001
1000
0000
1000
0001
1000
,
0010
1000
0010
0000
0100
0000
0010
0000
1000
0000
0001
0100
0000
0100
0001
0100
,
0010
1000
0010
0000
1000
0000
0001
0000
1000
0000
0100
0010
0000
0010
0100
0010
,
0001
0100
1000
0000
0100
0000
0001
0000
1000
0000
0001
1000
0000
0100
0010
0100
,
1000
0010
0001
0000
0010
0000
1000
0000
0001
0000
1000
0100
0000
0100
1000
0100
,
0010
0001
0100
0000
0010
0000
0100
0000
0001
0000
0100
0010
0000
0010
1000
0010
,
0100
0001
0010
0000
0100
0000
1000
0000
0001
0000
1000
0010
0000
0010
1000
0010
,
0100
0010
1000
0000
0010
0100
0001
0000
0100
0010
1000
0000
0010
0100
0001
0000
,
0010
0100
1000
0000
0100
0010
0001
0000
0010
0100
1000
0000
0100
0010
0001
0000
,
0010
0100
1000
0100
0010
0001
0010
0000
0100
0010
0001
0010
0100
1000
0100
0000
,
1000
0010
0100
0001
0100
0010
0100
0000
0001
0100
0010
1000
0010
0100
0010
0000
,
0010
1000
0010
0100
0001
0100
0010
1000
0001
0010
0100
1000
0100
0010
0100
1000
,
0001
0010
0100
0010
0001
1000
0010
0100
0010
1000
0001
0100
0010
1000
0100
0010
,
0001
0100
1000
0001
1000
0100
0001
0010
1000
0010
0001
1000
0001
0010
1000
0001
,
0100
1000
0010
0001
1000
0100
0001
1000
0001
1000
0100
0001
1000
0010
0001
0100
,
0020
0000
0100
0000
0000
0100
0000
0000
0100
0000
0130
0001
0100
1000
0100
0001
,
0200
0000
0000
0300
;

//---------------dance-single - ----------------
#NOTEDATA:;
#CHARTNAME:;
#STEPSTYPE:dance-single;
#DESCRIPTION:;
#CHARTSTYLE:;
#DIFFICULTY:Medium;
#METER:10;
#RADARVALUES:0.419,0.462,0.252,0.093,0.000,277.000,27.000,10.000,0.000,0.000,0.000,0.000,0.000,0.419,0.462,0.252,0.093,0.000,277.000,27.000,10.000,0.000,0.000,0.000,0.000,0.000;
#CREDIT:;
#OFFSET:1.581;
#BPMS:0.000=150.000
;
#STOPS:;
#DELAYS:;
#WARPS:;
#TIMESIGNATURES:0.000=4=4
;
#TICKCOUNTS:0.000=4
;
#COMBOS:0.000=1
;
#SPEEDS:0.000=1.000=0.000=0
;
#SCROLLS:0.000=1.000
;
#FAKES:;
#LABELS:0.000=Song Start
;
#DISPLAYBPM:150.000;
#NOTES:
0000
0000
0000
0000
,
0020
0000
0000
0030
,
0100
1000
0001
1000
,
0010
0000
0100
0000
0010
0000
1000
0001
,
0000
0001
1000
0000
0100
0000
0010
0000
,
0100
0000
1000
0000
0001
0001
1000
1000
,
0010
0100
0001
0100
,
0010
0000
1000
0000
0001
0000
0010
0100
,
0000
0100
0010
0000
0001
0000
1000
0000
,
0020
0100
0100
0130
,
0000
0001
0000
1000
0000
0001
0000
1000
,
0000
0010
0000
0100
0000
0010
0000
0100
,
0000
0001
0000
1000
0000
0100
0000
0010
,
0000
0100
0000
1000
0000
0001
0000
0010
,
0000
0001
0000
1000
0000
0010
0000
0001
,
0000
1000
0000
0100
0000
0001
0000
0010
,
0000
0100
0000
1000
0000
0100
0000
0010
,
0000
0001
0000
1000
0000
1001
0000
1001
,
0000
1000
0000
0010
0000
0100
0000
0110
,
0000
0100
0000
0001
0000
0010
0000
0110
,
0000
0100
0000
1000
0000
0001
0000
1001
,
0000
0010
0000
0001
0000
1000
0000
1001
,
0000
0010
0000
1010
0000
0100
0000
0101
,
0000
0001
0000
0011
0000
0100
0000
1100
,
0000
1000
0000
2000
0000
3001
0000
0002
,
0000
0013
0000
0020
0000
0130
0100
0100
,
0010
0000
0001
0010
0000
0010
0100
0000
,
1000
0000
0010
1000
0000
1000
0010
0000
,
0100
0000
0001
1000
0000
1000
0100
0000
,
0010
0000
0100
1000
0000
1000
0001
1000
,
0010
0000
0100
0010
0000
0010
0100
0000
,
0001
0000
1000
0001
0000
0001
1000
0000
,
0100
0000
0010
0001
0000
0001
0010
0000
,
1000
0000
0010
0100
0000
0100
0010
0001
,
1000
0000
1001
0000
1000
1000
1000
0000
,
0001
0101
0200
0300
,
0010
0000
1010
0000
0100
0100
0100
0000
,
0001
0000
0011
0000
1000
1000
1000
0000
,
0010
1010
1000
1001
,
0001
0011
0010
0110
,
0011
1010
1100
0101
,
1100
1010
0011
1001
,
0220
0000
0000
0330
,
0100
0100
0100
0100
,
0001
0010
0001
0010
0001
0000
1000
0000
,
0010
1000
0010
1000
0010
0000
0100
0000
,
0001
1000
0001
1000
0001
0000
1000
0000
,
0100
0010
0100
0010
0100
0000
1000
0000
,
0001
0100
0010
0100
,
0001
0100
0010
0100
,
0010
1000
0100
0010
,
0100
1000
0010
0100
,
0001
0100
0010
0100
0001
0000
1000
0000
,
0100
1000
0010
1000
0100
0000
0010
0000
,
0001
1000
0010
1000
0001
0000
0100
0000
,
0010
1000
0100
1000
0010
0000
0001
0000
,
0010
0100
0001
0100
0010
0000
1000
0000
,
0100
0010
0100
0010
0001
0000
1000
0000
,
0010
1000
0001
1000
0010
0000
0100
0000
,
0001
0100
1000
0100
0001
0100
1000
0100
,
0002
0000
0100
0103
,
0200
0000
0000
0000
0000
0000
0000
0000
0000
0000
0000
0000
0000
0300
0000
0000
;

//---------------dance-single - ----------------
#NOTEDATA:;
#CHARTNAME:;
#STEPSTYPE:dance-single;
#DESCRIPTION:;
#CHARTSTYLE:;
#DIFFICULTY:Easy;
#METER:7;
#RADARVALUES:0.280,0.289,0.084,0.140,0.000,186.000,9.000,15.000,0.000,0.000,0.000,0.000,0.000,0.280,0.289,0.084,0.140,0.000,186.000,9.000,15.000,0.000,0.000,0.000,0.000,0.000;
#CREDIT:;
#OFFSET:1.581;
#BPMS:0.000=150.000
;
#STOPS:;
#DELAYS:;
#WARPS:;
#TIMESIGNATURES:0.000=4=4
;
#TICKCOUNTS:0.000=4
;
#COMBOS:0.000=1
;
#SPEEDS:0.000=1.000=0.000=0
;
#SCROLLS:0.000=1.000
;
#FAKES:;
#LABELS:0.000=Song Start
;
#DISPLAYBPM:150.000;
#NOTES:
0000
0000
0000
0000
,
0200
0000
0000
0300
,
0010
0001
1000
0001
,
0010
0001
0100
0010
,
0000
0010
0100
0010
,
1000
0001
1000
0100
,
0010
0100
1000
0001
,
1000
0010
0100
0001
,
0000
0001
1000
0001
,
0200
0000
0000
0300
,
0000
0001
0000
0000
0000
0001
0000
0000
,
0000
0001
0000
0000
0000
0001
0000
0000
,
0000
1000
0000
0000
0000
1000
0000
0000
,
0000
1000
0000
0000
0000
1000
0000
0000
,
0000
0010
0000
0000
0000
0010
0000
0000
,
0000
0010
0000
0000
0000
0010
0000
0000
,
0000
0100
0000
0000
0000
0100
0000
0000
,
0000
0100
0000
0000
0000
0100
0000
0000
,
0000
0001
0000
0000
0000
1000
0000
0000
,
0000
0001
0000
0000
0000
1000
0000
0000
,
0000
0010
0000
0000
0000
0100
0000
0000
,
0000
0010
0000
0000
0000
0100
0000
0000
,
0000
0001
0000
0000
0000
0100
0000
0000
,
0000
0010
0000
0000
0000
1000
0000
0000
,
0000
1000
0000
0000
0000
0100
0000
0000
,
0000
0010
0000
0000
0000
0001
0000
0000
,
1000
0010
2000
0000
,
3001
0010
0002
0000
,
1003
0100
2000
0000
,
3001
0100
0002
0000
,
1003
0010
2000
0001
,
3001
0010
0002
1000
,
1003
0100
2000
0001
,
3001
0100
0002
1000
,
1003
1001
0001
0001
,
0100
0110
0020
0000
,
0130
0110
0001
0001
,
1000
1001
0010
0010
,
0100
0100
1000
1000
,
0010
0010
0001
0001
,
0100
0001
0010
1000
,
0100
0100
0010
0010
,
0200
0000
0000
0300
,
0010
0010
0010
0010
,
0001
0000
1000
1001
,
0010
0000
0010
0110
,
1000
0000
1000
1001
,
0100
0000
0100
0110
,
0001
0001
1000
1000
,
0010
0010
0100
0100
,
0010
0010
1000
1000
,
0001
0001
0010
0010
,
0100
1000
0100
0010
,
0001
0100
0010
0100
,
0001
0001
1000
1000
,
0001
0001
1000
1000
,
0010
1000
0100
1000
,
0010
0100
0001
0100
,
0010
0010
0100
0100
,
0001
0001
1000
1000
,
2002
0000
3003
0000
,
0020
0000
0000
0030
;

//---------------dance-single - ----------------
#NOTEDATA:;
#CHARTNAME:;
#STEPSTYPE:dance-single;
#DESCRIPTION:;
#CHARTSTYLE:;
#DIFFICULTY:Beginner;
#METER:4;
#RADARVALUES:0.168,0.228,0.037,0.047,0.000,117.000,4.000,5.000,0.000,0.000,0.000,0.000,0.000,0.168,0.228,0.037,0.047,0.000,117.000,4.000,5.000,0.000,0.000,0.000,0.000,0.000;
#CREDIT:;
#OFFSET:1.581;
#BPMS:0.000=150.000
;
#STOPS:;
#DELAYS:;
#WARPS:;
#TIMESIGNATURES:0.000=4=4
;
#TICKCOUNTS:0.000=4
;
#COMBOS:0.000=1
;
#SPEEDS:0.000=1.000=0.000=0
;
#SCROLLS:0.000=1.000
;
#FAKES:;
#LABELS:0.000=Song Start
;
#DISPLAYBPM:150.000;
#NOTES:
0000
0000
0000
0000
,
1000
0000
0000
0000
,
0001
0000
1000
0000
,
0100
0000
0010
0000
,
0100
0000
1000
0000
,
0001
0000
0100
0000
,
0010
0000
0100
0000
,
0010
0000
0100
0000
,
0001
0000
1000
0000
,
0002
0000
0000
0003
,
1000
0000
0000
0000
,
1000
0000
0000
0000
,
1000
0000
0000
0000
,
1000
0000
0000
0000
,
0001
0000
0000
0000
,
0001
0000
0000
0000
,
0001
0000
0000
0000
,
0001
0000
0000
0000
,
0100
0000
0000
0000
,
0010
0000
0000
0000
,
0100
0000
0000
0000
,
0010
0000
0000
0000
,
0001
0000
0000
0000
,
1000
0000
0000
0000
,
0001
0000
0000
0000
,
1000
0000
0000
0000
,
0100
0000
0100
0100
,
0100
0000
0010
0010
,
0010
0000
0001
0001
,
0001
0000
1000
1000
,
1000
0000
0010
0010
,
1000
0000
0001
0001
,
0100
0000
0100
0100
,
0010
0000
1000
1000
,
0001
0000
0000
0000
,
1001
0000
0200
0300
,
0010
0000
0000
0000
,
0110
0000
0000
0000
,
0010
0000
0010
0000
,
0100
0000
0100
0000
,
0001
0001
0001
0001
,
1000
1000
1000
1000
,
2002
0000
0000
0000
,
0000
0000
3003
0000
,
0100
0000
0100
0000
,
0010
0000
0010
0000
,
1000
0000
1000
0000
,
0001
0000
0001
0000
,
1000
0000
0100
0000
,
0001
0000
0010
0000
,
0001
0000
0100
0000
,
1000
0000
0010
0000
,
0100
0100
0100
0000
,
0001
0001
0001
0000
,
0010
0010
0010
0000
,
1000
1000
1000
0000
,
0001
0001
0001
0000
,
0100
0100
0100
0000
,
1000
1000
1000
0000
,
0010
0010
0010
0010
,
0020
0000
0000
0030
,
1001
0000
0000
0000
;

//---------------dance-double - ----------------
#NOTEDATA:;
#CHARTNAME:;
#STEPSTYPE:dance-double;
#DESCRIPTION:;
#CHARTSTYLE:;
#DIFFICULTY:Hard;
#METER:15;
#RADARVALUES:0.681,0.577,0.150,0.075,0.393,486.000,16.000,8.000,0.000,0.000,0.000,0.000,0.000,0.681,0.577,0.150,0.075,0.393,486.000,16.000,8.000,0.000,0.000,0.000,0.000,0.000;
#CREDIT:;
#OFFSET:1.581;
#BPMS:0.000=150.000
;
#STOPS:;
#DELAYS:;
#WARPS:;
#TIMESIGNATURES:0.000=4=4
;
#TICKCOUNTS:0.000=4
;
#COMBOS:0.000=1
;
#SPEEDS:0.000=1.000=0.000=0
;
#SCROLLS:0.000=1.000
;
#FAKES:;
#LABELS:0.000=Song Start
;
#DISPLAYBPM:150.000;
#NOTES:
00000000
00000000
00000000
00000000
,
00022000
00000000
00000000
00033000
,
00010000
00000000
00001000
00000000
00010000
00000000
00000010
00010000
00000000
00010000
00001000
00000000
00010000
00000000
01000000
00000000
,
00010000
00000000
00001000
00000000
00010000
00000000
00001000
00100000
00000000
00100000
00010000
00000000
10000000
00000000
00100000
10000000
,
00000000
00000000
10000000
00000000
00100000
00000000
00010000
00000000
00001000
00010000
00001000
00000000
00010000
00000000
00001000
00000000
,
00000010
00000000
00000001
00001000
00000000
00000001
00000010
00000000
00000100
00001000
00000000
00000100
00010000
00000000
00001000
00000000
,
00100000
00000000
01000000
00000000
10000000
00000000
00010000
01000000
00000000
01000000
00010000
00000000
10000000
00000000
00100000
00000000
,
01000000
00000000
00100000
00000000
00010000
00000000
00001000
01000000
00000000
01000000
00010000
00000000
00100000
00000000
00001000
00010000
,
00000000
00000000
00001000
00000000
00000100
00000000
00000010
00000000
00001000
00000001
00001000
00000000
00000100
00000000
00001000
00000000
,
00002002
00000000
00000000
00003003
,
00001000
00000100
00000001
00000100
00001000
00000100
00000010
00000100
,
00001000
00000010
00000001
00000010
00000100
00000010
00000100
00001000
,
00010000
00100000
10000000
00100000
00010000
00100000
01000000
00010000
,
10000000
01000000
00010000
01000000
10000000
00100000
00010000
00100000
,
00010000
00001000
00000100
00000010
00000100
00001000
00010000
01000000
,
00100000
01000000
00010000
00001000
00010000
00000100
00000010
00001000
,
00010000
01000000
00100000
00010000
00100000
01000000
00010000
00001000
,
00000100
00000010
00000100
00001000
00000100
00001000
00010000
00100000
,
01000000
01000000
00100000
00100000
10000000
10000000
01000000
01000000
,
00100000
00100000
10000000
10000000
00010000
00010000
00001000
00001000
,
00010000
00010000
00000010
00000010
00000100
00000100
00001000
00001000
,
00000001
00000001
00000010
00000010
00000100
00000100
00001000
00001000
,
00010000
00100000
10000000
00100000
00010000
00001000
00000100
00000001
,
00000100
00001000
00010000
00100000
10000000
01000000
00010000
00001000
,
00000100
00000000
00000010
00000100
00000010
00000000
00000100
00000000
00000001
00000000
00001000
00000001
00001000
00000000
00000100
00000000
,
00010000
00000000
00001000
00100000
00001000
00000000
00100000
00000000
00010000
00000000
10000000
00000000
10000000
00000000
10000000
00000000
,
00100000
00000000
00100000
00000000
10000000
00000000
10000000
00010000
00000000
00010000
10000000
00000000
00100000
00000000
00010000
00000000
,
00001000
00000000
00001000
00000000
00010000
00000000
00010000
00001000
00000000
00001000
00010000
00000000
00000100
00000000
00000100
00000000
,
00000010
00000000
00000010
00000000
00000001
00000000
00000001
00001000
00000000
00001000
00000010
00000000
00000100
00000000
00000100
00000000
,
00001000
00000000
00001000
00000000
00010000
00000000
00010000
00000100
00000000
00000100
00001000
00000000
00010000
00000000
01000000
00000000
,
00100000
00000000
00010000
00000000
10000000
00000000
00010000
10000000
00000000
10000000
00010000
00000000
01000000
00000000
01000000
00000000
,
00100000
00000000
00010000
00000000
00001000
00000000
00010000
00000100
00000000
00000100
00000010
00000000
00000001
00000000
00001000
00000000
,
00000001
00000000
00000100
00000000
00001000
00000000
00000100
00010000
00000000
00001000
00100000
00000000
10000000
00000000
00010000
00000000
,
10000000
01000000
00010000
00001000
00010000
00001000
00000100
00000001
,
00001000
00000000
00000000
00001000
00000000
00000000
00001000
00000000
00000000
00000000
00000100
00000000
00000100
00000000
00010000
00000000
,
00010000
00000000
00000000
00001000
00000000
00000000
00010000
00000000
01001000
00000000
00000000
01010000
00000000
00000000
01000000
00100000
,
01000000
00000000
00000000
00010000
00000000
00000000
00010000
00000000
00000000
00000000
10000000
00000000
01000000
00000000
00100000
00000000
,
00001000
00000000
00000000
00001000
00000000
00000000
00001000
00000000
01000000
00000000
00100000
00000000
00010000
00000000
00001000
00000000
,
00010000
00000000
00000000
00001000
00000000
00010000
00000100
00000000
00000010
00000000
00000000
00000100
00000000
00010000
00001000
00000000
,
00010000
00000000
00000000
00001000
00000000
00010000
00000010
00000000
00000100
00000000
00000000
00001000
00000000
00010000
00001000
00000000
,
00011000
01001000
01010000
01100000
,
00100000
10000000
00010000
10000000
01000000
00010000
00001000
00000100
,
00000002
00000000
00000000
00000000
00000000
00000000
00000000
00000000
00000000
00000000
00000000
00000000
00000003
00001000
00000100
00010000
,
00002000
00000000
00000000
00003000
,
00010000
00000000
01000000
00000000
10000000
00000000
01000000
00000000
00010000
00000000
00001000
00010000
00000000
00010000
00001000
00010000
,
00001000
00000000
00000100
00000000
00000001
00000000
00000100
00000000
00001000
00000000
00010000
00001000
00000000
00001000
00010000
00000000
,
01000000
00000000
00100000
00000000
00010000
00000000
00100000
00000000
01000000
00000000
10000000
00100000
00000000
00100000
10000000
00100000
,
01000000
00000000
00100000
00000000
00010000
00000000
00001000
00000000
00010000
00000000
00001000
00000100
00000000
00000100
00001000
00000100
,
00001000
00000000
00000001
00000000
00000010
00000000
00000001
00000000
00001000
00000000
00000100
00010000
00000000
00010000
00000100
00010000
,
00000100
00000000
00010000
00000000
00001000
00000000
01000000
00000000
00100000
00000000
10000000
00100000
00000000
00100000
10000000
00100000
,
10000000
00000000
00100000
00000000
00010000
00000000
00001000
00000000
00010000
00000000
00000100
00000010
00000000
00000010
00000100
00000010
,
00000100
00000000
00001000
00000000
00000001
00000000
00000100
00000000
00000010
00000000
00001000
00000100
00000000
00000100
00001000
00000100
,
00001000
00000100
00000011
00000001
00000100
00001000
00011000
00010000
,
00100000
10000000
11000000
10000000
00100000
00010000
00011000
00000100
,
00000010
00001000
00001100
00000100
00000010
00000001
00001001
00000100
,
00001000
00010000
00110000
00100000
10000000
00010000
10010000
10000000
,
01000000
00000000
00100000
00000000
00010000
00000000
00100000
00000000
01000000
00000000
00100000
00010000
00000000
00010000
00100000
00010000
,
10000000
00000000
00100000
00000000
00010000
00000000
00001000
00000000
00000100
00000000
00000010
00001000
00000000
00001000
00000010
00001000
,
00000001
00000100
00001000
00010000
00100000
10000000
00010000
10000000
,
01000000
00000000
00010000
00000000
00001000
00000000
00000100
00000000
00000001
00001000
00000001
00001000
00000001
00001000
00000001
00001000
,
00000200
00000000
00000000
00000000
00000000
00000000
00000000
00000000
00010300
00000000
00010000
00000000
00010000
00001000
01000000
00010000
,
00200000
00000000
00000000
00300000
;

//---------------dance-double - ----------------
#NOTEDATA:;
#CHARTNAME:;
#STEPSTYPE:dance-double;
#DESCRIPTION:;
#CHARTSTYLE:;
#DIFFICULTY:Challenge;
#METER:19;
#RADARVALUES:0.923,1.000,0.131,0.093,1.000,667.000,14.000,10.000,0.000,0.000,0.000,0.000,0.000,0.923,1.000,0.131,0.093,1.000,667.000,14.000,10.000,0.000,0.000,0.000,0.000,0.000;
#CREDIT:;
#OFFSET:1.581;
#BPMS:0.000=150.000
;
#STOPS:;
#DELAYS:;
#WARPS:;
#TIMESIGNATURES:0.000=4=4
;
#TICKCOUNTS:0.000=4
;
#COMBOS:0.000=1
;
#SPEEDS:0.000=1.000=0.000=0
;
#SCROLLS:0.000=1.000
;
#FAKES:;
#LABELS:0.000=Song Start
;
#DISPLAYBPM:150.000;
#NOTES:
00000000
00000000
00000000
00000000
,
00020000
00032000
00023000
00032000
,
00013000
00000100
00001000
00000000
00000100
00000000
00000010
00000001
00000000
00000001
00000010
00000000
00000100
00000000
00001000
00000000
,
00000001
00000100
00000010
00000000
00001000
00000000
00000100
00010000
00000000
00010000
00001000
00000000
00100000
00000000
00010000
01000000
,
00000000
00000000
01000000
00000000
00100000
00000000
10000000
00000000
00010000
10000000
00010000
00000000
10000000
00000000
00100000
00000000
,
00010000
00100000
01000000
00000000
00010000
00000000
00100000
00000000
00001000
00010000
00000000
00001000
00000100
00000000
00000010
00000000
,
00000100
00000001
00001000
00000000
00000100
00000000
00010000
00000010
00000000
00001000
00000100
00000000
00010000
00000000
00001000
00000000
,
00100000
00010000
10000000
00000000
00100000
00000000
00010000
00100000
00000000
10000000
00010000
00000000
01000000
00000000
00001000
00010000
,
00000000
00000000
00010000
00000000
00000100
00000000
00000010
00000000
00001000
00010000
00000100
00000000
00010000
00000000
00001000
00000000
,
00022000
00000000
00000000
00033000
,
00010000
00001000
00000100
00000000
00001000
00000100
00000010
00000000
00000100
00000010
00000001
00000000
00000010
00000001
00001000
00000000
,
00000001
00001000
00000100
00000000
00001000
00000100
00010000
00000000
00000100
00010000
00001000
00000000
00010000
00001000
00100000
00000000
,
00010000
00100000
10000000
00000000
00100000
10000000
01000000
00000000
10000000
01000000
00100000
00000000
01000000
00100000
00010000
00000000
,
00100000
00010000
00001000
00000000
00010000
00001000
00000100
00000000
00001000
00000100
00010000
00000000
00000100
00010000
00000010
00000000
,
00000100
00000001
00000010
00000000
00000100
00001000
00000001
00000000
00000100
00001000
00010000
00000000
00001000
00010000
00000100
00000000
,
00010000
01000000
00100000
00000000
00010000
10000000
00100000
00000000
00010000
00100000
01000000
00000000
00001000
00010000
00000100
00000000
,
00001000
00000100
00000010
00000000
00000001
00001000
00000100
00000000
00000010
00000100
00010000
00000000
00001000
01000000
00100000
00000000
,
00010000
00000000
00100000
00000000
10000000
00000000
00000000
00000000
00010000
00000000
01000000
00000000
00100000
00000000
00000000
00000000
00010000
00000000
00000000
00000000
00001000
00010000
00001000
00000000
00010000
00000000
00000000
00000000
00000100
00001000
00000100
00000000
,
00000010
00000001
00000100
00000000
00000100
00000010
00001000
00000000
00001000
00000100
00010000
00000000
00010000
00001000
01000000
00000000
,
01000000
00100000
10000000
00000000
10000000
01000000
00010000
00000000
00010000
00001000
01000000
00000000
01000000
00100000
00010000
00000000
,
00010000
00001000
00000100
00000000
00000100
00001000
00010000
00000000
00010000
00000010
00000100
00000000
00000100
00000001
00001000
00000000
,
00001000
00000100
00010000
00000000
00010000
00001000
01000000
00000000
01100000
00000000
10000000
00010000
00000000
00010000
10000000
00000000
,
10000000
00100000
00010000
00000000
00001000
00000100
00000001
00000000
00000010
00001000
00010000
00000000
01000000
00100000
00010000
00000000
,
10000000
01000000
00010000
00000000
00001000
00010000
00000100
00000000
00000010
00000001
00000100
00000000
00001000
00010000
00100000
00000000
,
01000000
00000000
00100000
10000000
00100000
00000000
01000000
00000000
00010000
00000000
00100000
00001000
00100000
00000000
00000100
00000000
,
00010000
00000000
00000010
00001000
00000010
00000000
00000100
00000000
00000001
00000100
00000010
00001000
00000001
00001000
00000100
00000010
,
00000001
00000000
00000001
00000000
00000001
00000000
00001000
00000100
00000000
00010000
00001000
00010000
00001000
00010000
00001000
00010000
,
01000000
00000000
01000000
00000000
01000000
00000000
00100000
00010000
00000000
10000000
00100000
10000000
00100000
10000000
00100000
10000000
,
00010000
00000000
00010000
00000000
00010000
00000000
00010000
00100000
00000000
00001000
00010000
00001000
00010000
00001000
00010000
00001000
,
00000100
00000000
00000100
00000000
00000100
00000000
00000100
00000010
00000000
00000010
00001000
00000010
00001000
00000010
00001000
00000010
,
00010000
00000000
00010000
00000000
00001000
00000000
00010000
00001000
00000000
00001000
00100000
00010000
00100000
01000000
00100000
00010000
,
01000000
00000000
01000000
00000000
00100000
00000000
10000000
00010000
00000000
00010000
00100000
00001000
00010000
00001000
00100000
00001000
,
00010000
00000000
00010000
00000000
00010000
00000000
00010000
00000010
00000000
00000010
00000100
00001000
00000100
00000010
00000100
00000001
,
00000100
00000000
00000100
00000000
00001000
00000000
00010000
00100000
00000000
00100000
10000000
00010000
01000000
00010000
10000000
00100000
,
01000000
00000000
00000000
01000000
00000000
00000000
01000000
00000000
10000000
00000000
10000000
01000000
00010000
00001000
00000010
00000001
,
00001000
00000000
00000000
00001000
00000000
00000000
00001000
00000000
00001100
00000000
00000000
00000110
00000000
00000000
00000101
00000001
,
00000010
00000000
00000000
00000010
00000000
00000000
00000010
00000000
00000001
00000000
00000001
00000010
00001000
00010000
01000000
10000000
,
00010000
00000000
00000000
00010000
00000000
00000000
00010000
00000000
10000000
00000000
10000000
00100000
00010000
00001000
00000100
00000010
,
00001000
00000000
00000000
00001000
00000000
00000001
00000100
00001000
00010000
00000000
00000000
00010000
00000000
00100000
10000000
01000000
,
00100000
00000000
00000000
00100000
00000000
00001000
00010000
00000010
00000100
00000000
00000000
00000100
00000000
00001000
00010000
00100000
,
10000000
00000000
00000000
10000000
01000000
00000000
00000000
10000000
00010000
00000000
00000000
10000000
00100000
00000000
00000000
10000000
,
10010000
00000000
01010000
00000000
01001000
00000000
00011000
00000000
00010100
00000000
00000110
00000000
00000010
00000001
00000100
00001000
,
00020000
00000000
00000000
00000000
00000000
00000000
00000000
00000000
00000000
00000000
00000000
00000000
00030000
00010000
01000000
10000000
,
00200000
01000000
01000000
01300000
,
00100000
10000000
00100000
00000000
01000000
00000000
00100000
00000000
00010000
00000000
00010000
00001000
00000000
00001000
00010000
00000100
,
00000010
00000001
00000010
00000000
00000100
00000000
00000010
00000000
00001000
00000000
00001000
00010000
00000000
00010000
00001000
00000000
,
01000000
00010000
01000000
00000000
00100000
00000000
10000000
00000000
00100000
00000000
00010000
00001000
00000000
00001000
00000100
00000001
,
00000100
00001000
00000100
00000000
00000010
00000000
00000001
00000000
00000010
00000000
00001000
00010000
00000000
00010000
01000000
00100000
,
10000000
01000000
00010000
00000000
00001000
00000000
00010000
00000000
00000100
00000000
00001000
00000010
00000000
00000010
00000100
00000001
,
00001000
00000010
00000001
00000000
00000010
00000000
00001000
00000000
00000100
00000000
00010000
00001000
00000000
00001000
01000000
00100000
,
00010000
00001000
00000100
00000000
00001000
00000000
00010000
00000000
01000000
00000000
00100000
00010000
00000000
00100000
00001000
00010000
,
00000100
00000010
00000001
00000000
00000100
00000000
00001000
00000000
00010000
00000000
00001000
00100000
00000000
00100000
01000000
00000000
,
10000000
00100000
00010000
00100000
10000000
00100000
00010000
00000000
10000000
01000000
00010000
01000000
10000000
01000000
00010000
00000000
,
00001000
00000010
00000001
00000010
00001000
00000010
00000001
00000000
00001000
00000100
00000001
00000100
00001000
00000100
00000001
00000000
,
00000001
00000010
00001000
00000010
00000001
00000010
00001000
00000000
00000001
00000100
00001000
00000100
00000001
00000100
00001000
00000000
,
00010000
00100000
10000000
00100000
00010000
00100000
10000000
00000000
00010000
01000000
10000000
01000000
00010000
01000000
10000000
00000000
,
10000000
01000000
00100000
00010000
00100000
01000000
10000000
00010000
10000000
00100000
01000000
00010000
01000000
00100000
10000000
00010000
,
00100000
00001000
00010000
00000100
00010000
00001000
00100000
00001000
00000100
00000010
00001000
00000001
00001000
00000010
00000100
00000001
,
00001000
00000001
00001000
00000000
00000100
00000000
00001000
00000000
00000001
00000000
00000100
00000000
00001000
00000000
00010000
00000000
00001000
00010000
00001000
00000000
00010000
00000000
00100000
00000000
10000000
00000000
01000000
00000000
00100000
00000000
00010000
00000000
,
10000000
01000000
10000000
00000000
00010000
00000000
01000000
00000000
00010000
00100000
00010000
00000000
00100000
00000000
00001000
00000000
00010000
00000010
00010000
00000000
00001000
00000000
00000001
00000000
00000100
00000010
00000100
00000000
00000010
00000000
00001000
00000000
,
00000002
00000000
00000000
00001000
00000000
00000000
00001000
00000000
00000003
00000001
00000100
00001100
00010000
00110000
10000000
10010000
,
02000000
00000000
00000000
00000000
00000000
00000000
00000000
00000000
00000000
00000000
00000000
00000000
00000000
03000000
00000000
00000000
;

//---------------dance-double - ----------------
#NOTEDATA:;
#CHARTNAME:;
#STEPSTYPE:dance-double;
#DESCRIPTION:;
#CHARTSTYLE:;
#DIFFICULTY:Medium;
#METER:9;
#RADARVALUES:0.390,0.462,0.112,0.168,0.000,262.000,12.000,18.000,0.000,0.000,0.000,0.000,0.000,0.390,0.462,0.112,0.168,0.000,262.000,12.000,18.000,0.000,0.000,0.000,0.000,0.000;
#CREDIT:;
#OFFSET:1.581;
#BPMS:0.000=150.000
;
#STOPS:;
#DELAYS:;
#WARPS:;
#TIMESIGNATURES:0.000=4=4
;
#TICKCOUNTS:0.000=4
;
#COMBOS:0.000=1
;
#SPEEDS:0.000=1.000=0.000=0
;
#SCROLLS:0.000=1.000
;
#FAKES:;
#LABELS:0.000=Song Start
;
#DISPLAYBPM:150.000;
#NOTES:
00000000
00000000
00000000
00000000
,
00002000
00000000
00000000
00003000
,
00010000
00000010
00010000
00000100
,
00001000
00000000
00000100
00000000
00000010
00000000
00001000
00010000
,
00000000
00010000
00001000
00000000
01000000
00000000
00100000
00000000
,
01000000
00000000
00010000
00000000
10000000
10000000
00100000
00100000
,
10000000
00010000
01000000
00010000
,
00100000
00000000
00001000
00000000
00010000
00000000
00000010
00000100
,
00000000
00000100
00000010
00000000
00001000
00000000
00000001
00000000
,
00002000
00000000
00000000
00003000
,
00000000
00000100
00000000
00000100
00000000
00001000
00000000
00001000
,
00000000
00000001
00000000
00000001
00000000
00000010
00000000
00000010
,
00000000
00000100
00000000
00001000
00000000
00000001
00000000
00000010
,
00000000
00000001
00000000
00000100
00000000
00001000
00000000
00010000
,
00000000
01000000
00000000
01000000
00000000
10000000
00000000
10000000
,
00000000
00010000
00000000
00010000
00000000
00100000
00000000
00100000
,
00000000
00010000
00000000
10000000
00000000
00100000
00000000
00010000
,
00000000
00001000
00000000
00000100
00000000
00001000
00000000
00010000
,
00000000
00100000
00000000
10000000
00000000
00100000
00000000
10000000
,
00000000
00010000
00000000
01000000
00000000
00010000
00000000
01000000
,
00000000
00001000
00000000
00100000
00000000
00001000
00000000
00100000
,
00000000
00000100
00000000
00010000
00000000
00000100
00000000
00010000
,
00000000
00000010
00000000
00001000
00000000
00000010
00000000
00001000
,
00000000
00000001
00000000
00000100
00000000
00000001
00000000
00000100
,
00000000
00000020
00000000
00000130
00000000
00000200
00000000
00000301
,
00000000
00000002
00000000
00001003
00000000
00000001
00000001
00000001
,
00000100
00000000
00000100
00000010
00000000
00000010
00000100
00000000
,
00001000
00000000
00001000
00010000
00000000
00010000
00001000
00000000
,
00100000
00000000
00100000
00010000
00000000
00010000
00100000
00000000
,
01000000
00000000
10000000
00010000
00000000
00010000
10000000
00000000
,
00100000
00000000
01000000
00010000
00000000
00010000
01000000
00000000
,
00001000
00000000
00010000
00000100
00000000
00000100
00010000
00000000
,
00000010
00000000
00000100
00000001
00000000
00000001
00000100
00000000
,
00001000
00010000
00001000
00010000
,
00011000
00001000
00100000
00010000
,
10010000
01010000
02000000
03000000
,
01100000
00100000
00010000
00001000
,
00011000
00010100
00000100
00000010
,
00000100
00001100
00001000
00001001
,
00000001
00000011
00000010
00000110
,
00002000
00003200
00020300
00032000
,
02003000
03020000
00230000
02300000
,
23000000
00000000
00000000
30000000
,
01000000
01000000
01000000
01000000
,
10000000
01000000
10000000
01000000
10000000
00000000
00000000
00000000
,
00010000
00100000
00010000
00100000
00010000
00000000
00000000
00000000
,
10000000
00010000
10000000
00010000
10000000
00000000
00000000
00000000
,
00100000
01000000
00100000
00000000
00100000
00000000
00010000
00000000
,
00001000
00010000
00001000
00010000
00001000
00000000
00000000
00000000
,
00010000
00000100
00010000
00000100
00010000
00000000
00000000
00000000
,
00000100
00000010
00000100
00000010
00000100
00000000
00000000
00000000
,
00001000
00000100
00001000
00000000
00000001
00000000
00000100
00000000
,
00000010
00000010
00000010
00000000
00001000
00000000
00000001
00000000
,
00001000
00001000
00001000
00000000
00000100
00000000
00010000
00000000
,
01000000
01000000
01000000
00000000
00100000
00000000
00010000
00000000
,
10000000
10000000
10000000
00000000
00100000
00000000
01000000
00000000
,
00010000
01000000
00010000
01000000
00010000
00000000
10000000
00000000
,
00010000
00000000
00100000
00001000
00100000
00000000
00101000
00000000
,
00001000
00000000
00010000
00000100
00010000
00000000
00000010
00001000
,
00000010
00000000
00010000
00000100
00010000
00000010
00001000
00000010
,
00020000
00000000
00001000
00031000
,
00022000
00000000
00000000
00033000
;

//---------------dance-double - ----------------
#NOTEDATA:;
#CHARTNAME:;
#STEPSTYPE:dance-double;
#DESCRIPTION:;
#CHARTSTYLE:;
#DIFFICULTY:Easy;
#METER:7;
#RADARVALUES:0.295,0.346,0.140,0.140,0.000,191.000,15.000,15.000,0.000,0.000,0.000,0.000,0.000,0.295,0.346,0.140,0.140,0.000,191.000,15.000,15.000,0.000,0.000,0.000,0.000,0.000;
#CREDIT:;
#OFFSET:1.581;
#BPMS:0.000=150.000
;
#STOPS:;
#DELAYS:;
#WARPS:;
#TIMESIGNATURES:0.000=4=4
;
#TICKCOUNTS:0.000=4
;
#COMBOS:0.000=1
;
#SPEEDS:0.000=1.000=0.000=0
;
#SCROLLS:0.000=1.000
;
#FAKES:;
#LABELS:0.000=Song Start
;
#DISPLAYBPM:150.000;
#NOTES:
// measure 0
00000000
00000000
00000000
00000000
,  // measure 1
00200000
00000000
00000000
00300000
,  // measure 2
01000000
10000000
01000000
00100000
,  // measure 3
00010000
10000000
00010000
00100000
,  // measure 4
00000000
00100000
00001000
00010000
,  // measure 5
00000100
00001000
00000010
00000010
,  // measure 6
00000100
00000001
00000100
00001000
,  // measure 7
00000100
00000010
00001000
00000001
,  // measure 8
00000000
00000001
00000100
00001000
,  // measure 9
00020000
00000000
00000000
00030000
,  // measure 10
00000000
00001000
00000000
00000000
00000000
00001000
00000000
00000000
,  // measure 11
00000000
00010000
00000000
00000000
00000000
00010000
00000000
00000000
,  // measure 12
00000000
00000100
00000000
00000000
00000000
00000100
00000000
00000000
,  // measure 13
00000000
00000010
00000000
00000000
00000000
00000010
00000000
00000000
,  // measure 14
00000000
00000001
00000000
00000000
00000000
00000001
00000000
00000000
,  // measure 15
00000000
00001000
00000000
00000000
00000000
00001000
00000000
00000000
,  // measure 16
00000000
00000010
00000000
00000000
00000000
00000010
00000000
00000000
,  // measure 17
00000000
00000100
00000000
00000000
00000000
00000100
00000000
00000000
,  // measure 18
00000000
00001000
00000000
00000000
00000000
00010000
00000000
00000000
,  // measure 19
00000000
00100000
00000000
00000000
00000000
10000000
00000000
00000000
,  // measure 20
00000000
01000000
00000000
00000000
00000000
00010000
00000000
00000000
,  // measure 21
00000000
00001000
00000000
00000000
00000000
00000100
00000000
00000000
,  // measure 22
00000000
00000010
00000000
00000000
00000000
00001000
00000000
00000000
,  // measure 23
00000000
00000001
00000000
00000000
00000000
00000100
00000000
00000000
,  // measure 24
00000000
00001000
00000000
00000000
00000000
00010000
00000000
00000000
,  // measure 25
00000000
00100000
00000000
00000000
00000000
01100000
00000000
00000000
,  // measure 26
00100000
10000000
00020000
10030000
,  // measure 27
01000000
00100000
00002000
00013000
,  // measure 28
00000010
00000100
00000002
00001003
,  // measure 29
00000100
00010000
00002000
00013000
,  // measure 30
00010000
00000010
00000200
00000301
,  // measure 31
00001000
00000100
00020000
00031000
,  // measure 32
00100000
00010000
02000000
03100000
,  // measure 33
10000000
00010000
20020000
30030000
,  // measure 34
10000000
10000000
01000000
01000000
,  // measure 35
00100000
00100000
00010000
00000000
,  // measure 36
00010000
00010000
01000000
01000000
,  // measure 37
00100000
00100000
10000000
10000000
,  // measure 38
01000000
00000000
01100000
00000000
,  // measure 39
00010000
00000000
00011000
00000000
,  // measure 40
00000100
00000100
00000100
00000100
,  // measure 41
00000110
00000110
00000110
00000110
,  // measure 42
00002002
00000000
00000000
00003003
,  // measure 43
00000100
00000100
00000100
00000100
,  // measure 44
00000010
00001000
00000001
00000001
,  // measure 45
00001000
00000100
00010000
00010000
,  // measure 46
00001000
01000000
00100000
00100000
,  // measure 47
10000000
00010000
01000000
01000000
,  // measure 48
00100000
10000000
01000000
01000000
,  // measure 49
00100000
00001000
00010000
00010000
,  // measure 50
00000010
00000100
00000001
00000001
,  // measure 51
00001000
00000010
00000100
00000100
,  // measure 52
00001000
00011000
00010000
00100000
,  // measure 53
10000000
11000000
01000000
00100000
,  // measure 54
00001000
00011000
00010000
00000010
,  // measure 55
00000100
00000110
00001000
00001000
,  // measure 56
00000001
00000100
00001000
00000100
,  // measure 57
00000001
00000100
00001000
00010000
,  // measure 58
00100000
10000000
00100000
00010000
,  // measure 59
00100000
10000000
00010000
01000000
,  // measure 60
01100000
00000000
00100000
00100000
,  // measure 61
20020000
00000000
00000000
30030000
;
