#TITLE:Bamboo on Bamboo;
#SUBTITLE:Gabba;
#ARTIST:Sampling Masters MEGA;
#TITLETRANSLIT:;
#SUBTITLETRANSLIT:;
#ARTISTTRANSLIT:;
#GENRE:;
#CREDIT:;
#BANNER:Bamboo on Bamboo.png;
#BACKGROUND:Bamboo on Bamboo-bg.png;
#LYRICSPATH:;
#CDTITLE:;
#MUSIC:Bamboo on Bamboo.mp3;
#OFFSET:-0.200;
#SAMPLESTART:29.148;
#SAMPLELENGTH:12.000;
#SELECTABLE:YES;
#DISPLAYBPM:200.000;
#BPMS:0.000=200.000
;
#STOPS:
;
#BGCHANGES:;
#KEYSOUNDS:;
#ATTACKS:;

//---------------dance-single - ----------------
#NOTES:
     dance-single:
     :
     Hard:
     15:
     0.726,0.696,0.442,0.134,0.063,571.000,56.000,17.000,0.000,0.000,0.000,0.726,0.696,0.442,0.134,0.063,571.000,56.000,17.000,0.000,0.000,0.000: // measure 0
0000
0000
0000
0000
,  // measure 1
0000
0000
0000
0000
,  // measure 2
0000
0000
0000
0000
,  // measure 3
0000
0000
0000
0000
,  // measure 4
1000
0000
0001
0100
0000
0100
0001
0000
,  // measure 5
1000
0010
0000
0010
0100
0010
0100
0010
,  // measure 6
1000
0000
0001
0010
0000
0010
0100
0000
,  // measure 7
0100
1000
0000
1000
0001
0100
0001
0100
,  // measure 8
0020
0000
0000
0030
1000
1000
0000
1001
,  // measure 9
0000
0001
0010
0000
0110
0000
0000
0000
,  // measure 10
0010
0001
0010
1000
0000
0001
0001
0000
,  // measure 11
0100
1000
0100
0010
0000
0001
0001
0001
,  // measure 12
0200
0000
0000
0300
0010
0010
0000
1000
,  // measure 13
0000
0001
0100
0000
0110
0000
0000
0000
,  // measure 14
1000
0010
0001
0010
0000
0100
0100
0000
,  // measure 15
1001
0000
0001
0000
0001
0000
0001
0000
0001
0000
0001
0000
0001
1000
0001
1000
,  // measure 16
0100
1000
0001
0010
0001
1000
0100
1000
,  // measure 17
0010
1000
0001
0100
0001
1000
0010
1000
,  // measure 18
0100
0010
0001
0010
0100
1000
0100
0010
,  // measure 19
0002
1000
1000
1003
,  // measure 20
0100
0010
1000
0001
1000
0010
0100
0001
,  // measure 21
0010
0001
1000
0100
1000
0001
0010
0100
,  // measure 22
1000
0010
0001
0010
0100
0010
1000
0100
,  // measure 23
0020
0000
0000
0000
0000
0000
0230
0300
,  // measure 24
2001
0000
0000
0000
3010
0100
0000
0010
,  // measure 25
0000
1000
0001
0000
0011
0000
0000
0000
,  // measure 26
0100
1000
0001
1000
0000
0010
0010
0000
,  // measure 27
0100
0001
0100
0010
0100
0001
0100
0000
,  // measure 28
1002
0000
0000
0000
0103
0010
0000
1000
,  // measure 29
0000
0001
0010
0000
1100
0000
0000
0000
,  // measure 30
1000
0100
0010
0001
0000
1000
1001
0000
,  // measure 31
0110
0000
0100
0000
0100
0000
0100
0000
0100
0000
0100
0000
0010
0100
0010
0100
,  // measure 32
0001
0100
0001
1000
0001
0010
0001
1000
,  // measure 33
0010
1000
0010
0100
0010
0001
0010
0100
,  // measure 34
1000
0001
1000
0100
1000
0001
1000
0010
,  // measure 35
0200
0010
0010
0310
,  // measure 36
1000
0100
1000
0001
1000
0010
1000
0100
,  // measure 37
0010
0001
0010
0100
0010
1000
0010
0100
,  // measure 38
0001
1000
0001
0100
0001
1000
0001
0010
,  // measure 39
0110
0000
0000
0000
,  // measure 40
1000
0100
0000
1100
0000
1000
0100
1100
,  // measure 41
0000
0100
0000
0100
1000
0100
0010
0001
,  // measure 42
0100
0001
0000
0101
0000
0100
0001
0101
,  // measure 43
0000
0110
0000
0100
0001
0000
0000
0000
,  // measure 44
0010
0001
0000
0011
0000
0001
0010
0011
,  // measure 45
0000
0010
0000
0001
0010
0100
1000
0001
,  // measure 46
1000
0010
0000
1010
0000
0010
1000
1010
,  // measure 47
0000
0000
0000
1000
0000
0000
0000
0000
0000
0100
0000
0000
1000
0000
0010
0000
1000
0000
0100
0000
1000
0000
0010
0000
,  // measure 48
0100
1000
0000
1100
0000
1000
0100
1100
,  // measure 49
0000
1000
0000
0001
0100
0010
0100
0001
,  // measure 50
0010
0001
0000
0011
0000
0001
0010
0011
,  // measure 51
0000
0110
0000
0100
1001
0000
0000
0000
,  // measure 52
0001
0100
0000
0101
0000
0100
0001
0101
,  // measure 53
0000
0001
0000
0100
0010
1000
0100
1000
,  // measure 54
0010
1000
0000
1010
0000
1000
0010
1010
,  // measure 55
0000
0000
0000
0110
0000
0000
0000
0000
0000
0100
0000
0000
0001
0000
0100
0000
0010
0000
1000
0000
0100
0000
1000
0000
,  // measure 56
0010
0100
0010
0010
0000
1000
1001
0000
,  // measure 57
0001
0100
1000
0100
0001
1000
0100
0000
,  // measure 58
0010
0100
0010
0100
0020
0000
0030
0000
,  // measure 59
0001
0010
0100
1000
0000
0001
1001
0000
,  // measure 60
1000
0010
0100
0001
0100
0010
1000
0100
,  // measure 61
1000
0001
1000
0100
0020
0000
0030
0000
,  // measure 62
0100
1000
0100
0010
0000
0100
1001
0000
,  // measure 63
1000
1000
1000
0001
0001
0001
1000
0000
,  // measure 64
0010
0100
0010
1000
0010
0100
0001
0000
,  // measure 65
1000
0100
1000
0001
0000
0100
0110
0000
,  // measure 66
0001
0001
0001
1000
1000
1000
0001
0000
,  // measure 67
0100
0001
0100
0010
1000
0100
1000
0000
,  // measure 68
0110
0000
0000
1001
0000
0000
0110
0000
,  // measure 69
0000
1001
0000
0000
1000
0001
1000
0001
,  // measure 70
1000
0001
1000
0001
0100
0010
0100
0010
,  // measure 71
1000
0001
0000
1000
0001
0000
0100
0000
0100
0000
0100
0000
0001
1000
0000
0001
,  // measure 72
1000
0100
0100
0010
0200
0000
0000
0000
,  // measure 73
2300
0000
0002
3003
,  // measure 74
1001
1000
0000
0100
0000
1000
0010
1001
,  // measure 75
0000
0100
0000
0001
0010
0100
1000
0001
,  // measure 76
0100
0100
0000
0110
0000
0010
1000
0010
,  // measure 77
0000
0110
0000
0100
0001
1000
0001
0000
,  // measure 78
1001
0001
0000
0010
0000
0001
0100
1001
,  // measure 79
0000
0010
0000
1000
0100
0010
0001
1000
,  // measure 80
0010
0010
0000
0110
0000
0100
0001
0100
,  // measure 81
0000
1001
0000
0010
1000
0001
1000
0000
,  // measure 82
0100
0001
0000
0001
1000
0001
1000
0000
,  // measure 83
0100
0100
0100
0100
0010
0010
0110
0000
,  // measure 84
0100
1000
0000
1000
0001
1000
0001
0000
,  // measure 85
0200
0000
0320
0000
1030
1000
1000
0000
,  // measure 86
0010
1000
0000
0100
1000
0001
1000
0000
,  // measure 87
0010
0010
1000
1000
0001
0001
0110
0000
,  // measure 88
0100
0001
0000
0010
0001
1000
0001
0000
,  // measure 89
0200
0000
0302
0000
0013
0010
0010
0000
,  // measure 90
0100
1000
1001
0000
0010
0001
1001
0000
,  // measure 91
0100
0010
0100
0100
0000
0110
0000
0010
,  // measure 92
0100
0001
1001
0000
0010
1000
1001
0000
,  // measure 93
0010
0100
0010
0010
0000
0110
0010
0100
,  // measure 94
1000
0010
1000
0001
0000
0001
0100
0010
,  // measure 95
1000
0000
1000
0100
0010
0001
1000
0100
,  // measure 96
1000
0010
0001
0100
0001
0010
1000
0100
,  // measure 97
1000
0010
0100
0010
1000
0001
1000
0100
,  // measure 98
0110
0000
0000
0000
;

//---------------dance-single - ----------------
#NOTES:
     dance-single:
     :
     Medium:
     11:
     0.545,0.619,0.426,0.189,0.000,405.000,54.000,24.000,0.000,0.000,0.000,0.545,0.619,0.426,0.189,0.000,405.000,54.000,24.000,0.000,0.000,0.000:
0000
0000
0000
0000
,
0000
0000
0000
0000
,
0000
0000
0000
0000
,
0000
0000
0000
0000
,
0001
0000
0000
0100
0000
0000
0010
0000
,
0000
1000
0000
0000
0100
0100
0100
0000
,
1000
0000
0000
0100
0000
0000
0010
0000
,
0000
0001
0000
0000
0100
0100
0100
0000
,
2002
0000
3003
0000
1000
1000
0000
1001
,
0000
0001
0100
0000
0110
0000
0000
0000
,
0010
0000
0100
0001
0000
0001
0100
0000
,
0010
0000
1000
0100
0000
0100
1000
0000
,
2002
0000
3003
0000
0010
0010
0000
0110
,
0000
0100
0001
0000
1001
0000
0000
0000
,
0100
0000
0010
0001
0000
0001
0010
0000
,
0100
0000
0100
0000
0100
0100
0100
0100
,
1000
1100
0100
0110
,
0010
0011
0001
1001
,
0001
0101
0100
0110
,
0020
1000
1000
1030
,
0010
1010
1000
1100
,
0100
0110
0010
0011
,
0001
1001
1000
1100
,
0220
0000
0330
0000
,
0002
0000
0003
0000
1000
1000
0000
0010
,
0000
0100
0001
0000
1001
0000
0000
0000
,
1000
0000
0100
1000
0000
1000
0001
0000
,
0100
0010
0100
0000
0010
0100
0010
0000
,
2000
0000
3000
0000
0001
0001
0000
0010
,
0000
0100
1000
0000
1001
0000
0000
0000
,
0001
0000
0001
0100
0000
0010
1000
0000
,
0100
0000
0100
0000
0010
0010
0010
0010
,
0001
0000
0011
0000
0001
0010
0100
0000
,
0010
0000
0110
0000
0100
1000
0010
0000
,
1000
0000
1010
0000
0010
0100
0001
0000
,
0002
0010
0010
0013
,
0110
0000
0100
1000
0100
0000
1000
0000
,
0000
1100
0000
1000
0010
0000
1010
0000
,
0110
0000
0100
0010
0100
0000
0001
0000
,
1001
0000
0000
0000
,
0001
0000
0000
0100
0000
0000
0010
0000
,
0000
0100
0000
0000
0001
0001
0001
0001
,
1000
0000
0000
0100
0000
0000
0010
0000
,
0000
0100
0000
1000
1001
0000
0000
0000
,
1000
0000
0000
0010
0000
0000
0100
0000
,
0000
0001
0000
0000
1000
1000
1000
1000
,
0001
0000
0000
0010
0000
0000
0100
0000
,
0000
1000
0000
0000
2002
0000
3003
0000
,
0001
0000
0000
0100
0000
0000
0010
0000
,
0000
0100
0000
0000
0010
1000
0010
1000
,
0100
0000
0000
1000
0000
0000
0001
0000
,
0000
0010
0000
0100
0110
0000
0000
0000
,
0001
0000
0000
0100
0000
0000
0010
0000
,
0000
1000
0000
0000
0100
0100
0100
0100
,
1000
0000
0000
0001
0000
0000
1000
0000
,
0000
0100
0000
0000
0220
0000
0330
0000
,
0010
0000
0001
0000
1000
0001
1000
0000
,
0010
1000
0010
1000
0010
0000
0100
0000
,
0010
0000
0100
0000
0001
0100
0001
0000
,
1000
0010
1000
0010
1000
0000
0001
0000
,
0010
0100
1000
0000
1000
0100
0010
0000
,
1000
0001
1000
0001
0200
0000
0300
0000
,
0010
0000
1000
0000
0001
0100
0001
0000
,
0010
0110
0100
0110
,
0010
1000
0010
0000
0100
0001
0100
0000
,
0010
0000
1000
0000
0001
1000
0001
0000
,
0100
0110
0010
0110
,
0100
0001
0100
0001
0100
0000
0010
0000
,
1000
0000
0000
0001
0000
0000
1000
0000
,
0000
0001
0000
0000
2000
0000
3200
0000
,
0320
0032
0203
0320
,
1030
0000
0001
1000
0000
0001
0000
1000
,
0100
0010
0100
1000
,
0002
0000
0000
0003
,
0100
0001
1000
1100
,
0100
1000
0001
0101
,
0010
0010
0100
0100
,
0010
1000
0010
0000
0100
0001
0100
0000
,
0010
1000
0001
0011
,
0100
1000
0001
1010
,
1000
1000
0001
0001
,
1000
0010
1000
0010
0100
0001
0100
0000
,
0010
0010
0110
0000
,
0100
0001
0100
0001
0100
0001
0100
0000
,
0010
0010
0110
0000
,
2000
0000
3001
0100
0001
0100
0010
0000
,
1000
1000
1100
0000
,
0100
0010
0100
0010
0100
0010
0001
0000
,
0001
0001
0011
0000
,
0002
0000
1003
0010
1000
0010
0100
0000
,
0010
1010
0010
1010
,
0100
0001
0100
0001
0000
0001
0000
1000
,
0001
0011
0001
0011
,
0100
1000
0100
1000
0000
1000
0000
0010
,
0100
0101
0001
1001
,
1000
1100
0100
0110
,
0010
0001
0010
0001
0010
0001
0010
0001
,
1000
0100
1000
0100
1000
0100
1000
0100
,
0110
0000
0000
0000
;

//---------------dance-single - ----------------
#NOTES:
     dance-single:
     :
     Easy:
     8:
     0.468,0.541,0.410,0.253,0.000,331.000,52.000,32.000,0.000,0.000,0.000,0.468,0.541,0.410,0.253,0.000,331.000,52.000,32.000,0.000,0.000,0.000:
0000
0000
0000
0000
,
0000
0000
0000
0000
,
0000
0000
0000
0000
,
0000
0000
0000
0000
,
1000
1000
0001
0001
,
1000
1000
0100
0100
,
1000
1000
0001
0001
,
1000
1000
0010
0010
,
0110
0000
0100
0100
,
0010
0010
1001
1001
,
0100
0110
0000
0110
,
0000
0110
0000
0010
,
1001
0000
0100
0100
,
0001
0001
0110
0000
,
0000
1001
0000
1001
,
0100
0010
0100
0010
0100
0010
0100
0010
,
1000
1000
0010
0010
,
0001
0001
0100
0100
,
1000
1000
0100
0100
,
0020
0100
0100
0130
,
0001
0001
0010
0010
,
1000
1000
0100
0100
,
0001
0001
1000
1000
,
0200
0000
0000
0310
,
1001
0000
0010
0100
,
0010
0010
1001
1001
,
1000
1100
0000
1100
,
0000
1100
0000
0100
,
1001
0000
0010
0010
,
0001
0001
0110
0110
,
0001
0101
0000
0101
,
0010
0100
0010
0100
0010
0100
0010
0100
,
0001
0001
0010
0010
,
1000
1000
0100
0100
,
1000
1000
0010
0010
,
0002
1000
1000
1003
,
0100
0100
1000
1000
,
0010
0010
0001
0001
,
0100
0100
1000
1000
,
1001
0000
0000
0000
,
1000
0000
0000
0100
0000
0000
0010
0000
,
0000
0001
0000
0000
1000
0000
1000
0000
,
0001
0000
0000
0100
0000
0000
0010
0000
,
0000
1000
0000
0000
1001
0000
0000
0000
,
0001
0000
0000
0100
0000
0000
0001
0000
,
0000
0010
0000
0000
0100
0000
0100
0000
,
1000
0000
0000
0100
0000
0000
0010
0000
,
0000
0100
0000
0000
2002
0000
3003
0000
,
1000
0000
0000
0001
0000
0000
1000
0000
,
0000
0001
0000
0000
0100
0000
0110
0000
,
0001
0000
0000
1000
0000
0000
0001
0000
,
0000
1000
0000
0000
0110
0000
0000
0000
,
1000
0000
0000
0010
0000
0000
1000
0000
,
0000
0001
0000
0000
0100
0000
0110
0000
,
0001
0000
0000
1000
0000
0000
0001
0000
,
0000
0010
0000
0000
0220
0000
0330
0000
,
0010
1000
0010
0010
,
0100
0001
0100
0100
,
0001
1000
0001
0010
,
0100
1000
0100
0100
,
0010
0001
0010
0010
,
0100
2002
0000
3003
,
0010
0010
0100
0100
,
0001
1000
0001
1000
,
0100
0100
0010
0010
,
1000
0001
1000
0001
,
0100
0100
0010
0010
,
0100
0001
1000
0100
,
0010
0000
0000
0010
0000
0000
0010
0000
,
0000
0010
0000
0000
2000
0000
3200
0000
,
0320
0032
0203
0320
,
1030
0000
1001
0000
,
0001
0000
1001
0000
,
0002
0000
0000
0003
,
0100
0010
1000
1000
,
0100
0010
0001
0001
,
0100
0110
0000
0110
,
0000
0110
0000
0110
,
1000
0001
0010
0010
,
0001
1000
0100
0100
,
1000
1001
0000
1001
,
0100
0010
0100
0010
0100
0010
0100
0000
,
1000
1001
0001
1001
,
0200
0300
0020
0030
0200
0300
0020
0030
,
0001
1001
1000
1001
,
0020
0030
0200
0300
0020
0030
0200
0300
,
0100
0101
0001
0101
,
0020
0030
2000
3000
0020
0030
0200
0300
,
0100
1100
1000
1100
,
0020
0030
0002
0003
0020
0030
0200
0300
,
0010
1001
0000
1001
,
0000
1001
0000
0010
,
0010
0110
0000
0110
,
0000
0110
0000
0100
,
0100
0001
1000
0001
,
1000
0010
1000
0010
,
0100
0001
1000
0100
,
1000
0001
1000
0001
1000
0001
1000
0000
,
0110
0000
0000
0000
;

//---------------dance-single - ----------------
#NOTES:
     dance-single:
     :
     Beginner:
     4:
     0.168,0.232,0.024,0.087,0.000,135.000,3.000,11.000,0.000,0.000,0.000,0.168,0.232,0.024,0.087,0.000,135.000,3.000,11.000,0.000,0.000,0.000:
0000
0000
0000
0000
,
0000
0000
0000
0000
,
0000
0000
0000
0000
,
0000
0000
0000
0000
,
1000
0000
0000
0000
,
1000
0000
0000
0000
,
1000
0000
0000
0000
,
1000
0000
0000
0000
,
0002
0000
0003
0000
,
0001
0000
0001
0000
,
0100
0000
0100
0000
,
0100
0000
0100
0000
,
2000
0000
3000
0000
,
0010
0000
0010
0000
,
0001
0000
0001
0000
,
0100
0100
0100
0100
,
0010
0000
0000
0000
,
0010
0000
0000
0000
,
0010
0000
0000
0000
,
0020
0000
0000
0030
,
0100
0000
0000
0000
,
0100
0000
0000
0000
,
0100
0000
0000
0000
,
0110
0000
0000
0000
,
2000
0000
3000
0000
,
0100
0000
0100
0000
,
0010
0000
0000
0000
,
0010
0000
0000
0000
,
0002
0000
0003
0000
,
0100
0000
0100
0000
,
0010
0000
0000
0000
,
0010
0010
0010
0010
,
1000
0000
0000
0000
,
0100
0000
0000
0000
,
1000
0000
0000
0000
,
0001
0000
0000
0000
,
0010
0000
0000
0000
,
0001
0000
0000
0000
,
1000
0000
0000
0000
,
1001
0000
0000
0000
,
0100
0000
0000
0000
,
0000
0000
0100
0000
,
0100
0000
0000
0000
,
0000
0000
0100
0000
,
0010
0000
0000
0000
,
0000
0000
0010
0000
,
0010
0000
0010
0000
,
0000
0000
0010
0000
,
0001
0000
0000
0000
,
0001
0000
0000
0000
,
1000
0000
0000
0000
,
1000
0000
2000
3000
,
0100
0000
0000
0000
,
0100
0000
0000
0000
,
0100
0000
0000
0000
,
0100
0000
0020
0030
,
0001
0000
0000
0000
,
1000
0000
0000
0000
,
0001
0000
0000
0000
,
1000
0000
0000
0000
,
0100
0000
0000
0000
,
0010
0000
0000
0000
,
0100
0000
0000
0000
,
0010
0000
0000
0000
,
1000
0000
0000
0000
,
1000
0000
0000
0000
,
0001
0000
0000
0000
,
0001
0000
0000
0000
,
0100
0000
0100
0000
,
0000
0000
2000
0000
,
0000
0000
0000
0000
,
3002
0000
0000
0000
,
0023
0000
0000
0000
,
0230
0000
0000
0300
,
0010
0000
0010
0000
,
0010
0000
0010
0000
,
0001
0000
1000
0000
,
0001
0000
1000
0000
,
0100
0000
0100
0000
,
0100
0000
0100
0000
,
1000
0000
0001
0000
,
1000
0000
0001
0000
,
0100
0000
0000
0000
,
0010
0010
0010
0000
,
0001
0000
0000
0000
,
1000
1000
1000
0000
,
0100
0000
0000
0000
,
0010
0010
0010
0000
,
1000
0000
0000
0000
,
0001
0001
0001
0000
,
0100
0000
0100
0000
,
0010
0000
0010
0000
,
0100
0000
0100
0000
,
0010
0000
0010
0000
,
1000
0000
0001
0000
,
1000
0000
0001
0000
,
0100
0000
0010
0000
,
0100
0000
0010
0000
,
0110
0000
0000
0000
;

//---------------dance-double - ----------------
#NOTES:
     dance-double:
     :
     Hard:
     15:
     0.708,0.696,0.355,0.071,0.047,574.000,45.000,9.000,0.000,1.000,0.000,0.708,0.696,0.355,0.071,0.047,574.000,45.000,9.000,0.000,1.000,0.000:
00000000
00000000
00000000
00000000
,
00000000
00000000
00000000
00000000
,
00000000
00000000
00000000
00000000
,
00000000
00000000
00000000
00000000
,
00010000
00000000
01000000
00100000
00000000
00100000
01000000
00000000
,
00100000
10000000
00000000
10000000
00100000
00010000
00100000
01000000
,
00010000
00000000
00100000
00010000
00000000
00010000
00001000
00000000
,
00001000
00000100
00000000
00000100
00001000
00000010
00001000
00000001
,
00000200
00000000
00000300
00000000
00000010
00001000
00000000
00001001
,
00000000
00000001
00000100
00000000
00000110
00000000
00000000
00000000
,
00001000
00000000
00000001
00000100
00000000
00000100
00001000
00000000
,
00010000
00000000
00100000
10000000
00000000
10000000
01000000
00000000
,
00200000
00000000
00300000
00000000
01000000
10000000
00000000
11000000
,
00000000
00100000
00010000
00000000
10010000
00000000
00000000
00000000
,
10000000
00000000
00100000
00010000
00000000
00010000
00100000
00000000
,
10000000
00100000
10000000
00100000
00010000
00001000
00000100
00000000
,
00000010
00000000
00001010
00000000
00001000
00000010
00000001
00000100
,
00001000
00010000
00100000
10000000
01000000
10000000
00010000
00000000
,
00100000
00000000
00110000
00000000
00010000
00100000
10000000
01000000
,
00010000
00001000
00000100
00000010
00001000
00000000
00001001
00000000
,
00000001
00000100
00000001
00000100
00000010
00001000
00000010
00001000
,
00000100
00010000
00000100
00010000
00001000
00100000
00001000
00100000
,
00010000
00100000
10000000
00010000
01000000
00010000
00001000
00000100
,
00011000
00000000
00000000
00010000
,
00000100
00000000
00010100
00000000
00000100
00001000
00000001
00000000
,
00001000
00000010
00000100
00000010
00001000
00000000
00000000
00000000
,
00000001
00000000
00000100
00000001
00000000
00000001
00001000
00000000
,
00000100
00010000
00001000
00010000
01000000
00100000
00010000
00000000
,
10000000
00000000
10100000
00000000
01000000
00010000
10000000
00000000
,
00010000
01000000
00010000
10000000
00010000
00000000
00000000
00000000
,
00100000
00110000
00010000
10010000
,
10000000
01000000
00010000
00001000
00010000
00001000
00000100
00000000
,
00000010
00000000
00010010
00000000
00001000
00000010
00000001
00000010
,
00001000
00000100
00001000
00010000
00100000
01000000
00010000
00000000
,
01000000
00000000
11000000
00000000
10000000
00100000
00010000
00001000
,
00000100
00000001
00001000
00000100
00000010
00000000
00000110
00000000
,
00001000
00000010
00000001
00000010
00001000
00000010
00010000
01000000
,
10000000
00100000
10000000
00010000
00100000
00001000
00010000
00001000
,
00000100
00000010
00001000
00000001
00000010
00000100
00001000
00010000
,
00200000
00000000
00000000
00300000
,
00010000
00100000
00000000
00110000
00000000
00100000
01000000
00100000
,
00000000
11000000
00000000
10000000
01000000
00100000
01000000
00010000
,
00001000
00000100
00000000
00001100
00000000
00001000
00000100
00000010
,
00000000
00000110
00000000
00000100
00000001
00000000
00000000
00000000
,
00001000
00000010
00000000
00001010
00000000
00000100
00000010
00000100
,
00000000
00000101
00000000
00000001
00000010
00001000
00000100
00010000
,
01000000
00001000
00000000
00011000
00000000
00010000
01000000
00100000
,
00000000
00000000
00000000
01100000
00000000
00000000
00000000
00000000
00000000
01000000
00000000
00000000
10000000
00000000
00010000
00000000
10000000
00000000
00010000
00000000
01000000
00000000
00010000
00000000
,
01000000
00100000
00000000
10100000
00000000
10000000
00100000
00010000
,
00000000
00110000
00000000
00010000
00001000
00010000
00000100
00001000
,
00000001
00000010
00000000
00000011
00000000
00000010
00001000
00000010
,
00000000
00001010
00000000
00001000
00010000
00000000
00000000
00000000
,
00010000
00000100
00000000
00010100
00000000
00001000
00000100
00000010
,
00000000
00000110
00000000
00000100
00010000
00001000
01000000
00100000
,
01000000
00010000
00000000
01001000
00000000
00010000
01000000
00001000
,
00000000
00000000
00000000
00011000
00000000
00000000
00000000
00000000
00000000
00010000
00000000
00000000
00010000
00000000
00001000
00000000
00010000
00000000
00001000
00000000
01000000
00000000
00010000
00000000
,
01000000
01000000
00100000
00100000
00000000
10000000
00100000
10000000
,
00010000
00100000
00010000
10000000
00010000
01000000
00010000
00000000
,
01000000
00010000
01000000
00100000
02000000
00000000
03000000
00000000
,
00100000
00010000
00001000
00000100
00000000
00000100
00000010
00000100
,
00000010
00001000
00000001
00000010
00001000
00000100
00001000
00000010
,
00000100
00001000
00000001
00001000
00000200
00000000
00000300
00000000
,
00000010
00000010
00000100
00000100
00000000
00001000
00000010
00000001
,
00000100
00000001
00000010
00001000
00000001
00001000
00000100
00000000
,
00010000
00000100
00010000
00000100
00010000
00000100
00001000
00000000
,
00000100
00010000
00001000
00100000
00000000
00010000
00010000
00000000
,
10000000
00100000
00010000
00001000
00010000
01000000
00100000
00000000
,
00001000
00100000
00001000
00100000
00001000
00100000
00010000
00000000
,
11000000
00000000
00000000
00110000
00000000
00000000
00011000
00000000
,
00000000
00010100
00000000
00000000
00001000
00000100
00000010
00000001
,
00001000
00000100
00000010
00000001
00000001
00000100
00000010
00001000
,
00001000
00000010
00000000
00001000
00000010
00000000
00000100
00000000
00000100
00000000
00001000
00000000
00010000
00100000
00000000
00010000
,
00100000
01000000
01000000
00010000
20000000
00000000
00000000
00000000
,
30200000
00000000
00322000
00030000
,
00013000
00000100
00001000
00000100
00010000
00001000
01000000
00010000
,
01000000
00100000
10000000
01000000
00100000
00010000
01000000
00100000
,
10000000
00000000
00100000
01000000
00000000
01000000
00100000
00000000
,
10000000
00100000
00010000
00001000
00000010
00000001
00001000
00000000
,
00000100
00010000
00001000
01000000
00100000
00010000
00001000
00000010
,
00000100
00010000
00001000
01000000
00100000
00010000
00001000
00000010
,
00000001
00000000
00000100
00000001
00000000
00000001
00000100
00000000
,
00001000
00001000
00001000
00001000
00001000
00001000
00001000
00001000
,
00010000
00100000
00000000
00100000
01000000
00100000
01000000
00000000
,
00100000
00100000
10100000
10100000
10000000
00010000
10000000
00000000
,
01000000
00100000
00000000
00100000
00010000
00100000
00010000
00000000
,
00110000
00000000
00100000
00001000
00011000
00010000
00011000
00000000
,
00001000
00000100
00000000
00000100
00000010
00000100
00000010
00000000
,
00001000
00000001
00001000
00000001
00000101
00000001
00000101
00000000
,
00000001
00000010
00000000
00000010
00000100
00000010
00000100
00000000
,
00001100
00000000
00001000
00000100
00010000
00001000
00010000
00000000
,
00010000
01000000
10000000
00000000
10000000
00100000
00010000
00000000
,
00001000
00000100
00000001
00000010
00000000
00000010
00000000
00000010
,
00000001
00000100
00001000
00000000
00001000
00000100
00000001
00000000
,
00000010
00001000
00010000
01000000
00000000
01000000
01000000
01000000
,
00100000
00010000
10000000
00010000
00000000
10000000
00100000
00010000
,
01000000
00000000
00010000
00100000
10000000
01000000
00010000
00001000
,
00000100
00000001
00000010
00001000
00000100
00000001
00000100
00001000
,
00010000
00100000
10000000
01000000
00010000
00001000
00010000
01000000
,
01100000
00000000
00000000
00000000
;

//---------------dance-double - ----------------
#NOTES:
     dance-double:
     :
     Medium:
     11:
     0.558,0.619,0.426,0.197,0.000,416.000,54.000,25.000,0.000,0.000,0.000,0.558,0.619,0.426,0.197,0.000,416.000,54.000,25.000,0.000,0.000,0.000:
00000000
00000000
00000000
00000000
,
00000000
00000000
00000000
00000000
,
00000000
00000000
00000000
00000000
,
00000000
00000000
00000000
00000000
,
00010000
00000000
00000000
00001000
00000000
00000000
00010000
00000000
,
00000000
00001000
00000000
00000000
00000100
00000100
00000100
00000000
,
00001000
00000000
00000000
00010000
00000000
00000000
00001000
00000000
,
00000000
00010000
00000000
00000000
01000000
01000000
01000000
00000000
,
20020000
00000000
30030000
00000000
10000000
10000000
00000000
10010000
,
00000000
00010000
01000000
00000000
01100000
00000000
00000000
00000000
,
00100000
00000000
00010000
00001000
00000000
00001000
00000100
00000000
,
00000010
00000000
00001000
00010000
00000000
00010000
01000000
00000000
,
00022000
00000000
00033000
00000000
00001000
00001000
00000000
00001100
,
00000000
00000100
00000010
00000000
00000110
00000000
00000000
00000000
,
00000100
00000000
00000001
00001000
00000000
00001000
00000001
00000000
,
00001000
00000000
00001000
00000000
00001000
00001000
00001000
00001000
,
00000001
00000101
00000110
00000010
,
00010010
00010000
00011000
00001000
,
00101000
00100000
01100000
01000000
,
21000000
00010000
00010000
30010000
,
10000000
10100000
00100000
01100000
,
01000000
01001000
00001000
00011000
,
00010000
00010100
00000100
00000110
,
00000002
00000000
00000000
00001003
,
00002000
00000000
00003000
00000000
00000001
00000001
00000000
00000100
,
00000000
00001000
00010000
00000000
00011000
00000000
00000000
00000000
,
00100000
00000000
00010000
01000000
00000000
01000000
00010000
00000000
,
10000000
00000000
00100000
01000000
00000000
01000000
00100000
00000000
,
20000000
00000000
30000000
00000000
00010000
00010000
00000000
00100000
,
00000000
00001000
00010000
00000000
00010100
00000000
00000000
00000000
,
00000010
00000000
00000001
00000100
00000000
00000100
00000001
00000000
,
00000010
00000000
00000010
00000000
00000010
00000010
00000010
00000010
,
00000001
00000000
00000101
00000000
00000001
00000100
00000001
00000000
,
00001000
00000000
00001100
00000000
00001000
00000100
00001000
00000000
,
00010000
00000000
00011000
00000000
00001000
00010000
00001000
00000000
,
00020000
01000000
01000000
01030000
,
00100000
00000000
00110000
00000000
00010000
10000000
00010000
00000000
,
10000000
00000000
10100000
00000000
10000000
00010000
10000000
00000000
,
00010000
00000000
00011000
00000000
00001000
00010000
00001000
00000000
,
10010000
00000000
00000000
00000000
,
10000000
00000000
00000000
00100000
00000000
00000000
00010000
00000000
,
00000000
00001000
00000000
00000000
00000100
00000100
00000100
00000100
,
00000001
00000000
00000000
00000010
00000000
00000000
00001000
00000000
,
00000000
00010000
00000000
00000000
10010000
00000000
00000000
00000000
,
00100000
00000000
00000000
00010000
00000000
00000000
00001000
00000000
,
00000000
00000100
00000000
00000000
00000010
00000010
00000010
00000010
,
00001000
00000000
00000000
00000100
00000000
00000000
00010000
00000000
,
00000000
00001000
00000000
00000000
00022000
00000000
00033000
00000000
,
00010000
00010000
00000000
00011000
00000000
00000000
00001000
00001000
,
00000000
00011000
00000000
00010000
01000000
00100000
01000000
00100000
,
00010000
00010000
00000000
10010000
00000000
00000000
10000000
10000000
,
00000000
10010000
00000000
00000000
01100000
00000000
00000000
00000000
,
00010000
00010000
00000000
00011000
00000000
00000000
00001000
00001000
,
00000000
00011000
00000000
00001000
00000100
00000010
00000100
00000010
,
00001000
00000000
00000000
00000101
00000000
00000000
00000001
00000000
,
00000000
00001100
00000000
00000000
00022000
00000000
00033000
00000000
,
00100000
00000000
00010000
00000000
10000000
00010000
10000000
00000000
,
00100000
01000000
00100000
01000000
00100000
00000000
01000000
00000000
,
00100000
00000000
00010000
00000000
00001000
00010000
00001000
00000000
,
00000100
00000010
00000100
00000010
00000100
00000000
00000001
00000000
,
00001000
00000100
00000010
00000100
00001000
00000000
00000001
00000000
,
00001000
00000001
00001000
00000001
00000200
00000000
00000300
00000000
,
00000010
00000000
00000100
00000000
00001000
00010000
00001000
00000000
,
00010000
00100000
10000000
00000000
10000000
00100000
00010000
00000000
,
00100000
10000000
00100000
00000000
01000000
00010000
01000000
00000000
,
00100000
00000000
00010000
00000000
00001000
00010000
00001000
00000000
,
00001000
00000100
00000001
00000000
00000001
00000100
00001000
00000000
,
00010000
00001000
00010000
00001000
00010000
00000000
00001000
00000000
,
00000100
00000000
00000000
00000100
00000000
00000000
00000010
00000000
,
00000000
00000010
00000000
00000000
00002000
00000000
00003200
00000000
,
00000320
00000032
00000203
00000320
,
00001030
00000000
00000100
00010000
00000000
00010000
00001000
00010000
,
01000000
00010000
00001000
00000000
00020000
00000000
00030000
00000000
,
00002000
00000000
00000200
00003000
,
00001300
00010000
01000000
01010000
,
01000000
00100000
00001000
00011000
,
00010000
00010000
00001000
00001000
,
00010000
00010000
00001000
00001000
,
00010000
00000100
00000010
00001010
,
00001000
00010000
00001000
00000100
,
00001000
00001000
00010000
00010000
,
00001000
00010000
00001000
00010000
00001000
00010000
00001000
00010000
,
00000010
00000010
00000110
00000000
,
00000100
00000010
00000100
00000010
00000100
00000010
00000100
00000000
,
00001000
00001000
00011000
00000000
,
00002000
00000000
01003000
00010000
01000000
00010000
01000000
00000000
,
00100000
00100000
01100000
00000000
,
10000000
00010000
10000000
00010000
10000000
00010000
10000000
00000000
,
00100000
00100000
00110000
00000000
,
00020000
00000000
00031000
00010000
00001000
00010000
00001000
00000000
,
00010000
00010100
00010000
00010100
,
00010000
00000000
00010010
00000000
00000000
00010000
00000000
00010000
,
00001000
01001000
00001000
01001000
,
00001000
00000000
00101000
00000000
00000000
00001000
00000000
00001000
,
00010000
00001000
00010000
00001000
00000000
00000100
00000010
00000100
,
00000010
00000100
00000001
00001000
,
00000100
00001000
00000100
00001000
00000100
00001000
00000100
00001000
,
01000000
00010000
01000000
00010000
01000000
00010000
01000000
00010000
,
00011000
00000000
00000000
00000000
;

//---------------dance-double - ----------------
#NOTES:
     dance-double:
     :
     Easy:
     8:
     0.450,0.464,0.355,0.229,0.000,325.000,45.000,29.000,0.000,0.000,0.000,0.450,0.464,0.355,0.229,0.000,325.000,45.000,29.000,0.000,0.000,0.000:
00000000
00000000
00000000
00000000
,
00000000
00000000
00000000
00000000
,
00000000
00000000
00000000
00000000
,
00000000
00000000
00000000
00000000
,
00100000
00100000
00010000
00010000
,
00001000
00001000
00000010
00000010
,
00000100
00000100
00001000
00001000
,
00010000
00010000
01000000
01000000
,
00200000
00000000
10300000
10000000
,
00010000
00010000
10010000
00000000
,
10000000
10100000
00000000
10100000
,
00000000
01010000
00000000
01010000
,
00020000
00000000
00130000
00100000
,
00001000
00010000
00011000
00000000
,
00001000
00001100
00000000
00001100
,
00000100
00000010
00000100
00000010
00000100
00000010
00000100
00000000
,
00000001
00000001
00000100
00000100
,
00001000
00001000
00010000
00010000
,
00100000
00100000
10000000
10000000
,
01000000
01000000
00010000
00010000
,
01000000
01000000
10000000
10000000
,
00100000
00100000
00010000
00010000
,
00001000
00001000
00000100
00000100
,
00001001
00000000
00000000
00000000
,
00000002
00000000
00000013
00000010
,
00000100
00000100
00001001
00000000
,
00001000
00001100
00000000
00001100
,
00000000
00000110
00000000
00000110
,
00000200
00000000
00010300
00010000
,
00001000
00001000
00011000
00000000
,
00010000
01010000
00000000
01010000
,
00100000
01000000
00100000
01000000
00100000
01000000
00100000
00000000
,
10000000
10000000
00100000
00100000
,
00010000
00010000
00001000
00001000
,
00100000
00100000
01000000
01000000
,
00010000
00010000
00001000
00001000
,
00000100
00000100
00000001
00000001
,
00001000
00001000
00000100
00000100
,
00000010
00000010
00001000
00001000
,
00011000
00000000
00000000
00000000
,
00010000
00000000
00000000
00001000
00000000
00000000
00010000
00000000
,
00000000
00001000
00000000
00000000
00010000
00000000
00011000
00000000
,
00001000
00000000
00000000
00010000
00000000
00000000
00001000
00000000
,
00000000
00010000
00000000
00000000
00011000
00000000
00000000
00000000
,
00001000
00000000
00000000
00100000
00000000
00000000
00010000
00000000
,
00000000
00100000
00000000
00000000
00001000
00000000
00011000
00000000
,
00010000
00000000
00000000
00000010
00000000
00000000
00010000
00000000
,
00000000
00001000
00000000
00000000
00022000
00000000
00033000
00000000
,
00001000
00000000
00000000
00000100
00000000
00000000
00000001
00000000
,
00000000
00000010
00000000
00000000
00000100
00000100
00000100
00000000
,
00010000
00000000
00000000
01000000
00000000
00000000
10000000
00000000
,
00000000
00100000
00000000
00000000
01100000
00000000
00000000
00000000
,
00100000
00000000
00000000
10000000
00000000
00000000
00010000
00000000
,
00000000
01000000
00000000
00000000
00100000
00100000
00100000
00000000
,
00010000
00000000
00000000
00001000
00000000
00000000
00000100
00000000
,
00000000
00000010
00000000
00000000
00002002
00000000
00003003
00000000
,
00001000
00000001
00000100
00000100
,
00000001
00001000
00000010
00000010
,
00001000
00000100
00010000
00010000
,
00001000
01000000
00010000
00010000
,
00100000
00022000
00000000
00033000
,
00010000
00001000
01000000
01000000
,
00100000
10000000
00010000
00010000
,
01000000
00100000
00010000
00010000
,
00001000
00000100
00000110
00000000
,
00000100
00000001
00000100
00000001
,
00001000
00000100
00001000
00000100
,
00010000
01000000
00010000
01000000
,
00100000
00000000
00000000
10010000
00000000
00000000
01000000
00000000
,
00000000
10010000
00000000
00000000
10000000
00000000
10000000
00000000
,
01000000
01000000
00100000
00100000
,
00010000
00010000
00001000
00000100
,
00000001
00001000
00020000
00000000
,
00032000
00000000
00003200
00000000
,
00000301
00000001
00001000
00000001
,
00001000
00001000
00000100
00001000
,
00000010
00000110
00000000
00000110
,
00000000
00001010
00000000
00001010
,
00001000
00010000
00001000
00001000
,
00100000
00010000
00010000
00100000
,
01000000
11000000
00000000
11000000
,
10000000
00010000
10000000
00010000
10000000
00010000
10000000
00000000
,
00100000
00100000
01100000
00000000
,
20000000
30200000
02300000
03020000
,
00130000
00100000
01100000
00000000
,
00020000
00230000
00302000
00023000
,
00031000
00001000
00011000
00000000
,
00002000
00003200
00000320
00000032
,
00000103
00000100
00000110
00000000
,
00000020
00002030
00003002
00000203
,
00000310
00001010
00000000
00001010
,
00001000
00001100
00000000
00000000
,
00001000
00011000
00000000
00011000
,
00010000
01010000
00000000
00100000
,
00100000
10000000
00100000
10000000
,
00010000
01000000
00010000
01000000
,
00001000
00010000
00001000
00010000
,
00000100
00001000
00000100
00001000
,
00011000
00000000
00000000
00000000
;
