#VERSION:0.81;
#TITLE:AREA 7;
#SUBTITLE:Trance;
#ARTIST:SPHAZER;
#TITLETRANSLIT:;
#SUBTITLETRANSLIT:;
#ARTISTTRANSLIT:;
#GENRE:;
#ORIGIN:;
#CREDIT:;
#BANNER:AREA 7.png;
#BACKGROUND:AREA 7-bg.png;
#PREVIEWVID:;
#JACKET:;
#CDIMAGE:;
#DISCIMAGE:;
#LYRICSPATH:;
#CDTITLE:;
#MUSIC:AREA 7.mp3;
#OFFSET:-2.048;
#SAMPLESTART:0.000;
#SAMPLELENGTH:12.000;
#SELECTABLE:YES;
#DISPLAYBPM:130.000;
#BPMS:0.000=130.000;
#STOPS:;
#DELAYS:;
#WARPS:;
#TIMESIGNATURES:0.000=4=4;
#TICKCOUNTS:0.000=4;
#COMBOS:0.000=1;
#SPEEDS:0.000=1.000=0.000=0;
#SCROLLS:0.000=1.000;
#FAKES:;
#LABELS:0.000=Song Start;
#BGCHANGES:;
#KEYSOUNDS:;
#ATTACKS:
;

//---------------dance-single - ----------------
#NOTEDATA:;
#CHARTNAME:;
#STEPSTYPE:dance-single;
#DESCRIPTION:;
#CHARTSTYLE:;
#DIFFICULTY:Hard;
#METER:13;
#RADARVALUES:0.472,0.504,0.130,0.170,0.390,301.000,13.000,17.000,0.000,0.000,0.000,0.000,0.000,0.472,0.504,0.130,0.170,0.390,301.000,13.000,17.000,0.000,0.000,0.000,0.000,0.000;
#CREDIT:;
#DISPLAYBPM:130.000;
#NOTES:
0000
0000
0000
0000
,
1000
0000
0000
0001
1000
0000
0001
0000
0100
0000
0100
0000
0100
0000
0000
0000
,
0000
0000
0000
0000
,
0001
1000
0000
0001
0000
0000
1000
0000
0010
0000
0010
0000
0010
0000
0000
0000
,
0000
0000
0000
0000
,
0010
0000
0000
0100
1000
0000
0001
0000
0100
0000
0100
0000
0100
0000
0000
0000
,
0010
1000
0000
0001
0000
0000
1000
0000
0100
0000
0100
0000
0100
0000
0000
0000
,
0000
0000
0000
0000
,
1001
0000
0000
0000
,
0000
1000
0010
0000
1000
0001
1000
0000
0200
0000
0000
0000
0300
0000
0000
0000
,
0110
0000
0000
0000
,
0000
0001
0010
0000
0001
1000
0001
0000
0200
0000
0000
0000
0300
0000
0000
0000
,
1010
0000
0000
0000
,
0000
0010
0100
0000
0001
1000
0001
0000
0020
0000
0000
0000
0030
0000
0000
0000
,
0110
0000
0000
0000
,
1001
0000
0000
0000
,
1000
0000
0000
0001
1000
0000
0001
0000
0010
0000
0010
0000
0010
0000
0000
0000
,
0001
1000
0000
0001
0000
0000
0100
0000
0010
0000
0000
0000
0110
0000
0000
0000
,
0010
0000
0000
1000
0001
0000
1000
0000
0100
0000
0100
0000
0100
0000
0000
0000
,
0010
0001
1000
0001
0100
0100
0110
0000
,
1000
0000
0000
0010
0100
0000
0001
0000
1000
0000
0001
0000
1000
0000
0000
0000
,
0001
0010
0000
0100
0000
0000
1000
0000
0001
0000
1000
0000
0001
0000
0000
0000
,
0100
0000
0000
0010
1000
0000
0010
0000
0100
0000
0001
0000
0100
0000
0000
0000
,
0020
2030
3002
0023
0032
2003
3200
0300
,
1001
0000
0000
0000
0100
0000
0001
1000
0000
1000
0001
1000
0100
0000
0010
0200
,
0000
0000
0000
0300
,
1001
0000
0000
0000
0010
0000
1000
0001
0000
0001
1000
0001
0100
0000
0010
0200
,
0000
0000
0010
0000
0000
0001
0000
0001
0000
0001
0000
0000
1300
0000
0000
0000
,
0110
0000
0000
0000
1000
0000
0010
0100
0000
0100
0001
1000
0010
0000
1000
0002
,
0000
0000
0000
0003
,
0110
0000
0000
0000
0001
0000
0010
0100
0000
0100
1000
0001
0010
0000
0001
1000
,
0000
0010
0100
0010
0100
0010
0110
0000
,
1000
0000
0001
0000
0100
0000
0010
1000
0000
1000
0010
0000
0100
0000
0100
0000
,
0001
0000
1000
0000
0100
0000
0010
0001
0000
0001
0010
0000
0100
0000
0100
0000
,
1000
0000
0001
0000
0010
0000
0100
1000
0000
1000
0001
0000
0010
0000
0010
0000
,
0001
0000
1000
0000
0010
0000
0100
0001
0000
0001
1000
0000
0010
0000
0010
0000
,
0100
0000
0001
0000
0010
0000
0100
1000
0000
1000
0010
0000
1000
0000
0001
0000
,
0100
0000
0010
0000
1000
0000
0001
0010
0000
0010
0100
0000
0010
0000
0001
0000
,
1000
0000
0010
0000
0100
0000
0001
0100
0000
0100
0010
0000
1000
0000
0100
0000
,
0010
0001
0010
0000
0100
1000
0100
0000
0020
0000
0000
0000
0030
0000
0000
0000
,
0001
0000
1000
0000
0001
0000
1000
0010
0000
0010
0100
0001
0100
0000
0010
1000
,
0000
0001
0100
0000
0010
0100
0010
0000
2000
0000
0000
0000
3001
0000
0000
0000
,
1000
0000
0001
0000
1000
0000
0001
0010
0000
0010
0100
1000
0100
0000
0010
0001
,
0000
1000
0100
0000
0010
0100
0010
0000
0002
0000
0000
0000
1003
0000
0000
0000
,
0010
0000
0100
0000
0001
0000
1000
0001
0000
0001
0010
0001
1000
0000
0100
0000
,
0010
0000
0100
0000
1000
0000
0001
1000
0000
1000
0010
1000
0001
0000
0100
0000
,
0010
0000
1000
0000
0001
0000
1000
0010
0000
0010
0100
0001
0100
0000
0010
0000
,
1000
0010
1000
0000
0001
0100
0001
0000
0200
0000
0000
0000
0300
0000
0000
0000
,
1001
0000
0000
0000
;

//---------------dance-single - ----------------
#NOTEDATA:;
#CHARTNAME:;
#STEPSTYPE:dance-single;
#DESCRIPTION:;
#CHARTSTYLE:;
#DIFFICULTY:Medium;
#METER:8;
#RADARVALUES:0.264,0.288,0.060,0.020,0.000,177.000,6.000,2.000,0.000,0.000,0.000,0.000,0.000,0.264,0.288,0.060,0.020,0.000,177.000,6.000,2.000,0.000,0.000,0.000,0.000,0.000;
#CREDIT:;
#DISPLAYBPM:130.000;
#NOTES:
0000
0000
0000
0000
,
1000
0000
0001
0000
1000
0001
1000
0000
,
0000
0000
0000
0000
,
0001
0000
1000
0000
0001
1000
0001
0000
,
0000
0000
0000
0000
,
0010
0000
0100
0000
0010
0100
0010
0000
,
0100
0000
0010
0000
0100
0010
0100
0000
,
2002
0000
0000
3003
,
0100
0000
0000
0000
,
0010
0000
0100
0010
0100
0000
0001
0000
,
0001
0000
0000
0000
,
1000
0000
0001
1000
0001
0000
0010
0000
,
0010
0000
0000
0000
,
0100
0000
0010
0100
0010
0000
1000
0000
,
1000
0000
0000
0000
,
0010
0000
0000
0000
,
1000
0000
0010
0000
1000
0001
1000
0000
,
0001
0100
0110
0000
,
0001
0000
0010
0000
0001
1000
0001
0000
,
1000
0010
0100
0001
,
0010
0000
0100
0000
1000
0001
1000
0000
,
0010
0100
1001
0000
,
0010
0000
0100
0000
0001
1000
0001
0000
,
1000
0100
0010
0001
,
0100
0000
0000
0000
0000
0000
0000
0010
,
1000
0000
0000
0000
,
0010
0000
0000
0000
0000
0000
0000
0100
,
0001
0000
0000
0000
,
1000
0000
0000
0000
0000
0000
0000
0001
,
0010
0000
0000
0000
,
0001
0000
0000
0000
0000
0000
0000
0100
,
1000
0000
1000
0001
1000
0001
1000
0000
,
0010
0000
0100
0000
0010
1000
0010
0000
,
0100
0000
0001
0000
1000
0001
1000
0000
,
0100
0000
0010
0000
0001
0010
0001
0000
,
1000
0010
0110
1001
,
0001
0000
0100
0000
0010
1000
0010
0000
,
1000
0000
0100
0000
0010
0001
0010
0000
,
0001
0000
1000
0000
0010
0100
0010
0000
,
1000
0000
0001
0000
,
1000
0001
1000
0000
0100
1000
0100
0000
,
1000
0001
1000
0000
0010
1000
0010
0000
,
0001
1000
0001
0000
0100
0001
0100
0000
,
0001
1000
0001
0000
0010
0001
0010
0000
,
0100
0010
0100
0000
1000
0100
1000
0000
,
0100
0010
0100
0000
0001
0100
0001
0000
,
0010
0100
0010
0000
0010
0001
0010
0000
,
0010
0100
0010
0000
0010
1000
0010
0000
,
1001
0000
0000
0000
;

//---------------dance-single - ----------------
#NOTEDATA:;
#CHARTNAME:;
#STEPSTYPE:dance-single;
#DESCRIPTION:;
#CHARTSTYLE:;
#DIFFICULTY:Easy;
#METER:4;
#RADARVALUES:0.201,0.192,0.060,0.050,0.000,130.000,6.000,5.000,0.000,0.000,0.000,0.000,0.000,0.201,0.192,0.060,0.050,0.000,130.000,6.000,5.000,0.000,0.000,0.000,0.000,0.000;
#CREDIT:;
#DISPLAYBPM:130.000;
#NOTES:
0000
0000
0000
0000
,
1000
0001
1000
0000
,
0010
0000
0000
0000
,
0001
1000
0001
0000
,
0100
0000
0000
0000
,
0010
0100
0010
0100
,
0001
1000
0001
1000
,
0020
0000
0000
0030
,
0100
0000
0000
0000
,
1000
0001
2000
3000
,
0010
0000
0000
0000
,
0001
1000
0002
0003
,
0100
0000
0000
0000
,
1000
0001
2000
3000
,
0010
0000
0000
0000
,
1001
0000
0000
0000
,
1000
1000
0001
0001
,
1000
0100
0010
0000
,
0001
0001
1000
1000
,
0001
0100
0010
1000
,
0010
0010
0100
0100
,
0001
1000
0100
0000
,
0010
0010
0100
0100
,
1000
0001
0010
0010
,
0001
0000
0000
0000
,
0100
0000
0000
0000
,
1000
0000
0000
0000
,
0010
0000
0000
0000
,
1000
0000
0000
0000
,
0010
0000
0000
0000
,
0001
0000
0000
0000
,
0200
0000
0000
0300
,
0010
0010
1000
1000
,
0001
0001
0100
0100
,
0010
1000
0100
0001
,
0010
0001
0100
1000
,
0001
0001
0100
0100
,
0010
0010
1000
1000
,
0001
0010
1000
0100
,
1000
0010
0001
0100
,
0010
0010
1000
1000
,
0001
1000
1001
0000
,
0100
0100
0001
0001
,
0010
0100
0110
0000
,
1000
1000
0001
0001
,
0100
0010
0110
0000
,
0010
0010
0100
0100
,
0001
1000
1001
0000
,
1001
0000
0000
0000
;

//---------------dance-single - ----------------
#NOTEDATA:;
#CHARTNAME:;
#STEPSTYPE:dance-single;
#DESCRIPTION:;
#CHARTSTYLE:;
#DIFFICULTY:Beginner;
#METER:2;
#RADARVALUES:0.110,0.096,0.020,0.080,0.000,67.000,2.000,8.000,0.000,0.000,0.000,0.000,0.000,0.110,0.096,0.020,0.080,0.000,67.000,2.000,8.000,0.000,0.000,0.000,0.000,0.000;
#CREDIT:;
#DISPLAYBPM:130.000;
#NOTES:
0000
0000
0000
0000
,
1000
0000
1000
0000
,
0001
0000
0000
0000
,
0001
0000
0001
0000
,
0010
0000
0000
0000
,
0010
0000
0010
0000
,
0100
0000
0000
0000
,
0100
0000
0100
0000
,
1000
0000
0000
0000
,
0002
0000
0000
0003
,
0001
0000
0000
0000
,
0020
0000
0000
0030
,
0010
0000
0000
0000
,
0200
0000
0000
0300
,
0100
0000
0000
0000
,
1001
0000
0000
0000
,
0001
0000
0001
0000
,
0010
0000
0010
0000
,
1000
0000
1000
0000
,
0100
0000
0100
0000
,
1000
0000
1000
0000
,
0010
0000
0010
0000
,
0001
0000
0001
0000
,
0200
0000
0000
0300
,
0010
0000
0000
0000
,
0000
0000
0000
0000
,
1000
0000
0000
0000
,
0000
0000
0000
0000
,
0001
0000
0000
0000
,
0000
0000
0000
0000
,
0100
0000
0000
0000
,
0000
0000
0000
0000
,
0010
0000
1000
0000
,
0010
0000
1000
0000
,
0001
0000
0010
0000
,
0001
0000
0010
0000
,
0100
0000
1000
0000
,
0100
0000
1000
0000
,
0001
0000
0100
0000
,
0001
0000
0100
0000
,
0010
0000
0010
0000
,
2000
0000
0000
3000
,
1000
0000
1000
0000
,
0200
0000
0000
0300
,
0001
0000
0001
0000
,
0020
0000
0000
0030
,
0100
0000
0100
0000
,
0200
0000
0000
0300
,
1001
0000
0000
0000
;

//---------------dance-single - ----------------
#NOTEDATA:;
#CHARTNAME:;
#STEPSTYPE:dance-single;
#DESCRIPTION:;
#CHARTSTYLE:;
#DIFFICULTY:Challenge;
#METER:14;
#RADARVALUES:0.651,0.671,0.729,0.270,0.575,356.000,73.000,27.000,0.000,0.000,0.000,0.000,0.000,0.651,0.671,0.729,0.270,0.575,356.000,73.000,27.000,0.000,0.000,0.000,0.000,0.000;
#CREDIT:;
#OFFSET:-2.045;
#BPMS:0.000=130.000
;
#STOPS:;
#DELAYS:;
#WARPS:;
#TIMESIGNATURES:0.000=4=4
;
#TICKCOUNTS:0.000=4
;
#COMBOS:0.000=1
;
#SPEEDS:0.000=1.000=0.000=0
;
#SCROLLS:0.000=1.000
;
#FAKES:;
#LABELS:0.000=Song Start
;
#DISPLAYBPM:130.000;
#NOTES:
0000
0000
0000
0000
,
1000
0000
0000
1100
0000
0000
0011
0000
0001
0000
1000
0000
1001
0000
0000
0000
,
1001
0000
0000
0001
1000
0000
0000
0000
1001
0000
0000
1000
0001
0000
0000
0000
,
0001
1000
0000
1001
0000
0000
0001
0000
1010
0000
0100
0000
1001
0000
0000
0000
,
0110
0000
0000
0010
0100
0000
0000
0000
0110
0000
0000
0100
0010
0000
0000
0000
,
0011
0000
0000
0110
0000
0000
1000
0000
0101
0000
0010
0000
1001
0000
0000
0000
,
1000
0001
0000
0011
0000
0000
0100
0000
1010
0000
0001
0000
0110
0000
0000
0000
,
0020
0000
0000
0030
,
0110
0100
0100
0100
,
1000
0100
1000
0000
0001
0010
0100
0000
2002
0000
0000
0000
3003
0000
0000
0000
,
0110
0010
0010
0010
,
0100
0001
0100
0000
0010
1000
0001
0000
0220
0000
0000
0000
0330
0000
0000
0000
,
1001
1000
1000
1000
,
0010
1000
0010
0000
0100
0001
0010
0000
0220
0000
0000
0000
0330
0000
0000
0000
,
1001
0001
0001
0001
,
2020
0000
0000
3030
,
0100
0000
0000
0001
1000
0000
0010
0000
0101
0000
1010
0000
0101
0000
0000
0000
,
1000
0100
0000
0010
0100
0000
1000
0000
1001
0000
0000
0000
0110
0000
0000
0000
,
0010
0000
0000
1000
0001
0000
0010
0000
1100
0000
0011
0000
1100
0000
0000
0000
,
1000
0100
1000
0001
0100
0100
0110
0000
,
0010
1000
0000
0100
0001
0000
1000
0001
0101
0000
1010
0000
0101
0000
0000
0000
,
0001
0010
0000
1000
0100
0000
0010
0001
2002
0000
0000
0000
3003
0000
0000
0000
,
0100
0001
0000
0010
1000
0000
0001
0100
1010
0000
1001
0000
1100
0000
0000
0000
,
0020
0032
0203
2300
3020
2030
3200
0302
,
0013
0100
0010
0000
0001
0100
0001
1000
0000
0001
0010
0100
1000
0000
0001
2002
,
0000
0000
0000
3003
0000
0000
0110
0000
,
1000
0001
1000
0000
0010
0100
0001
0010
0000
0001
1000
0001
0010
0000
0100
0220
,
0000
0000
0330
1001
,
1000
0100
1000
0000
0010
0100
0001
1000
0000
0001
1000
0100
0010
0000
0100
2002
,
0000
0000
3003
0110
,
0100
0010
0100
0000
0001
1000
0100
1000
0000
0010
0100
0001
0010
0000
0001
0220
,
0000
0000
0330
0110
,
0011
0000
0000
0001
0100
0000
0000
1000
0010
0000
0000
1000
0001
0000
1000
0000
,
1010
0000
0000
0001
0100
0000
0000
1000
0010
0000
0000
1000
0001
0000
0000
0000
,
1001
0000
0000
1000
0010
0000
0000
0001
0100
0000
0000
1000
0001
0000
1000
0000
,
0110
0000
1010
0000
1000
0001
1000
0000
1100
0000
0011
0000
1001
0000
0000
0000
,
0110
0000
0000
0100
0001
0000
0000
0010
1000
0000
0000
0001
1000
0000
0100
0000
,
0110
0000
0000
0100
1000
0000
0000
0010
0001
0000
0000
1000
0001
0000
0000
0000
,
1001
0000
0000
0010
0100
0000
0000
1000
0001
0000
0000
0100
0010
0000
0100
0000
,
1001
0000
0101
0000
0001
1000
0001
0000
0101
0000
1010
0000
1001
0000
0000
0000
,
1000
0100
0010
0000
0100
1000
0001
1000
0000
0010
1000
0001
1000
0000
1010
0000
,
0100
0001
0100
0000
0010
0100
0001
0100
0000
0010
1000
0001
1000
0000
1001
0000
,
0010
0100
1000
0000
0001
1000
0001
0010
0000
0100
1000
0001
0100
0000
0110
0000
,
0010
0100
0001
0000
1000
0001
1000
0010
0000
0100
0001
1000
0100
0000
0110
0000
,
0010
0001
0100
0000
0010
1000
0010
0100
0000
1000
0100
0001
1000
0000
1010
0000
,
0010
1000
0100
0000
0010
0001
0010
0100
0000
0001
0100
1000
0010
0000
0101
0000
,
0010
0100
0001
0000
1000
0010
0100
0001
0000
0100
0010
1000
0100
0000
0011
0000
,
0001
0100
1000
0001
0010
1000
0100
0001
1000
0010
0001
0100
0010
1000
0001
0000
,
1001
0000
0000
0000
;

//---------------dance-double - ----------------
#NOTEDATA:;
#CHARTNAME:;
#STEPSTYPE:dance-double;
#DESCRIPTION:;
#CHARTSTYLE:;
#DIFFICULTY:Easy;
#METER:4;
#RADARVALUES:0.181,0.192,0.110,0.140,0.000,102.000,11.000,14.000,0.000,0.000,0.000,0.000,0.000,0.181,0.192,0.110,0.140,0.000,102.000,11.000,14.000,0.000,0.000,0.000,0.000,0.000;
#CREDIT:;
#DISPLAYBPM:130.000;
#NOTES:
00000000
00000000
00000000
00000000
,
00100000
00010000
00200000
00300000
,
00001000
00000000
00000000
00000000
,
00010000
00000100
00020000
00030000
,
00000010
00000000
00000000
00000000
,
00000100
00000001
00000200
00000300
,
00000010
00001000
00000020
00000030
,
00000100
00000000
00000000
00000000
,
00011000
00000000
00000000
00000000
,
00010000
01000000
10000000
00000000
,
01100000
00000000
00000000
00000000
,
00100000
00010000
00001000
00000000
,
00011000
00000000
00000000
00000000
,
00001000
00000100
00000001
00000000
,
00000110
00000000
00000000
00000000
,
00001001
00000000
00000000
00000000
,
00000010
00000000
00000010
00000000
,
00001000
00000001
00001000
00000000
,
00000100
00000000
00000100
00000000
,
00010000
00001000
00010000
00010000
,
01000000
00000000
01000000
00000000
,
00100000
00010000
00100000
00010000
,
10000000
00000000
10000000
00000000
,
02200000
00000000
03300000
00000000
,
00100000
00000000
00000000
00000000
,
10000000
00000000
00000000
00000000
,
00010000
00000000
00000000
00000000
,
01000000
00000000
00000000
00000000
,
00001000
00000000
00000000
00000000
,
00000100
00000000
00000000
00000000
,
00000010
00000000
00000000
00000000
,
00000001
00000000
00000000
00000000
,
00001000
00000100
00001000
00000100
,
00001000
00010000
00001000
00010000
,
01000000
00010000
01000000
00010000
,
00001000
00010000
00001000
00010000
,
00001000
00000100
00000010
00000100
,
00010000
01000000
00100000
01000000
,
00010000
00100000
00010000
00100000
,
00001000
00000010
00001000
00000010
,
00001000
00000000
00010000
00000000
,
00022000
00000000
00033000
00000000
,
00100000
00000000
01000000
00000000
,
02200000
00000000
03300000
00000000
,
10000000
00000000
00010000
00000000
,
20020000
00000000
30030000
00000000
,
00010000
00000000
00000100
00000000
,
00022000
00000000
00033000
00000000
,
00011000
00000000
00000000
00000000
;

//---------------dance-double - ----------------
#NOTEDATA:;
#CHARTNAME:;
#STEPSTYPE:dance-double;
#DESCRIPTION:;
#CHARTSTYLE:;
#DIFFICULTY:Medium;
#METER:9;
#RADARVALUES:0.274,0.288,0.100,0.070,0.000,175.000,10.000,7.000,0.000,0.000,0.000,0.000,0.000,0.274,0.288,0.100,0.070,0.000,175.000,10.000,7.000,0.000,0.000,0.000,0.000,0.000;
#CREDIT:;
#DISPLAYBPM:130.000;
#NOTES:
00000000
00000000
00000000
00000000
,
00001000
00000000
00000100
00000010
00000200
00000000
00000300
00000000
,
00011000
00000000
00000000
00000000
,
00010000
00000000
01000000
00100000
02000000
00000000
03000000
00000000
,
00011000
00000000
00000000
00000000
,
00100000
00000000
00001000
00010000
00002000
00000000
00003000
00000000
,
00000100
00000000
00001000
00010000
00002000
00000000
00003000
00000000
,
00011000
00000000
00000000
00000000
,
10010000
00000000
00000000
00000000
,
01000000
10000000
01000000
10000000
02000000
00000000
03000000
00000000
,
00110000
00000000
00000000
00000000
,
00001000
00010000
00001000
00010000
00002000
00000000
00003000
00000000
,
00001010
00000000
00000000
00000000
,
00000001
00001000
00000001
00001000
00000002
00000000
00000003
00000000
,
00000101
00000000
00000000
00000000
,
00001010
00000000
00000000
00000000
,
00000100
00000000
00001000
00010000
00001000
00000000
00010000
00000000
,
00100000
00000000
10000000
00010000
10000000
00000000
00000000
00000000
,
01000000
00000000
00010000
00001000
00010000
00000000
00001000
00000000
,
00000100
00000100
00000100
00000110
,
00000010
00000000
00001000
00000100
00010000
00000000
00001000
00000000
,
00100000
00000000
01000000
10000000
00100000
00000000
00000000
00000000
,
00100000
00000000
00010000
00000100
00001000
00000000
00000010
00000000
,
00000100
00000001
00000100
00000001
00000100
00000001
00000010
00000000
,
00000100
00000000
00000000
00000000
00000000
00000000
00000000
00001000
,
00000001
00000000
00000000
00000000
,
00001000
00000000
00000000
00000000
00000000
00000000
00000000
00010000
,
10000000
00000000
00000000
00000000
,
00100000
00000000
00000000
00000000
00000000
00000000
00000000
01000000
,
00010000
00000000
00000000
00000000
,
00100000
00000000
00000000
00000000
00000000
00000000
00000000
00001000
,
00000100
00000000
00000000
00000000
,
00001000
00000000
00000100
00000000
00001000
00000001
00001000
00000000
,
00000001
00000100
00000010
00001000
,
00000100
00000000
00010000
00000000
00001000
00010000
00001000
00000000
,
01000000
00100000
10000000
00010000
,
10000000
00000000
00100000
00000000
01000000
00010000
01000000
00000000
,
00100000
00010000
00001000
00000100
,
00000010
00000000
00001000
00000000
00000001
00000010
00000001
00000000
,
00000010
00001000
00010000
01000000
,
00100000
00010000
00100000
00000000
00010000
01000000
00010000
00000000
,
00001000
00010000
00001000
00000000
00000010
00001000
00000010
00000000
,
00001000
00000001
00001000
00000000
00000100
00010000
00000100
00000000
,
01000000
00001000
01000000
00000000
00010000
00100000
00010000
00000000
,
10000000
00010000
10000000
00000000
01000000
00010000
01000000
00000000
,
00010000
00001000
00010000
00000000
00001000
00000010
00001000
00000000
,
00000001
00000100
00000001
00000000
00001000
00010000
00001000
00000000
,
00010000
00100000
00010000
00000000
00100000
10000000
00100000
00000000
,
01100000
00000000
00000000
00000000
;

//---------------dance-double - ----------------
#NOTEDATA:;
#CHARTNAME:;
#STEPSTYPE:dance-double;
#DESCRIPTION:;
#CHARTSTYLE:;
#DIFFICULTY:Hard;
#METER:13;
#RADARVALUES:0.480,0.480,0.250,0.190,0.300,292.000,25.000,19.000,0.000,0.000,0.000,0.000,0.000,0.480,0.480,0.250,0.190,0.300,292.000,25.000,19.000,0.000,0.000,0.000,0.000,0.000;
#CREDIT:;
#OFFSET:-2.069;
#BPMS:0.000=130.000
;
#STOPS:;
#DELAYS:;
#WARPS:;
#TIMESIGNATURES:0.000=4=4
;
#TICKCOUNTS:0.000=4
;
#COMBOS:0.000=1
;
#SPEEDS:0.000=1.000=0.000=0
;
#SCROLLS:0.000=1.000
;
#FAKES:;
#LABELS:0.000=Song Start
;
#DISPLAYBPM:130.000;
#NOTES:
// measure 0
00000000
00000000
00000000
00000000
,  // measure 1
01000000
00000000
00000000
00010000
00000000
00000000
00100000
00000000
00001000
00000000
00001000
00000000
00011000
00000000
00000000
00000000
,  // measure 2
00000000
00000000
00000000
00000000
,  // measure 3
00000100
00001000
00000000
00000010
00000000
00000000
00010000
00000000
00001000
00000000
00010000
00000000
00011000
00000000
00000000
00000000
,  // measure 4
00000000
00000000
00000000
00000000
,  // measure 5
00010000
00000000
00000000
00100000
00000000
00000000
10000000
00000000
00010000
00000000
01000000
00000000
00001000
00000000
00000000
00000000
,  // measure 6
00010000
00000010
00000000
00000001
00000000
00000000
00001000
00000000
00000100
00000000
00000001
00000000
00001000
00000000
00000000
00000000
,  // measure 7
00002200
00000000
00000000
00003300
,  // measure 8
00011000
00010000
00010000
00010000
,  // measure 9
00001000
00000000
00010000
00000000
01000000
00010000
01000000
00000000
00200000
00000000
00000000
00000000
00300000
00000000
00000000
00000000
,  // measure 10
00011000
00001000
00001000
00001000
,  // measure 11
00010000
00000000
00001000
00000000
00000100
00001000
00000100
00000000
00000020
00000000
00000000
00000000
00000030
00000000
00000000
00000000
,  // measure 12
00001010
00001000
00001000
00001000
,  // measure 13
00000100
00000000
00001000
00000000
01000000
00010000
01000000
00000000
00200000
00000000
00000000
00000000
00300000
00000000
00000000
00000000
,  // measure 14
00110000
00010000
00010000
00010000
,  // measure 15
00022000
00000000
00033000
00000000
,  // measure 16
00010000
00000000
00000000
01000000
00100000
00000000
00010000
00000000
01000000
00000000
00001000
00000000
00011000
00000000
00000000
00000000
,  // measure 17
00010000
00001000
00000000
00001000
00010000
00000000
00001000
00000000
00022000
00000000
00000000
00000000
00033000
00000000
00000000
00000000
,  // measure 18
00001000
00000000
00000000
00000100
00000010
00000000
00001000
00000000
00000100
00000000
00010000
00000000
00011000
00000000
00000000
00000000
,  // measure 19
00010000
00100000
10000000
01000000
00010000
00000000
00000110
00000000
,  // measure 20
00001000
00000000
00000000
00000001
00000010
00000000
00000001
00000000
00000100
00000000
00000010
00000000
00000110
00000000
00000000
00000000
,  // measure 21
00000100
00001000
00000000
00001000
00010000
00000000
00001000
00000000
00022000
00000000
00000000
00000000
00033000
00000000
00000000
00000000
,  // measure 22
00010000
00000000
00000000
01000000
00100000
00000000
00010000
00000000
10000000
00000000
00100000
00000000
01100000
00000000
00000000
00000000
,  // measure 23
00100000
00020000
00032000
00003200
00000320
00000031
00000110
00000000
,  // measure 24
00001000
00000000
00000010
00000000
00000100
00000000
00000000
00000001
00000000
00000001
00000000
00000000
00000100
00000000
00000100
00000000
,  // measure 25
00000000
00000000
00000000
00000000
,  // measure 26
00010000
00000000
00100000
00000000
10000000
00000000
00000000
01000000
00000000
01000000
00000000
00000000
00100000
00000000
00100000
00000000
,  // measure 27
00000000
00000000
10000000
00000000
00000000
00100000
00000000
00010000
00000000
00100000
00000000
00000000
00101000
00000000
00000000
00000000
,  // measure 28
00011000
00000000
00000000
00000000
00010000
00000000
00000010
00000100
00000000
00000100
00001000
00000000
00010000
00000000
00100000
00000000
,  // measure 29
00000000
00000000
00000000
00000000
,  // measure 30
00011000
00000000
00000000
00000000
00001000
00000000
00100000
01000000
00000000
01000000
00010000
00000000
00001000
00000000
00000010
00000000
,  // measure 31
00000000
00000000
00002002
00003003
,  // measure 32
00000010
00000000
00000100
00000000
00000001
00000000
00000100
00001000
00000000
00001000
00010000
00000000
00100000
00000000
10000000
00000000
,  // measure 33
01000000
00000000
10000000
00000000
00100000
00000000
00010000
00001000
00000000
00001000
00000100
00000000
00000010
00000000
00001000
00000000
,  // measure 34
00000001
00000000
00001000
00000000
00000010
00000000
00000100
00001000
00000000
00010000
00100000
00000000
10000000
00000000
00010000
00000000
,  // measure 35
00100000
00000000
00010000
00000000
10000000
00000000
01000000
00010000
00000000
00001000
00000010
00000000
00000001
00000000
00001000
00000000
,  // measure 36
00000010
00000000
00000100
00000000
00000001
00000000
00000100
00000010
00000000
00001000
00010000
00000000
01000000
00000000
00100000
00000000
,  // measure 37
10000000
00000000
01000000
00000000
00100000
00000000
01000000
00100000
00000000
00010000
00001000
00000000
00000100
00000000
00000010
00000000
,  // measure 38
00000001
00000000
00000100
00000000
00001000
00000000
00010000
00100000
00000000
10000000
01000000
00000000
10000000
00000000
00010000
00000000
,  // measure 39
10000000
00000000
00100000
00000000
01000000
00000000
00100000
00010000
00000000
00001000
00000100
00000000
00000010
00000000
00001000
00000000
,  // measure 40
00000010
00000000
00000100
00000000
00000101
00000000
00000100
00000010
00000000
00000010
00000100
00000000
00001000
00000000
00001000
00000000
,  // measure 41
00010000
00001000
00010000
00000000
00001000
00010000
00001000
00000000
02000000
00000000
00000000
00000000
03000000
00000000
00000000
00000000
,  // measure 42
00100000
00000000
10000000
00000000
10100000
00000000
01000000
00010000
00000000
00010000
01000000
00000000
00001000
00000000
00001000
00000000
,  // measure 43
00010000
00001000
00010000
00000000
00001000
00010000
00001000
00000000
00000200
00000000
00000000
00000000
00000310
00000000
00000000
00000000
,  // measure 44
00001000
00000000
00000001
00000000
00000010
00000000
00000100
00010000
00000000
00001000
00100000
00000000
00010000
00000000
10000000
00000000
,  // measure 45
00100000
00000000
10000000
00000000
00010000
00000000
01000000
00001000
00000000
00010000
00000010
00000000
00000100
00000000
00000001
00000000
,  // measure 46
00000010
00000000
00000100
00000000
00001000
00000000
00000100
00010000
00000000
00001000
01000000
00000000
00100000
00000000
00100000
00000000
,  // measure 47
10000000
00100000
00010000
00000000
00001000
00000100
00000001
00000000
00001001
00000000
00000000
00000000
00001100
00000000
00000000
00000000
,  // measure 48
00011000
00000000
00000000
00000000
;

//---------------dance-double - ----------------
#NOTEDATA:;
#CHARTNAME:;
#STEPSTYPE:dance-double;
#DESCRIPTION:;
#CHARTSTYLE:;
#DIFFICULTY:Challenge;
#METER:14;
#RADARVALUES:0.617,0.647,0.649,0.240,0.485,343.000,65.000,24.000,0.000,0.000,0.000,0.000,0.000,0.617,0.647,0.649,0.240,0.485,343.000,65.000,24.000,0.000,0.000,0.000,0.000,0.000;
#CREDIT:;
#DISPLAYBPM:130.000;
#NOTES:
00000000
00000000
00000000
00000000
,
00010000
00000000
00000000
00011000
00000000
00000000
00010000
00100000
10100000
00000000
01010000
00000000
10010000
00000000
00000000
00000000
,
00100000
00100000
00100000
00100000
,
00010000
01000000
00000000
01100000
00000000
00000000
00010000
00001000
00001100
00000000
00000101
00000000
00001010
00000000
00000000
00000000
,
00000100
00000100
00000100
00000100
,
00000001
00000000
00000000
00000101
00000000
00000000
00000010
00000100
00001100
00000000
00010100
00000000
00011000
00000000
00000000
00000000
,
00010000
00100000
00000000
01100000
00000000
00000000
00100000
10000000
11000000
00000000
00101000
00000000
00011000
00000000
00000000
00000000
,
00200020
00000000
00000000
00300030
,
00010000
00001000
00010000
00001000
,
00010000
01000000
00010000
00000000
01000000
10000000
01000000
00000000
00200000
00000000
00000000
00000000
00300000
00000000
00000000
00000000
,
00001000
00010000
00001000
00010000
,
00001000
00000100
00001000
00000000
00000100
00000001
00000100
00000000
00000020
00000000
00000000
00000000
00000030
00000000
00000000
00000000
,
00001010
00000101
00001100
00000011
,
00000001
00000010
00000100
00000000
00001000
00000100
00010000
00000000
00022000
00000000
00000000
00000000
00033000
00000000
00000000
00000000
,
00110000
11000000
01010000
10100000
,
10000000
01000000
00100000
00000000
01000000
00010000
00001000
00000000
00011000
00000000
00000000
00000000
01000100
00000000
00000000
00000000
,
01000000
00010000
00000000
00010000
00100000
00000000
00100000
00001000
00010000
00000000
00100010
00000000
01000100
00000000
00000000
00000000
,
00000100
00001000
00000000
00001000
00000010
00000000
00000100
00001000
00010000
00000000
00000000
00000000
00011000
00000000
00000000
00000000
,
00010000
00100000
00000000
00100000
10000000
00000000
01000000
00100000
01000000
00000000
00100000
00000000
00110000
00000000
00000000
00000000
,
00011000
00001000
00001000
00000100
00000010
00000010
00000110
00000000
,
00000101
00000000
00000000
00000100
00000010
00000000
00000010
00001000
00000100
00000000
00010100
00000000
00101000
00000000
00000000
00000000
,
00100000
01000000
00000000
01000000
10000000
00000000
10100000
00000000
10010000
00000000
00000000
00000000
01010000
00000000
00000000
00000000
,
11000000
00000000
00000000
01000000
00100000
00000000
00100000
00010000
01000000
00000000
01001000
00000000
00010010
00000000
00000000
00000000
,
00002000
00003200
00020300
02030000
03002000
00003020
00020030
00230000
,
01300000
00000000
00000000
00000000
01100000
00000000
00100000
10000000
00000000
10000000
00100000
00010000
00001000
00000000
00001000
00000200
,
00000000
00000000
00000000
00000300
,
00000001
00000000
00000000
00000000
00000110
00000000
00000010
00000001
00000000
00000001
00000010
00001000
00010000
00000000
00010000
02000000
,
00000000
00000000
00100000
00000000
00000000
10000000
00000000
10000000
00000000
13000000
00000000
00000000
10010000
00000000
00000000
00000000
,
10100000
00000000
00000000
00000000
10010000
00000000
10000000
00100000
00000000
01000000
00100000
00010000
00001000
00000000
00010000
00000020
,
00000000
00000000
00000000
00000030
,
00001001
00000000
00000000
00000000
00000101
00000000
00000010
00001000
00000000
00000100
00000010
00001000
00010000
00000000
00001000
00100000
,
00000000
00020000
02030000
03200000
00302000
00003020
00020030
02030000
,
03100000
10000000
00000000
00010000
01000000
00000000
00100000
10000000
00100000
00000000
01100000
00000000
01100000
00000000
00000000
00000000
,
10010000
00000000
00000000
01000000
00001000
00000000
00000000
00010000
00000010
00000000
00000000
00000000
00000110
00000000
00000000
00000000
,
00000100
00000001
00000000
00001000
00000010
00000000
00001000
00000100
00001000
00000000
00001001
00000000
00001001
00000000
00000000
00000000
,
00000110
00000000
00000000
00000100
00010000
00000000
00000000
00001000
00100000
00000000
00000000
00000000
10100000
00000000
00000000
00000000
,
10000000
00000000
01000000
00000000
00100000
00000000
00000000
01000000
10000000
00000000
00000000
00100000
00010000
00000000
00000000
00000000
,
00100000
00000000
01000000
00000000
00010000
00000000
00000000
00100000
10000000
00000000
00000000
01000000
00010000
00000000
00000000
00000000
,
00001000
00000000
00000010
00000000
00000100
00000000
00000000
00000001
00000010
00000000
00000000
00001000
00000100
00000000
00000000
00000000
,
00000010
00000001
00000100
00000001
00001100
00000110
00000011
00001001
,
00000100
00000000
00001000
00000000
00010000
00000000
00001000
00100000
00000000
00010000
10000000
00100000
01000000
00000000
00100000
10000000
,
00000000
01000000
10000000
00000000
00100000
00010000
00100000
00000000
00010000
00000000
00001000
00000000
00010000
00000000
00000100
00000000
,
00000010
00000000
00001000
00000000
00000001
00000000
00000100
00001000
00000000
00000010
00000001
00001000
00000100
00000000
00000010
00001000
,
00000000
00000001
00000100
00000000
00001000
00010000
00001000
00000000
00010000
00000000
01000000
00000000
00100000
00000000
00010000
00000000
,
01000000
00100000
01000000
00000000
00010000
00000000
01000000
00100000
00000000
00100000
00010000
00001000
00010000
00000000
01000000
00100000
,
00000000
00001000
01000000
00000000
00100000
00010000
00100000
00000000
00110000
00000000
00000000
00000000
00011000
00000000
00000000
00000000
,
00010000
00000100
00010000
00000000
00001000
00000000
00000100
00000010
00000000
00000010
00001000
00000001
00000010
00000000
00000010
00000000
,
00000100
00001000
00000001
00000010
00000100
00001000
01000000
00010000
00001000
00100000
00010000
00000010
00000100
00000000
00000000
00000000
,
00011000
00000000
00000000
00000000
;
