#VERSION:0.81;
#TITLE:ANGEL;
#SUBTITLE:Euro Dance;
#ARTIST:Lauren Newfield & Ravenant;
#TITLETRANSLIT:;
#SUBTITLETRANSLIT:;
#ARTISTTRANSLIT:;
#GENRE:;
#ORIGIN:;
#CREDIT:;
#BANNER:ANGEL.png;
#BACKGROUND:ANGEL-bg.png;
#PREVIEWVID:;
#JACKET:;
#CDIMAGE:;
#DISCIMAGE:;
#LYRICSPATH:;
#CDTITLE:;
#MUSIC:ANGEL.mp3;
#OFFSET:-0.636;
#SAMPLESTART:58.886;
#SAMPLELENGTH:12.000;
#SELECTABLE:YES;
#DISPLAYBPM:85.000:170.000;
#BPMS:0.000=170.000,
260.000=85.000,
268.000=170.000;
#STOPS:;
#DELAYS:;
#WARPS:;
#TIMESIGNATURES:0.000=4=4;
#TICKCOUNTS:0.000=4;
#COMBOS:0.000=1;
#SPEEDS:0.000=1.000=0.000=0;
#SCROLLS:0.000=1.000;
#FAKES:;
#LABELS:0.000=Song Start;
#BGCHANGES:;
#KEYSOUNDS:;
#ATTACKS:
;

//---------------dance-single - ----------------
#NOTEDATA:;
#CHARTNAME:;
#STEPSTYPE:dance-single;
#DESCRIPTION:;
#CHARTSTYLE:;
#DIFFICULTY:Hard;
#METER:13;
#RADARVALUES:0.516,0.539,0.426,0.147,0.000,393.000,55.000,19.000,0.000,0.000,0.000,0.000,0.000,0.516,0.539,0.426,0.147,0.000,393.000,55.000,19.000,0.000,0.000,0.000,0.000,0.000;
#CREDIT:;
#DISPLAYBPM:85.000:170.000;
#NOTES:
0000
0000
0000
0000
,
0000
0000
0000
0000
,
0000
0000
0000
0000
,
0000
0000
0000
0000
,
0000
0000
0000
0000
,
0002
0000
0000
0000
,
2003
0000
0000
0000
,
3020
0000
0000
0000
,
0000
0000
0000
0000
,
0130
0000
0100
0000
0110
0000
0010
1000
,
0000
0001
0000
0100
0000
0001
0100
0010
,
1000
0000
1000
0000
1001
0000
0001
0010
,
0000
0100
0000
1000
0000
0001
0010
0100
,
1000
0000
0010
0000
1010
0000
0100
0001
,
0000
1000
0000
0010
0000
0100
0001
1000
,
0100
0000
0010
0000
0011
0000
0010
0100
,
0000
0100
0000
0100
0000
0100
0000
0100
,
1000
0010
1000
0001
1000
0001
0100
0000
,
0001
0100
1000
0000
1000
0100
0001
0000
,
0010
0001
1000
0001
1000
0001
0100
0000
,
0010
1000
0100
0000
0100
1000
0010
0000
,
0100
0101
0001
1001
,
1000
0000
1100
0000
0100
0000
0100
0010
,
0000
0110
0000
0000
0000
0000
1000
0100
,
0000
0110
0000
0000
0000
0000
0000
0000
,
0001
0010
0100
1000
0001
1000
0100
0010
,
0001
0100
0010
1000
0001
1000
0010
0100
,
0001
0100
0010
1000
0100
1000
0010
0100
,
0001
1000
0100
1000
0001
0010
0001
0100
,
0010
0110
0010
1010
,
1000
0000
1001
0000
0011
0000
0100
0100
,
0000
0110
0000
0000
0000
0000
0000
1000
,
0000
2002
0000
0000
0000
0000
3003
0000
,
2000
0000
0000
0000
,
0200
0300
0200
3000
,
0320
0000
0000
0000
,
0000
0000
0001
0031
,
0001
0100
0000
0010
0000
1000
0000
0001
,
0000
1000
0000
0001
0000
0010
0000
0100
,
0000
0010
0000
0001
0000
1000
0000
0010
,
0000
0100
0000
0001
0000
1000
0000
0100
,
1000
0010
0100
0010
1000
0010
0100
0010
,
0100
0001
0010
0001
0100
0001
0010
0001
,
1000
0010
0001
0010
0001
0010
1000
0001
,
0001
0010
1000
0010
1000
0010
0001
1000
,
0010
0011
0001
1001
,
1000
1010
0010
0110
,
0100
0100
0100
0100
,
0100
0001
0100
1000
0100
0000
0100
0000
,
0110
0000
1010
0000
1001
0000
0001
0100
,
0000
0100
0000
0010
0000
0100
0010
1000
,
1001
0000
0011
0000
1100
0000
0100
0010
,
0000
0001
0000
1000
0000
0001
0010
0100
,
1100
0000
0011
0000
1001
0000
1000
0010
,
0000
0100
0000
0010
0000
0100
0001
1000
,
1001
0000
0011
0000
1100
0000
0010
0001
,
0000
1000
0000
0001
0000
1000
0000
0001
,
0100
0000
0100
0000
0100
0001
0100
0001
,
0100
0000
0100
0000
0100
1000
0100
1000
,
0100
0000
0100
0000
0100
0010
0100
0010
,
0100
0100
0100
0100
,
0010
1000
0010
0001
0010
1000
0010
0001
,
0010
1000
0010
0001
0010
1000
0010
0100
,
0000
0220
0000
0000
0000
0330
0000
1000
,
0000
2002
0000
0000
0000
0000
3003
0000
,
2000
0000
0000
3000
0002
0000
0100
0003
,
0220
0000
0000
0330
,
1000
0010
0100
0010
1000
0001
0010
0001
,
0100
0001
1000
0001
0010
0001
0100
0001
,
0100
1010
0100
0011
,
0001
1010
1000
0101
,
0010
0100
0001
1000
0010
0100
0001
1000
,
0100
0010
0001
1000
0100
0010
0001
1000
,
0001
0010
0100
1000
0001
0010
0100
1000
,
0010
1000
0001
0100
0010
1000
0001
0100
,
0010
1010
0100
0101
,
0001
0011
0100
1100
,
0010
0010
0010
0010
,
0010
1000
0010
0001
0010
0000
0010
0000
,
0101
0000
1010
0000
1001
0000
1000
0002
,
0000
0000
0000
0000
0003
1000
0100
0010
,
0011
0000
1001
0000
1010
0000
0010
0200
,
0000
0000
0000
0010
0300
0010
1000
0001
,
1001
0000
1100
0000
0101
0000
0010
0100
,
0000
0010
0000
1000
0000
0001
0010
0100
,
0110
0000
1100
0000
1001
0000
0001
0100
,
0000
0100
0000
0100
0000
0100
0000
0100
,
1001
0000
0000
0000
;

//---------------dance-single - ----------------
#NOTEDATA:;
#CHARTNAME:;
#STEPSTYPE:dance-single;
#DESCRIPTION:;
#CHARTSTYLE:;
#DIFFICULTY:Challenge;
#METER:17;
#RADARVALUES:0.776,0.808,0.906,0.132,0.240,568.000,117.000,17.000,0.000,0.000,0.000,0.000,0.000,0.776,0.808,0.906,0.132,0.240,568.000,117.000,17.000,0.000,0.000,0.000,0.000,0.000;
#CREDIT:;
#DISPLAYBPM:85.000:170.000;
#NOTES:
0000
0000
0000
0000
,
0000
0000
0000
0000
,
0000
0000
0000
0000
,
0000
0000
0000
0000
,
0000
0000
0000
0000
,
0002
0000
0000
0000
,
2003
0000
0000
0000
,
3020
0000
0000
0000
,
0000
0000
0000
0000
,
0130
0001
1000
0010
1000
0100
0001
0010
,
0001
0100
1000
0010
0100
0001
0100
0001
,
1000
0010
0100
0001
0100
1000
0010
0001
,
0010
1000
0100
0010
1000
0001
1000
0001
,
0010
0100
1000
0001
0010
0001
0100
1000
,
0100
0001
0010
0100
1000
0010
1000
0010
,
0100
0001
1000
0100
0010
0001
1000
0010
,
0100
0001
0000
1001
0000
1001
0000
1001
,
0100
0000
0010
0000
1010
0000
0010
0000
0100
0000
0001
0000
0010
0001
0010
0000
,
0100
0000
0010
0000
0011
0000
0010
0000
0100
0000
1000
0000
0010
1000
0010
0000
,
0100
0000
0001
0000
0011
0000
0001
0000
0100
0000
0010
0000
1000
0001
1000
0000
,
0100
0000
1000
0000
1010
0000
1000
0000
0100
0000
0010
0000
0001
1000
0001
0000
,
0100
1010
0100
0011
0010
1100
0010
0101
,
1000
0011
1000
0110
0001
1010
0001
0110
,
0000
2002
0000
0000
3003
0000
1000
0110
,
0000
2002
0000
0000
0000
0000
3003
0000
,
0001
0100
1010
1000
0100
0010
0011
0100
,
1000
0000
0010
0000
0101
0000
0010
0000
1000
0010
1000
0000
0001
0100
0001
0000
,
1000
0010
0101
0001
1000
0100
0011
0001
,
1000
0000
0010
0000
1010
0000
0100
0000
0010
1000
0010
0000
0100
0001
0100
0000
,
0010
1000
0100
0001
0010
0001
0100
1000
,
0010
0100
0001
1000
0100
0010
0001
1000
,
1001
0020
0000
0000
0000
0000
0030
1000
,
1001
0200
0000
0000
0000
0000
0000
0300
,
0020
0000
0000
0000
,
0002
0003
2000
3000
,
0200
0000
0000
0030
,
0000
0000
0010
0310
,
0010
1010
0000
1001
0000
0011
0000
0110
,
0000
0011
0000
1001
0000
1010
0000
0110
,
0000
1010
0000
0101
0000
0011
0000
1100
,
0000
0011
0000
1100
0000
1010
0000
0101
,
0001
0000
1000
0000
1100
0000
1000
0100
1000
0100
1000
0000
0100
0000
0010
0000
,
0001
0000
1000
0000
1010
0000
0010
1000
0010
1000
0010
0000
1000
0000
0001
0000
,
0010
0000
0100
0000
0011
0000
0001
0010
0001
0010
0001
0000
1000
0000
0010
0000
,
1000
0000
0001
0000
0101
0000
0100
0001
0100
0001
0100
0000
0010
0000
1000
0000
,
0001
0000
1000
0000
1100
0000
1000
0100
0010
0100
1000
0000
1100
0000
0100
0000
,
0010
0000
0001
0000
0101
0000
0100
0010
1000
0010
0100
0000
0101
0000
0001
0000
,
0010
0000
0001
0000
1010
0000
0010
0100
0001
0100
0010
0000
1010
0000
1000
0000
,
0100
0000
0010
0000
0011
0000
0010
0100
1000
0100
0010
0000
0011
0000
0100
0000
,
1100
0000
1001
0000
0101
0100
0010
1010
,
0000
0101
0000
1001
0000
1000
0100
0010
,
0011
0000
1001
0000
1010
0010
0100
0101
,
0000
1010
0000
0110
0000
0010
1000
0001
,
0011
0000
1100
0000
1001
0001
1000
1010
,
0000
0101
0000
0110
0000
0010
0100
0001
,
0101
0000
1001
0000
1100
0000
0010
0110
,
0000
0110
0000
0110
0000
0110
0000
0110
,
0100
1000
1010
0010
0100
0001
0011
0001
,
0100
0010
1010
1000
0100
0010
0011
1000
,
0001
0100
0101
0010
1000
0100
1100
1000
,
0010
0100
0101
0001
0010
0100
1100
1000
,
0010
1000
0100
0001
0100
1000
0010
0100
,
0010
0001
0100
1000
0100
0001
0010
0001
,
1001
2000
0000
0000
0000
0000
3000
1000
,
0110
0002
0000
0000
0000
0000
0003
0000
,
0001
0100
0010
1000
0001
0100
0010
1000
1000
0100
0010
0001
1000
0100
0010
0001
,
1000
0010
0001
0100
0001
0010
1000
0001
0010
1000
0100
1000
0010
0001
0100
0010
,
1000
0100
0001
0100
1000
0100
0001
0100
,
0010
0001
0010
1000
0010
0001
0010
0100
,
1000
0010
0001
0010
1000
0010
0001
0010
,
0100
0001
0100
1000
0100
0001
0100
1000
,
0100
0000
0001
0000
0011
0000
0001
0010
1000
0010
0001
0000
0011
0000
0001
0000
,
0100
0000
0010
0000
1010
0000
1000
0010
0001
0010
1000
0000
1010
0000
0100
0000
,
0010
0000
1000
0000
1001
0000
0001
0010
0100
1000
0001
0000
1001
0000
0001
0000
,
0100
0000
0010
0000
1010
0000
1000
0100
0001
0100
1000
0000
1010
0000
0010
0000
,
0100
0000
0001
0000
1001
0000
1000
0100
0010
0001
1000
0000
1001
0000
1000
0000
,
0100
0000
0010
0000
0011
0000
0010
0001
0100
0001
0010
0000
0011
0000
0001
0000
,
0100
0000
0010
0000
1000
0010
1000
0000
0001
0000
0010
0000
0100
1000
0100
0000
,
1000
0100
0010
0001
0010
0100
1000
0001
0100
0010
1000
0010
0100
0001
1000
0001
,
0100
0000
1010
0000
1001
0000
0001
0020
,
0000
0100
0000
0100
0000
0100
0130
0010
,
0011
0000
1001
0000
1010
0000
0010
0200
,
0000
0000
0000
0001
0000
0301
0001
0100
,
1010
0000
1001
0000
0011
0000
0010
0100
,
0000
0110
0000
1001
0000
0001
0100
0010
,
1000
0100
0001
0100
1000
0010
0001
0010
,
0100
0110
0000
0110
0000
0110
0000
0110
,
1001
0000
0000
0000
;

//---------------dance-single - ----------------
#NOTEDATA:;
#CHARTNAME:;
#STEPSTYPE:dance-single;
#DESCRIPTION:;
#CHARTSTYLE:;
#DIFFICULTY:Medium;
#METER:10;
#RADARVALUES:0.413,0.438,0.178,0.093,0.000,338.000,23.000,12.000,0.000,0.000,0.000,0.000,0.000,0.413,0.438,0.178,0.093,0.000,338.000,23.000,12.000,0.000,0.000,0.000,0.000,0.000;
#CREDIT:;
#DISPLAYBPM:85.000:170.000;
#NOTES:
0000
0000
0000
0000
,
0000
0000
0000
0000
,
0000
0000
0000
0000
,
0000
0000
0000
0000
,
0000
0000
0000
0000
,
0100
0000
0000
0000
,
0100
0000
0000
0000
,
0020
0000
0000
0000
,
0000
0000
0000
0030
,
0100
0000
0100
0000
0100
0000
0100
0010
,
0000
1000
0000
0001
0000
1000
0001
1000
,
0010
0000
0010
0000
0010
0000
0010
1000
,
0000
0001
0000
1000
0000
0001
1000
0001
,
0100
0000
0100
0000
0010
0000
0010
1000
,
0000
0001
0000
1000
0000
0001
0010
0100
,
0010
0000
0010
0000
0100
0000
0010
0001
,
0000
0100
0000
0100
0000
0100
0000
0100
,
0010
0010
1000
1000
,
0001
0001
0010
0010
,
0100
0100
1000
1000
,
0001
0001
0010
0010
,
0001
0100
0010
1000
,
1000
0100
0010
0001
,
1000
0100
0010
0001
,
0001
0100
0010
1000
,
0010
0000
1010
0000
1000
0010
1000
0000
,
0001
0000
1001
0000
0001
0010
0100
1000
,
0001
0000
0011
0000
0001
0010
0001
0000
,
1000
0000
1001
0000
0001
1000
0001
1000
,
0100
0110
0010
0110
,
1000
0000
0100
0000
0010
0000
0001
1000
,
0000
1001
0000
0000
0000
0000
0000
0110
,
0000
2002
0000
0000
0000
0000
3003
0000
,
0020
0000
0000
0030
,
0200
0000
0001
0300
,
0002
0000
0000
0000
,
0000
0000
0000
0003
,
0000
1000
0000
0010
0000
1000
0000
0010
,
0000
0100
0000
0001
0000
0100
0000
0001
,
0000
1000
0000
0001
0000
1000
0000
0001
,
0000
0010
0000
0100
0000
0010
0000
0100
,
0010
0000
0011
0000
0001
1000
0001
0000
,
1000
0000
1010
0000
1000
0001
1000
0000
,
0001
0000
0101
0000
0001
1000
0001
0000
,
1000
0000
1100
0000
1000
0001
1000
0000
,
0010
0000
0110
0000
0010
1000
0001
0000
,
0100
0000
0110
0000
0100
0001
1000
0000
,
0100
0000
0010
0000
0001
1000
0001
0000
,
0010
0000
0100
0000
1000
0001
1000
0000
,
0010
0000
0010
0000
0100
0000
0100
0001
,
0000
0001
0000
1000
0000
1000
0100
0010
,
0001
0000
0001
0000
1000
0000
1000
0010
,
0000
0010
0000
0100
0000
0100
0001
1000
,
0010
0000
0010
0000
1000
0000
1000
0001
,
0000
0010
0000
0001
0000
1000
0100
0010
,
0001
0000
0001
0000
0100
0000
0100
0010
,
0000
0010
0000
0010
0000
0010
0000
0010
,
0100
0000
0100
0000
0100
0001
0100
0000
,
0100
0000
0100
0000
0100
1000
0100
0000
,
0010
0000
0010
0000
0010
1000
0010
0000
,
0010
0000
0010
0000
0010
0001
0010
0000
,
0100
0001
0100
1000
,
0100
0000
0001
0000
0100
0000
0100
0010
,
0000
0220
0000
0000
0330
0000
0000
1000
,
0000
2002
0000
0000
0000
0000
3003
0000
,
2000
0000
3100
0100
,
0020
0000
0000
0030
,
0010
0001
1000
0010
,
0100
0001
1000
0010
,
1000
1000
0001
0001
,
1000
1000
0001
0001
,
0100
0000
1010
0000
0010
1000
0001
0000
,
0100
0000
0011
0000
0100
1000
0001
0000
,
1000
0000
1001
0000
0001
0010
0100
0000
,
0001
0000
1001
0000
1000
0010
0100
0000
,
0010
1001
0100
1001
,
1000
0100
0001
0100
,
0010
0001
0010
0100
0010
0001
0010
0000
,
0100
1000
0100
1000
0010
1000
0010
0000
,
0100
0000
0010
0000
0100
0000
0100
0001
,
0000
0000
0000
0000
0000
1000
0001
1000
,
0100
0000
0100
0000
1000
0000
0001
0100
,
0000
0000
0000
0100
0000
0100
0010
1000
,
0001
0000
0001
0000
1000
0000
0100
1000
,
0000
1000
0000
0001
0000
0001
0010
0100
,
1000
0000
1000
0000
0001
0000
0001
0100
,
0000
0100
0000
0100
0000
0100
0000
0100
,
0100
0000
0000
0000
;

//---------------dance-single - ----------------
#NOTEDATA:;
#CHARTNAME:;
#STEPSTYPE:dance-single;
#DESCRIPTION:;
#CHARTSTYLE:;
#DIFFICULTY:Easy;
#METER:7;
#RADARVALUES:0.346,0.337,0.232,0.116,0.000,268.000,30.000,15.000,0.000,0.000,0.000,0.000,0.000,0.346,0.337,0.232,0.116,0.000,268.000,30.000,15.000,0.000,0.000,0.000,0.000,0.000;
#CREDIT:;
#DISPLAYBPM:85.000:170.000;
#NOTES:
0000
0000
0000
0000
,
0000
0000
0000
0000
,
0000
0000
0000
0000
,
0000
0000
0000
0000
,
0000
0000
0000
0000
,
0000
0000
0000
0000
,
0000
0000
0000
0000
,
0000
0000
0000
0000
,
0000
0000
0000
0000
,
0001
0001
0001
1001
,
1000
1000
1000
1001
,
0100
0100
0100
0110
,
0010
0010
0010
0110
,
0001
0001
0001
1001
,
1000
1000
1000
1001
,
0100
0100
0100
0110
,
0010
0010
0010
0110
,
0010
1000
0010
1000
,
0001
0100
0001
1000
,
0100
1000
0100
1000
,
0001
0010
0001
1000
,
0010
0010
1000
1000
,
0001
0001
0100
0100
,
0020
0000
0000
0030
,
0200
0000
0000
0300
,
0010
0110
0010
1000
,
0001
1001
1000
0100
,
0010
0110
0001
1000
,
0010
1001
0100
0001
,
0100
0100
0001
0001
,
1000
1000
0100
0100
,
0000
0200
0000
0000
0000
0000
0300
0000
,
0000
2002
0000
0000
0000
0000
3003
0000
,
2000
0000
0000
3000
,
0002
0000
0000
0003
,
0200
0000
0000
0000
,
0000
0000
0000
0300
,
0010
0010
0100
0100
,
0010
0010
0100
0100
,
0001
1000
0001
1000
,
0001
1000
0001
1000
,
0100
1000
0010
0001
,
0010
0100
0001
1000
,
0001
0010
1000
0100
,
0010
1000
0001
0100
,
0010
1000
0100
0001
,
1000
0010
0001
0100
,
0010
0010
0100
0100
,
0001
0001
1000
1000
,
0100
0100
0100
0110
,
0010
0010
0010
0110
,
1000
1000
1000
1001
,
0001
0001
0001
1001
,
0100
0100
0100
0110
,
0010
0010
0010
0110
,
1000
1000
1000
1001
,
0001
0001
0001
1001
,
0200
0001
0000
0001
,
0000
0010
0000
0310
,
0020
1000
0000
1000
,
0000
0100
0000
0130
,
0100
0010
0100
0010
,
1000
0001
1000
0100
,
0000
0200
0000
0000
0000
0000
0300
0000
,
0000
2002
0000
0000
0000
0000
3003
0000
,
2000
0000
0000
3000
,
0002
0000
0000
0003
,
0100
0001
0100
0010
,
0100
1000
0100
0010
,
1000
1000
0001
0001
,
0100
0100
0010
0010
,
1000
0100
1000
1001
,
0001
0100
0001
1001
,
1000
0010
1000
1001
,
0001
0100
0001
1001
,
1000
0100
0010
0110
,
0001
0100
0010
0110
,
1000
1000
1000
1000
,
0001
0001
0001
0001
,
0100
0000
0100
0000
0100
0000
0100
0010
,
0000
0000
0000
0110
,
1000
0000
1000
0000
1000
0000
1000
0001
,
0000
0000
0000
1001
,
0010
0000
0010
0000
0010
0000
0010
0100
,
0000
0100
0000
0100
0000
0100
0000
0100
,
0001
0000
0001
0000
0001
0000
0001
1000
,
0000
1000
0000
1000
0000
1000
0000
1000
,
0100
0000
0000
0000
;

//---------------dance-single - ----------------
#NOTEDATA:;
#CHARTNAME:;
#STEPSTYPE:dance-single;
#DESCRIPTION:;
#CHARTSTYLE:;
#DIFFICULTY:Beginner;
#METER:4;
#RADARVALUES:0.185,0.202,0.008,0.015,0.000,164.000,1.000,2.000,0.000,0.000,0.000,0.000,0.000,0.185,0.202,0.008,0.015,0.000,164.000,1.000,2.000,0.000,0.000,0.000,0.000,0.000;
#CREDIT:;
#DISPLAYBPM:85.000:170.000;
#NOTES:
0000
0000
0000
0000
,
0000
0000
0000
0000
,
0000
0000
0000
0000
,
0000
0000
0000
0000
,
0000
0000
0000
0000
,
0000
0000
0000
0000
,
0000
0000
0000
0000
,
0000
0000
0000
0000
,
0000
0000
0000
0000
,
0100
0000
0100
0000
,
0010
0000
0010
0000
,
0100
0000
0100
0000
,
0010
0000
0010
0000
,
1000
0000
1000
0000
,
0001
0000
0001
0000
,
1000
0000
1000
0000
,
0001
0000
0001
0000
,
0100
0000
0000
0000
,
0100
0000
0100
0000
,
0010
0000
0000
0000
,
0010
0000
0010
0000
,
1000
0000
0000
0000
,
1000
0000
1000
0000
,
0001
0000
0000
0000
,
0001
0000
0001
0000
,
0100
0000
0001
0000
,
0100
0000
0001
0000
,
1000
0000
0010
0000
,
1000
0000
0010
0000
,
0100
0000
0100
0000
,
0010
0000
0010
0000
,
1000
0000
1000
0000
,
0001
0000
0001
0000
,
0200
0000
0000
0000
,
0000
0000
0000
0000
,
0000
0000
0000
0000
,
0000
0000
0300
0000
,
0010
0010
0010
0000
,
1000
1000
1000
0000
,
0001
0001
0001
0000
,
0100
0100
0100
0000
,
0010
1000
0010
0000
,
0100
0001
0100
0000
,
0001
1000
0001
0000
,
1000
0001
1000
0000
,
0100
0010
0100
0000
,
0010
0100
0010
0000
,
0001
0000
0001
0000
,
1000
0000
1000
0000
,
0010
0010
0010
0000
,
0000
0000
0000
0000
,
0100
0100
0100
0000
,
0000
0000
0000
0000
,
0001
0001
0001
0000
,
0000
0000
0000
0000
,
1000
1000
1000
0000
,
0000
0000
0000
0000
,
0100
0000
0100
0000
,
0010
0000
0001
0000
,
0100
0000
0100
0000
,
0010
0000
1000
0000
,
0001
0000
1000
0000
,
0001
0000
1000
0000
,
0100
0000
0010
0000
,
0100
0000
0010
0000
,
0200
0000
0000
0000
,
0000
0000
0000
0300
,
0010
0000
0010
0000
,
0001
0000
0001
0000
,
1000
0000
1000
0000
,
0010
0000
0010
0000
,
1000
0001
1000
0000
,
0001
1000
0001
0000
,
0100
0010
0100
0000
,
0010
0100
0010
0000
,
1000
0100
1000
0000
,
0001
0010
0001
0000
,
1000
0001
1000
0000
,
0001
1000
0001
0000
,
0100
0100
0100
0000
,
0001
0001
0001
0000
,
0010
0010
0010
0000
,
1000
1000
1000
0000
,
0010
0010
0010
0000
,
0001
0001
0001
0000
,
0100
0100
0100
0000
,
0010
0000
0010
0000
,
1001
0000
0000
0000
;

//---------------dance-double - ----------------
#NOTEDATA:;
#CHARTNAME:;
#STEPSTYPE:dance-double;
#DESCRIPTION:;
#CHARTSTYLE:;
#DIFFICULTY:Challenge;
#METER:17;
#RADARVALUES:0.806,0.909,0.759,0.124,0.294,615.000,98.000,16.000,0.000,0.000,0.000,0.000,0.000,0.806,0.909,0.759,0.124,0.294,615.000,98.000,16.000,0.000,0.000,0.000,0.000,0.000;
#CREDIT:;
#DISPLAYBPM:85.000:170.000;
#NOTES:
00000000
00000000
00000000
00000000
,
00000000
00000000
00000000
00000000
,
00000000
00000000
00000000
00000000
,
00000000
00000000
00000000
00000000
,
00000000
00000000
00000000
00000000
,
10000000
00100000
00010000
00001000
00010000
00100000
10000000
00010000
,
00100000
00001000
00010000
00000100
00010000
00001000
00100000
00001000
,
00010000
00001000
00000100
00000001
00000100
00001000
00010000
00001000
,
00000100
00000001
00000010
00000001
00001000
00000001
00000100
00000010
,
00001010
00000000
00000101
00000000
00001001
00001000
00000100
00000110
,
00000000
00000011
00000000
00001001
00000000
00000001
00000010
00001000
,
00001100
00000000
00010100
00000000
00011000
00001000
01000000
00100000
,
00000000
10100000
00000000
00110000
00000000
00100000
01000000
00010000
,
00001010
00000000
00001001
00000000
00010100
00000000
00010000
00001000
,
00000000
00101000
00000000
10010000
00000000
10000000
00010000
00100000
,
01010000
00000000
00011000
00000000
00010010
00000000
00000010
00000100
,
00000000
00001001
00000000
00001001
00000000
00001001
00000000
00001001
,
00000100
00000001
00000100
00001000
00000100
00000010
00001000
00010000
,
01000000
00100000
01000000
00000000
00100000
00000000
10000000
00000000
00010000
10000000
00010000
00000000
10000000
00000000
01000000
00000000
,
00100000
00010000
00100000
10000000
00100000
01000000
00010000
00001000
,
00000100
00000010
00000100
00000000
00000010
00000000
00001000
00000000
00000001
00001000
00000001
00000000
00000010
00000000
00000100
00000000
,
00001000
00001100
00010000
00010010
00001000
00000101
00000010
00001100
,
00010000
00011000
00001000
00101000
00010000
11000000
10000000
10100000
,
01000000
00200000
00000000
00000000
00300000
00000000
00000000
00100000
,
00011000
00000200
00000000
00000000
00000000
00000000
00000300
00000000
,
00001000
00000000
00000100
00000000
00000010
00000000
00000001
00000010
00001000
00010000
01000000
00000000
10000000
00000000
00100000
00000000
,
00010000
00000000
00100000
00000000
10000000
00000000
00100000
00010000
00001000
00000100
00000001
00000000
00001000
00000000
00000100
00000000
,
00001000
00000000
00010000
00000000
01000000
00000000
00100000
10000000
00010000
00100000
00001000
00000000
00010000
00000000
00000100
00000000
,
00001000
00000000
00000001
00000000
00000100
00000000
00001000
00000100
00000010
00010000
01000000
00000000
00100000
00000000
00010000
00000000
,
10000000
00000000
00100000
00000000
01000000
00000000
00100000
00010000
00001000
00000100
00010000
00000000
00001000
00000000
00000001
00000000
,
00000010
00000000
00000100
00000000
00001000
00000000
00000100
00010000
00001000
00100000
01000000
00000000
00100000
00000000
20020000
00000000
,
00000000
00000000
00000000
00000000
30030000
00000000
00000000
11000000
,
00000000
00202000
00000000
00000000
00000000
00000000
00303000
00000000
,
00020000
00000000
00000000
00000000
,
00030200
00000300
00020000
00030000
,
00000020
00000000
00000000
00000000
,
00000000
00000000
00000100
00000130
,
00000100
00001010
00000000
00000101
00000000
00001100
00000000
00000011
,
00000000
00010100
00000000
00011000
00000000
00101000
00000000
01100000
,
00000000
00110000
00000000
11000000
00000000
10100000
00000000
01010000
,
00000000
00101000
00000000
00011000
00000000
00010010
00000000
00000110
,
00000100
00000000
00000001
00000000
00001001
00000000
00001000
00000010
00000001
00001000
00000100
00000000
00001000
00000000
00010000
00000000
,
00001000
00000000
00100000
00000000
01100000
00000000
00100000
01000000
10000000
00010000
01000000
00000000
00100000
00000000
00010000
00000000
,
00001000
00000000
00010000
00000000
00010100
00000000
00000100
00000010
00000001
00000100
00001000
00000000
00010000
00000000
00001000
00000000
,
00010000
00000000
01000000
00000000
01100000
00000000
01000000
10000000
00100000
00010000
00001000
00000000
00010000
00000000
00000100
00000000
,
00010000
00000000
00001000
00000000
00101000
00000000
00100000
01000000
00010000
00001000
00000100
00000000
00000010
00000000
00001000
00000000
,
00000100
00000000
00010000
00000000
00001010
00000000
00000010
00000100
00001000
00010000
00100000
00000000
10000000
00000000
00010000
00000000
,
10000000
00000000
01000000
00000000
01100000
00000000
00010000
00100000
00001000
00000010
00000100
00000000
00000010
00000000
00000001
00000000
,
00001000
00000000
00000010
00000000
00001001
00000000
00000001
00000100
00001000
00010000
00000100
00000000
00011000
00000000
00000000
00000000
,
00010000
00001000
00000100
00000001
00000010
00000100
00001000
00000001
,
00000100
00001000
00010000
01000000
00010000
00001000
00010000
00100000
,
10000000
00100000
00010000
00001000
00010000
00100000
01000000
00010000
,
00100000
00001000
00000100
00000010
00010000
01000000
00001000
00000100
,
00010000
00001000
00000100
00000001
00001000
00000100
00010000
00001000
,
00100000
00010000
10000000
00100000
00010000
00001000
00010000
00000100
,
00001000
00000001
00000100
00001000
00010000
00100000
10000000
01000000
,
00100000
00110000
00000000
10010000
00000000
11000000
00000000
10010000
,
00010000
00000000
01000000
00000000
00100000
10000000
00100000
00000000
10000000
00000000
01000000
00000000
00100000
00010000
00100000
00000000
,
10000000
00000000
00100000
00000000
00010000
00000000
00001000
00000100
00000010
00001000
00000100
00000000
00001000
00000000
00000001
00000000
,
00000010
00000000
00000100
00000000
00000010
00000001
00000010
00000000
00000100
00000000
00001000
00000000
00000001
00001000
00000001
00000000
,
00000100
00000000
00001000
00000000
00010000
00000000
00001000
00100000
00010000
01000000
00100000
00000000
10000000
00000000
00010000
00000000
,
10000000
00100000
01100000
00100000
01000000
00010000
00110000
00010000
,
00100000
00001000
00011000
00001000
00000100
00000001
00000101
00000010
,
00000000
00000220
00000000
00000000
00000000
00000330
00000000
00001000
,
00000000
00002002
00000000
00000000
00000000
00000000
00003003
00000000
,
00000001
00000100
00001000
00010000
00100000
10000000
01000000
00010000
00001000
00000010
00000001
00000100
00001000
00010000
00100000
10000000
,
00100000
00010000
00001000
00000100
00000001
00000010
00001000
00010000
01000000
10000000
00100000
00010000
00001000
00000100
00001000
00010000
,
00100000
10000000
10010000
00010000
01000000
00100000
01100000
00100000
,
00010000
00001000
00011000
00010000
00000100
00000010
00000110
00000010
,
00000001
00001000
00001001
00000001
00000100
00000010
00000110
00000010
,
00001000
00000100
00010100
00010000
00001000
01000000
01010000
01000000
,
00100000
00000000
10000000
00000000
10010000
00000000
10000000
01000000
00010000
00001000
00000100
00000000
00001100
00000000
00000001
00000000
,
00000010
00000000
00000001
00000000
00001001
00000000
00000001
00000100
00001000
00010000
00100000
00000000
10100000
00000000
01000000
00000000
,
00010000
00000000
10000000
00000000
11000000
00000000
01000000
00010000
00001000
00000100
00000010
00000000
00000110
00000000
00000100
00000000
,
00000001
00000000
00000010
00000000
00000011
00000000
00000100
00000010
00001000
00010000
01000000
00000000
00110000
00000000
00010000
00000000
,
10000000
00000000
00100000
00000000
01100000
00000000
10000000
00100000
00010000
00001000
00000100
00000000
00001000
00000000
00010000
00000000
,
00000100
00000000
00001000
00000000
00001001
00000000
00000001
00000010
00001000
00010000
01000000
00000000
00100000
00000000
00010000
00000000
,
10000000
00100000
01100000
00100000
00010000
00001000
00011000
00001000
,
00010000
00000100
00000010
00000001
00001000
00000010
00000100
00001000
00010000
00100000
10000000
01000000
00100000
00001000
00010000
00100000
,
01000000
00100000
10000000
00100000
00010000
00001000
00010000
00022000
,
00000000
00000000
00000000
00033000
00000000
00010000
00000100
00000010
,
00000001
00000100
00001000
00010000
00000100
00001000
00000010
00000110
,
00000000
00000000
00000000
00001010
00000000
00001000
00000010
00000001
,
00001000
00000100
00001000
00010000
01000000
00100000
00010000
10000000
,
00100000
00010000
00001000
00000010
00000001
00001000
00000100
00010000
,
00000010
00000100
00000001
00000100
00001000
00010000
00100000
10000000
,
01000000
01100000
00000000
01100000
00000000
01100000
00000000
01100000
,
10010000
00000000
00000000
00000000
;

//---------------dance-double - ----------------
#NOTEDATA:;
#CHARTNAME:;
#STEPSTYPE:dance-double;
#DESCRIPTION:;
#CHARTSTYLE:;
#DIFFICULTY:Hard;
#METER:13;
#RADARVALUES:0.514,0.572,0.410,0.170,0.000,390.000,53.000,22.000,0.000,0.000,0.000,0.000,0.000,0.514,0.572,0.410,0.170,0.000,390.000,53.000,22.000,0.000,0.000,0.000,0.000,0.000;
#CREDIT:;
#DISPLAYBPM:85.000:170.000;
#NOTES:
00000000
00000000
00000000
00000000
,
00000000
00000000
00000000
00000000
,
00000000
00000000
00000000
00000000
,
00000000
00000000
00000000
00000000
,
00000000
00000000
00000000
00000000
,
00200000
00000000
00000000
00300000
,
00020000
00000000
00000000
00030000
,
00002000
00000000
00000000
00000000
,
00000000
00000000
00000000
00003000
,
00011000
00000000
00010100
00000000
00000110
00000000
00000010
00000001
,
00000000
00001001
00000000
00000101
00000000
00000100
00000010
00010000
,
00011000
00000000
01001000
00000000
01100000
00000000
00100000
10000000
,
00000000
10010000
00000000
00110000
00000000
00100000
01000000
10000000
,
10100000
00000000
01010000
00000000
00101000
00000000
00010000
00000100
,
00000000
00001100
00000000
00001001
00000000
00000001
00001000
00000100
,
00000011
00000000
00001100
00000000
00010010
00000000
00010000
00001000
,
00000000
00010000
00000000
00010000
00000000
00010000
00000000
00010000
,
00001000
00000000
00001000
00000000
00001000
00010000
00001000
00100000
,
00001000
00000000
00001000
00000000
00001000
00010000
00001000
01000000
,
00001000
00000000
00001000
00000000
00001000
00010000
00001000
10000000
,
00001000
00001000
00001000
00001000
,
00010000
00000100
00010000
00001000
00010000
00000010
00010000
00001000
,
00010000
00000100
00010000
00001000
00010000
00000010
00010000
00000100
,
00000000
00000220
00000000
00000000
00000330
00000000
00000000
00001000
,
00000000
00002002
00000000
00000000
00000000
00000000
00003003
00000000
,
00000001
00000000
00000100
00000000
00000010
00001000
00000010
00000000
,
00001000
00000000
00000100
00000000
00010000
00001000
00010000
00000000
,
00100000
00000000
10000000
00000000
00010000
01000000
00010000
00000000
,
00100000
00000000
00001000
00000000
00010000
00001000
00010000
00000000
,
00001000
00000000
00010000
00000000
00100000
10000000
00100000
00000000
,
00010000
00000000
00001000
00000000
00000010
00000001
00000010
00000100
,
00000000
00000220
00000000
00000000
00000330
00000000
00000000
00001000
,
00000000
00002002
00000000
00000000
00000000
00000000
00003003
00000000
,
00000200
00000000
00000000
00000000
,
00002000
00003000
00000002
00000003
,
00000020
00000000
00000300
00000000
,
00000000
00000000
00000100
00000130
,
00000100
00000001
00000000
00000100
00000000
00000010
00000000
00000100
,
00000000
00001000
00000000
00010000
00000000
00100000
00000000
10000000
,
00000000
00010000
00000000
10000000
00000000
01000000
00000000
00100000
,
00000000
01000000
00000000
10000000
00000000
00010000
00000000
10000000
,
00100000
01000000
00010000
00000000
00100000
01000000
10000000
00000000
,
01000000
00010000
00001000
00000000
00001000
00010000
00100000
00000000
,
00100000
00001000
00000010
00000000
00000010
00001000
00000100
00000000
,
00000100
00001000
00000001
00000000
00000001
00000100
00001000
00000000
,
00000100
00001000
00010000
00000000
00010000
00000010
00000001
00000000
,
00000010
00001000
00000100
00000000
00000010
00001000
00010000
00000000
,
01000000
10000000
00010000
00000000
01000000
00100000
10000000
00000000
,
10000000
00100000
00010000
00001000
00000100
00000010
00001000
00000001
,
00000101
00000000
00001010
00000000
00010100
00000000
00010000
00001000
,
00000000
00100000
00000000
01000000
00000000
00100000
00010000
10000000
,
11000000
00000000
00110000
00000000
01010000
00000000
01000000
00100000
,
00000000
00010000
00000000
00001000
00000000
00000100
00000001
00001000
,
00001100
00000000
00011000
00000000
00110000
00000000
00100000
01000000
,
00000000
10000000
00000000
00100000
00000000
00010000
00001000
00000010
,
00000011
00000000
00000110
00000000
00001100
00000000
00001000
00000001
,
00000000
00000100
00000000
00000100
00000000
00000100
00000000
00000100
,
00001000
00000000
00001000
00000000
00001000
00010000
00001000
00000000
,
00010000
00000000
00010000
00000000
00010000
00001000
00010000
00000000
,
00001000
00000000
00001000
00100000
00001000
00010000
00001000
00000000
,
00010000
00000000
00010000
00000010
00010000
00001000
00010000
00000000
,
00000100
00001000
00000100
00000010
00000100
00001000
00000100
00000010
,
00000001
00001000
00000001
00000100
00000001
00001000
00000001
00000100
,
00000000
00000220
00000000
00000000
00000330
00000000
00000000
00001000
,
00000000
00002002
00000000
00000000
00000000
00000000
00003003
00000000
,
00002000
00000000
00000100
00003100
,
00200000
00000000
00000000
00300000
,
00010000
00110000
00100000
00101000
,
00001000
00011000
00010000
00010100
,
00001000
00000010
00001000
00000001
,
00000100
00001000
00010000
00001000
00000100
00000001
00001000
00000000
,
00000001
00000100
00001000
00000100
00000010
00001000
00000010
00000000
,
00010000
00100000
10000000
01000000
00010000
01000000
00100000
00000000
,
10000000
00100000
00010000
10000000
00010000
01000000
10000000
00000000
,
00010000
00100000
01000000
00010000
00100000
00001000
00010000
00000000
,
00001000
00000100
00001000
00000100
00000001
00000100
00000001
00000100
,
00000010
00001000
00000010
00001000
00000100
00010000
00000100
00010000
,
00001000
01000000
00001000
01000000
00100000
00010000
00100000
00010000
,
10000000
01000000
10000000
01000000
00010000
00100000
00010000
00100000
,
00011000
00000000
00010100
00000000
00001100
00000000
00000100
00000020
,
00000000
00000000
00000000
00000000
00000000
00000130
00001000
00000001
,
00001001
00000000
00000101
00000000
00000110
00000000
00000010
00001000
,
00000000
00000000
00000000
00000100
00000000
00000100
00010000
00001000
,
00011000
00000000
00110000
00000000
01100000
00000000
00100000
01000000
,
00000000
10000000
00000000
00010000
00000000
00010000
01000000
00100000
,
01100000
00000000
00110000
00000000
00011000
00000000
00010000
00001000
,
00000000
00001000
00000000
00001000
00000000
00001000
00000000
00001000
,
00011000
00000000
00000000
00000000
;

//---------------dance-double - ----------------
#NOTEDATA:;
#CHARTNAME:;
#STEPSTYPE:dance-double;
#DESCRIPTION:;
#CHARTSTYLE:;
#DIFFICULTY:Medium;
#METER:9;
#RADARVALUES:0.396,0.412,0.139,0.085,0.000,329.000,18.000,11.000,0.000,0.000,0.000,0.000,0.000,0.396,0.412,0.139,0.085,0.000,329.000,18.000,11.000,0.000,0.000,0.000,0.000,0.000;
#CREDIT:;
#DISPLAYBPM:85.000:170.000;
#NOTES:
00000000
00000000
00000000
00000000
,
00000000
00000000
00000000
00000000
,
00000000
00000000
00000000
00000000
,
00000000
00000000
00000000
00000000
,
00000000
00000000
00000000
00000000
,
00200000
00000000
00000000
00300000
,
02000000
00000000
00000000
03000000
,
20000000
00000000
00000000
00000000
,
00000000
00000000
30000000
00000000
,
00010000
00000000
00010000
00000000
00010000
00000000
00010000
01000000
,
00000000
01000000
00000000
01000000
00000000
01000000
00100000
00010000
,
00001000
00000000
00001000
00000000
00001000
00000000
00001000
00000100
,
00000000
00000100
00000000
00000100
00000000
00000100
00000010
00001000
,
00000001
00000000
00000001
00000000
00000001
00000000
00000001
00001000
,
00000000
00001000
00000000
00001000
00000000
00001000
00000100
00010000
,
01000000
00000000
01000000
00000000
01000000
00000000
01000000
00100000
,
00000000
00100000
00000000
00100000
00000000
00100000
00000000
00100000
,
00010000
00010000
10000000
10000000
,
01000000
01000000
00100000
00100000
,
00010000
00010000
00001000
00001000
,
00000100
00000100
00000010
00000010
,
00000001
00000100
00001000
00000100
,
00000010
00000100
00001000
00010000
,
00100000
10000000
00010000
01000000
,
00010000
01000000
10000000
01000000
,
00010000
00010000
10000000
10010000
,
01000000
01000000
00100000
01100000
,
00010000
00010000
00001000
00011000
,
00000010
00000010
00000100
00000110
,
00000010
00001000
00000001
00000100
,
00000010
00000000
00000100
00000000
00000001
00000000
00001000
00001000
,
00000000
00001001
00000000
00000000
00000000
00000000
00000000
00000010
,
00000000
00000110
00000000
00000000
00000000
00000000
00000000
00000000
,
00000200
00000000
00000000
00000300
,
00001000
00000000
00001000
00000000
,
00022000
00000000
00000000
00000000
,
00033000
00000000
00010000
00010000
,
00010000
00001000
00000000
00010000
00000000
00100000
00000000
01000000
,
00000000
00100000
00000000
00010000
00000000
00001000
00000000
00000010
,
00000000
00000100
00000000
00000010
00000000
00000001
00000000
00001000
,
00000000
00000100
00000000
00010000
00000000
00010000
00000000
00001000
,
00010000
00000000
00010000
00000000
00000100
00001000
00000100
00000000
,
00001000
00000000
00001000
00000000
00010000
01000000
00010000
00000000
,
00100000
00000000
00100000
00000000
00001000
00010000
00001000
00000000
,
00000010
00000000
00000010
00000000
00010000
00001000
00010000
00000000
,
00000010
00000100
00000010
00001000
,
00100000
01000000
00100000
00010000
,
00001000
00010000
00001000
00010000
,
00000100
00010000
00001000
01000000
,
00100000
00000000
00100000
00000000
00100000
00000000
00100000
10000000
,
00000000
00010000
00000000
10000000
00000000
10000000
01000000
00010000
,
00001000
00000000
00001000
00000000
00001000
00000000
00001000
00010000
,
00000000
00000100
00000000
00010000
00000000
00010000
00000010
00001000
,
00000100
00000000
00000100
00000000
00000100
00000000
00000100
00000010
,
00000000
00000001
00000000
00000010
00000000
00000001
00001000
00000010
,
00000100
00000000
00000100
00000000
00000100
00000000
00000100
00001000
,
00000000
00010000
00000000
00010000
00000000
00010000
00000000
00010000
,
00001000
00011000
00010000
00011000
,
00001000
00000000
00000100
00000000
00000001
00000100
00000001
00000000
,
00000100
00000110
00000010
00000110
,
00000100
00000000
00001000
00000000
00010000
00001000
00010000
00000000
,
01000000
01100000
00100000
01100000
,
10000000
00000000
10010000
00000000
10000000
00000000
01000000
01000000
,
00000000
01100000
00000000
00000000
00000000
00000000
00000000
10000000
,
00000000
20020000
00000000
00000000
30030000
00000000
00000000
00000000
,
20000000
00000000
30000000
00100000
,
00200000
00000000
00000000
00300000
,
00010000
00000000
01000000
00000000
00100000
01000000
00010000
00000000
,
10000000
00100000
00010000
00001000
,
00000010
00000000
00000001
00000000
00001000
00000100
00000010
00000000
,
00000001
00000100
00001000
00010000
,
00100000
00000000
10000000
00000000
00100000
10000000
00100000
00000000
,
01000000
00000000
00010000
00000000
01000000
00010000
01000000
00000000
,
00001000
00000000
00100000
00000000
00001000
00100000
00001000
00000000
,
00010000
00000000
00000010
00000000
00010000
00000010
00010000
00000000
,
00000001
00000000
00000100
00000000
00000001
00000100
00000001
00000000
,
00001000
00000000
00000100
00000000
00001000
00000100
00001000
00000000
,
00000100
00000100
00000100
00000100
,
00000100
00001000
00000100
00001000
00000100
00000010
00000100
00000000
,
00000010
00000000
00000100
00000000
00000010
00000000
00000001
00001000
,
00000000
00000000
00000000
00000000
00000000
00001000
00000100
00001000
,
00000100
00000000
00000100
00000000
00000100
00000000
00000100
00010000
,
00000000
00000000
00000000
00010000
00000000
00010000
00001000
00010000
,
00001000
00000000
00001000
00000000
00001000
00000000
00001000
01000000
,
00000000
01000000
00000000
01000000
00000000
01000000
00100000
10000000
,
00010000
00000000
00110000
00000000
00011000
00000000
00001000
00000100
,
00000000
00000100
00000000
00000100
00000000
00000100
00000000
00000100
,
00002000
00000000
00000000
00000000
,
00000000
00000000
00000000
00000000
00000000
00003000
00000000
00000000
;

//---------------dance-double - ----------------
#NOTEDATA:;
#CHARTNAME:;
#STEPSTYPE:dance-double;
#DESCRIPTION:;
#CHARTSTYLE:;
#DIFFICULTY:Easy;
#METER:7;
#RADARVALUES:0.326,0.404,0.209,0.031,0.000,264.000,27.000,4.000,0.000,0.000,0.000,0.000,0.000,0.326,0.404,0.209,0.031,0.000,264.000,27.000,4.000,0.000,0.000,0.000,0.000,0.000;
#CREDIT:;
#DISPLAYBPM:85.000:170.000;
#NOTES:
// measure 0
00000000
00000000
00000000
00000000
,  // measure 1
00000000
00000000
00000000
00000000
,  // measure 2
00000000
00000000
00000000
00000000
,  // measure 3
00000000
00000000
00000000
00000000
,  // measure 4
00000000
00000000
00000000
00000000
,  // measure 5
00000000
00000000
00000000
00000000
,  // measure 6
00000000
00000000
00000000
00000000
,  // measure 7
00000000
00000000
00000000
00000000
,  // measure 8
00000000
00000000
00000000
00000000
,  // measure 9
00100000
00100000
00100000
01100000
,  // measure 10
00010000
00010000
00010000
10010000
,  // measure 11
01000000
01000000
01000000
01100000
,  // measure 12
00010000
00010000
00010000
00011000
,  // measure 13
00000100
00000100
00000100
00000110
,  // measure 14
00000001
00000001
00000001
00001001
,  // measure 15
00000010
00000010
00000010
00000110
,  // measure 16
00001000
00001000
00001000
00001000
,  // measure 17
00000100
00000100
00000000
00000100
,  // measure 18
00000000
00001000
00000000
00001000
,  // measure 19
00000000
00010000
00000000
00010000
,  // measure 20
00000000
00100000
00000000
00100000
,  // measure 21
10000000
00010000
10000000
00010000
,  // measure 22
01000000
00100000
01000000
00100000
,  // measure 23
00010000
00001000
00010000
00001000
,  // measure 24
00000010
00000100
00000010
00000100
,  // measure 25
00000001
00000101
00000100
00000100
,  // measure 26
00000010
00001010
00001000
00001000
,  // measure 27
00000100
00001100
00010000
00010000
,  // measure 28
00001000
00101000
00010000
00010000
,  // measure 29
10000000
10100000
01000000
01000000
,  // measure 30
00010000
00110000
00001000
00001000
,  // measure 31
00020000
00000000
00000000
00030000
,  // measure 32
00001000
00000000
00000000
00000000
,  // measure 33
00020000
00000000
00000000
00000000
,  // measure 34
00000000
00000000
00030000
00000000
,  // measure 35
00001000
00000000
00000000
00000000
,  // measure 36
00000000
00000000
00000100
00000100
,  // measure 37
00001000
00001001
00000001
00001001
,  // measure 38
00001000
00001100
00000100
00001100
,  // measure 39
00010000
00011000
00001000
00011000
,  // measure 40
01000000
01010000
00010000
01010000
,  // measure 41
00100000
00100000
00010000
00010000
,  // measure 42
00001000
00001000
00000100
00000100
,  // measure 43
00000010
00000010
00001000
00001000
,  // measure 44
00010000
00010000
01000000
01000000
,  // measure 45
00100000
00010000
00100000
00010000
,  // measure 46
10000000
01000000
10000000
01000000
,  // measure 47
00010000
00001000
00010000
00001000
,  // measure 48
00000100
00000001
00000100
00000001
,  // measure 49
00000100
00000000
00000100
00000000
00000100
00000000
00000000
00000001
,  // measure 50
00000000
00000001
00000000
00000001
00000000
00000000
00000000
00000000
,  // measure 51
00001000
00000000
00001000
00000000
00001000
00000000
00000000
00000100
,  // measure 52
00000000
00000100
00000000
00000100
00000000
00000000
00000000
00000000
,  // measure 53
00010000
00000000
00010000
00000000
00010000
00000000
00000000
00100000
,  // measure 54
00000000
00100000
00000000
00100000
00000000
00000000
00000000
00000000
,  // measure 55
01000000
00000000
01000000
00000000
01000000
00000000
00000000
00100000
,  // measure 56
00000000
00100000
00000000
00100000
00000000
00100000
00000000
00100000
,  // measure 57
00100000
10000000
00100000
01000000
,  // measure 58
00100000
00010000
00001000
00010000
,  // measure 59
00000100
00000010
00000100
00001000
,  // measure 60
00000001
00000010
00001000
00010000
,  // measure 61
00001000
00001000
00010000
00010000
,  // measure 62
00000100
00000100
00000010
00000010
,  // measure 63
00011000
00000000
00000000
00000000
,  // measure 64
00011000
00000000
00000000
00000000
,  // measure 65
00002000
00000000
00000000
00003000
,  // measure 66
00020000
00000000
00000000
00030000
,  // measure 67
00001000
00000100
00000010
00000100
,  // measure 68
00000001
00001000
00000100
00000010
,  // measure 69
00001000
00010000
00100000
10000000
,  // measure 70
00010000
10000000
00010000
01000000
,  // measure 71
00100000
00100000
00010000
00010000
,  // measure 72
00100000
00100000
00001000
00001000
,  // measure 73
00010000
00010000
00000100
00000100
,  // measure 74
00010000
00010000
00000100
00000100
,  // measure 75
00000010
00000110
00000100
00000110
,  // measure 76
00000001
00001001
00001000
00001001
,  // measure 77
00000100
00001000
00010000
00100000
,  // measure 78
10000000
00010000
10000000
00010000
,  // measure 79
01000000
00000000
01000000
00000000
01000000
00000000
01000000
00100000
,  // measure 80
00000000
00000000
00000000
00000000
,  // measure 81
00100000
00000000
00100000
00000000
00100000
00000000
00100000
01000000
,  // measure 82
00000000
00000000
00000000
00000000
,  // measure 83
00010000
00000000
00010000
00000000
00001000
00000000
00001000
00010000
,  // measure 84
00000000
00010000
00000000
00010000
00000000
00000000
00000000
00000000
,  // measure 85
00001000
00000000
00001000
00000000
00001000
00000000
00001000
00010000
,  // measure 86
00000000
00001000
00000000
00001000
00000000
00001000
00000000
00001000
,  // measure 87
00000100
00000000
00000000
00000000
;
