#TITLE:ACCESS;
#SUBTITLE:TechnoTrance;
#ARTIST:SPHAZER;
#TITLETRANSLIT:;
#SUBTITLETRANSLIT:;
#ARTISTTRANSLIT:;
#GENRE:;
#CREDIT:;
#BANNER:ACCESS.png;
#BACKGROUND:ACCESS-bg.png;
#LYRICSPATH:;
#CDTITLE:;
#MUSIC:ACCESS.mp3;
#OFFSET:-0.126;
#SAMPLESTART:56.792;
#SAMPLELENGTH:12.000;
#SELECTABLE:YES;
#DISPLAYBPM:135.000;
#BPMS:0.000=135.000
;
#STOPS:
;
#BGCHANGES:;
#KEYSOUNDS:;
#ATTACKS:;

//---------------dance-single - ----------------
#NOTES:
     dance-single:
     :
     Hard:
     8:
     0.230,0.279,0.044,0.018,0.070,177.000,5.000,2.000,0.000,0.000,0.000,0.230,0.279,0.044,0.018,0.070,177.000,5.000,2.000,0.000,0.000,0.000: // measure 0
0000
0000
0000
0000
,  // measure 1
0000
0000
0000
0000
,  // measure 2
0000
0000
0000
0000
,  // measure 3
0000
0000
0000
0000
,  // measure 4
1000
0100
1000
0100
,  // measure 5
0001
0100
0001
0100
,  // measure 6
0010
1000
0010
0001
,  // measure 7
1001
0000
0000
0000
,  // measure 8
1000
0000
0000
0100
0000
0000
1000
0000
0001
0000
0000
0100
0000
0000
0010
0000
,  // measure 9
0000
0000
0000
0000
,  // measure 10
0100
0000
0000
0001
0000
0000
1000
0000
0100
0000
0000
0010
0000
0000
0100
0000
,  // measure 11
0000
0000
0000
0000
,  // measure 12
0010
0000
0000
0001
0000
0000
1000
0000
0010
0000
0000
0100
0000
0000
0001
0000
,  // measure 13
0000
0000
0000
0000
,  // measure 14
1000
0000
0000
0001
0000
0000
1000
0000
0100
0000
0000
0010
0000
0000
0100
0000
,  // measure 15
0000
0000
0000
0000
,  // measure 16
0010
0000
0000
0001
0000
0000
1000
0000
0001
0000
0000
0100
0000
0000
0010
0000
,  // measure 17
0000
0100
0000
0100
,  // measure 18
0100
0000
0000
0001
0000
0000
1000
0000
0100
0000
0000
0010
0000
0000
0100
0000
,  // measure 19
0000
0010
0000
0010
,  // measure 20
0100
0000
0000
1000
0000
0000
0010
0000
1000
0000
0000
0001
0000
0000
0100
0000
,  // measure 21
0000
0001
0000
0001
,  // measure 22
0001
0000
0000
0100
0000
0000
0001
0000
0010
0000
0000
0100
0000
0000
1000
0000
,  // measure 23
0001
0000
0000
0000
,  // measure 24
1000
0000
0000
0010
0000
0100
0000
0001
,  // measure 25
0000
0000
0000
0000
0000
0000
0000
0001
,  // measure 26
0001
0000
0000
1000
0000
0100
0000
0010
,  // measure 27
0000
0001
0000
0000
0000
0000
0000
1000
,  // measure 28
1000
0000
0000
0010
0000
0100
0000
0001
,  // measure 29
0000
0000
0000
0000
0000
0000
0000
1000
,  // measure 30
1000
0000
0000
0100
0000
1000
0000
0001
,  // measure 31
0000
0100
0000
0000
0000
0000
0000
0010
,  // measure 32
0010
0000
0000
1000
0000
0001
0000
1000
,  // measure 33
0000
0000
0100
0000
0000
0000
0100
1000
,  // measure 34
0001
0000
0000
0100
0000
0010
0000
1000
,  // measure 35
0000
0100
0000
0000
0000
0000
0010
0001
,  // measure 36
1000
0000
0000
0010
0000
0100
0000
0001
,  // measure 37
0000
0000
1000
0000
0000
0000
1000
1000
,  // measure 38
0100
0000
0000
0010
0000
0001
0000
1000
,  // measure 39
0000
0100
0000
0000
0000
0000
0000
0000
,  // measure 40
0010
0000
0000
0001
0000
0100
0100
0100
,  // measure 41
0000
0010
0010
0010
0000
1000
0000
1001
,  // measure 42
0000
0000
0000
0000
0000
1000
0000
0001
,  // measure 43
0000
0000
0000
0000
0000
0000
1000
0100
,  // measure 44
0010
0000
0000
0100
0000
1000
1000
1000
,  // measure 45
0000
0001
0001
0001
0000
1000
0000
0110
,  // measure 46
0000
0000
0000
0000
0000
0100
0000
0010
,  // measure 47
0000
0000
0000
0000
0000
0000
0001
0100
,  // measure 48
0010
0000
1000
0100
0000
1000
0001
1000
,  // measure 49
0000
0010
1000
0010
0000
0100
0000
0001
,  // measure 50
0000
0000
1000
0000
0000
1000
0000
1001
,  // measure 51
0000
0000
0000
0000
0000
0000
1000
0100
,  // measure 52
0010
0000
0001
0100
0000
0001
1000
0001
,  // measure 53
0000
0010
0001
0010
0000
0100
0000
1000
,  // measure 54
0000
0000
0000
0001
0000
0100
0000
0010
,  // measure 55
0000
0000
0000
1000
0000
0001
0000
2002
,  // measure 56
0000
0000
0000
0000
,  // measure 57
0000
0000
0000
0000
0000
0000
0000
3003
;

//---------------dance-single - ----------------
#NOTES:
     dance-single:
     :
     Challenge:
     9:
     0.353,0.431,0.044,0.876,0.070,177.000,5.000,100.000,0.000,0.000,0.000,0.353,0.431,0.044,0.876,0.070,177.000,5.000,100.000,0.000,0.000,0.000:
0000
0000
0000
0000
,
0000
0000
0000
0000
,
0000
0000
0000
0000
,
0000
0000
0000
0000
,
2000
3100
2000
3100
,
0002
0103
0002
0103
,
0020
1030
0020
0031
,
2002
0000
3003
0000
,
2000
0000
0000
3100
0000
0000
1000
0000
0002
0000
0000
0103
0000
0000
0020
0000
,
0000
0000
0030
0000
,
0200
0000
0000
0301
0000
0000
1000
0000
0200
0000
0000
0310
0000
0000
0200
0000
,
0000
0000
0300
0000
,
0020
0000
0000
0031
0000
0000
1000
0000
0020
0000
0000
0130
0000
0000
0002
0000
,
0000
0000
0003
0000
,
2000
0000
0000
3001
0000
0000
1000
0000
0200
0000
0000
0310
0000
0000
0200
0000
,
0000
0000
0000
0300
,
0020
0000
0000
0031
0000
0000
1000
0000
0001
0000
0000
0100
0000
0000
0020
0000
,
0000
0100
0000
0130
,
0200
0000
0000
0301
0000
0000
1000
0000
0100
0000
0000
0010
0000
0000
0200
0000
,
0000
0010
0000
0310
,
0200
0000
0000
1300
0000
0000
0010
0000
1000
0000
0000
0001
0000
0000
0200
0000
,
0000
0001
0000
0301
,
0002
0000
0000
0103
0000
0000
0001
0000
0010
0000
0000
0100
0000
0000
2000
0000
,
0002
0000
0000
3003
,
2000
3000
0000
0020
0030
0200
0300
0002
,
0000
0000
0000
0000
0000
0000
0003
0001
,
0002
0003
0000
2000
3000
0200
0300
0020
,
0030
0002
0000
0000
0000
0000
0003
1000
,
2000
3000
0000
0020
0030
0200
0300
0002
,
0000
0000
0000
0000
0000
0000
0003
1000
,
2000
3000
0000
0200
0300
2000
3000
0002
,
0003
0200
0000
0000
0000
0000
0300
0010
,
0020
0000
0000
2030
0000
3002
0000
2003
,
0000
0000
0100
0000
0000
0000
3100
1000
,
0002
0000
0000
0203
0000
0320
0000
2030
,
0000
3200
0000
0000
0000
0000
0310
0001
,
2000
0000
3000
0020
0000
0230
0000
0302
,
0000
0000
1000
0000
0000
0000
1003
1000
,
0200
0000
0000
0320
0000
0032
0000
2003
,
0000
3200
0000
0000
0000
0000
0300
0000
,
0020
0000
0030
0002
0000
0100
0103
0200
,
0000
0310
0010
0020
0000
1030
0000
2002
,
0000
0000
0000
0000
3003
2000
0000
0002
,
0000
0000
0000
0000
0000
3003
1000
0100
,
0020
0000
0030
0200
0000
1000
1300
2000
,
0000
3001
0001
0002
0000
1003
0000
0220
,
0000
0000
0000
0000
0330
0200
0000
0020
,
0000
0000
0000
0000
0000
0330
0001
0100
,
0020
0000
1030
0200
0000
1300
0001
2000
,
0000
3010
1000
0020
0000
0230
0000
0302
,
0000
0000
1000
0000
0000
1000
0003
2002
,
0000
0000
0000
0000
3003
0000
1000
0100
,
0020
0000
0031
0200
0000
0301
1000
0002
,
0000
0013
0001
0020
0000
0230
0000
2300
,
0000
0000
0000
3002
0000
0103
0000
0020
,
0000
0000
0000
2030
0000
3001
0000
2002
,
0000
0000
0000
0000
,
0000
0000
0000
0000
0000
0000
0000
3003
;

//---------------dance-single - ----------------
#NOTES:
     dance-single:
     :
     Medium:
     6:
     0.201,0.253,0.018,0.035,0.000,155.000,2.000,4.000,0.000,0.000,0.000,0.201,0.253,0.018,0.035,0.000,155.000,2.000,4.000,0.000,0.000,0.000:
0000
0000
0000
0000
,
0000
0000
0000
0000
,
0000
0000
0000
0000
,
0000
0000
0000
0000
,
1000
0001
1000
0001
,
1000
0001
1000
0001
,
1000
0001
1000
0001
,
1001
0000
0000
0000
,
1000
1000
0100
0001
,
0001
0000
0000
0000
,
0001
0001
0100
1000
,
1000
0000
0000
0000
,
1000
1000
0010
0001
,
0001
0000
0000
0000
,
0001
0001
0010
1000
,
2000
0000
0000
3000
,
1000
1000
0010
0001
,
0001
0100
0000
0100
,
0001
0001
0010
1000
,
1000
0100
0000
0100
,
1000
1000
0100
0001
,
0001
0010
0000
0010
,
0001
0001
0100
1000
,
2000
0000
0000
3000
,
1000
0000
0000
0000
,
0100
0000
0000
0000
,
0010
0000
0000
0000
,
0001
0000
0000
0000
,
0001
0000
0000
0000
,
0100
0000
0000
0000
,
0010
0000
0000
0000
,
1000
0000
0000
0000
,
1000
0100
0000
0100
,
0000
0010
0000
0010
,
0001
0100
0000
0100
,
0000
0010
0000
0010
,
1000
0001
0000
0001
,
0000
1000
0000
1000
,
0100
0010
0000
0010
,
0000
0001
0000
0001
,
1000
1000
0001
0001
,
0100
0100
0001
0001
,
1000
0100
0010
0001
,
0001
0100
0010
1000
,
0001
0001
1000
1000
,
0100
0100
1000
1000
,
0001
0100
0010
1000
,
1000
0100
0010
0001
,
1000
0000
0100
0000
1000
0100
1000
0000
,
0001
0000
1000
0000
0001
1000
0001
0000
,
0010
0000
0001
0000
0010
0001
0010
0000
,
0100
0010
0001
1000
,
0010
0000
1000
0000
0010
1000
0100
0000
,
0010
0000
0001
0000
1000
0001
0100
0000
,
0010
0000
0000
0100
0000
0010
0000
1000
,
0000
0000
0000
0001
0000
0100
0000
2002
,
0000
0000
0000
0000
,
0000
0000
0000
0000
0000
0000
0000
3003
;

//---------------dance-single - ----------------
#NOTES:
     dance-single:
     :
     Easy:
     3:
     0.135,0.152,0.018,0.053,0.000,100.000,2.000,6.000,0.000,0.000,0.000,0.135,0.152,0.018,0.053,0.000,100.000,2.000,6.000,0.000,0.000,0.000:
0000
0000
0000
0000
,
0000
0000
0000
0000
,
0000
0000
0000
0000
,
0000
0000
0000
0000
,
0000
0100
0000
0100
,
0000
0100
0000
0100
,
0000
0100
0000
0100
,
2002
0000
3003
0000
,
0001
0001
0001
0100
,
0001
0000
0000
0000
,
1000
1000
1000
0100
,
1000
0000
0000
0000
,
0010
0010
0010
1000
,
0010
0000
0000
0000
,
0100
0100
0100
0001
,
0200
0000
0300
0000
,
0010
0010
1000
0010
,
0010
0000
0000
0000
,
0100
0100
0001
0100
,
0100
0000
0000
0000
,
0001
0001
0010
0001
,
0001
0000
0000
0000
,
1000
1000
0100
1000
,
2000
0000
3000
0000
,
1000
0000
0000
0000
,
0000
0000
0000
0000
,
1000
0000
0000
0000
,
0000
0000
0000
0000
,
0001
0000
0000
0000
,
0000
0000
0000
0000
,
0001
0000
0000
0000
,
0000
0000
0000
0000
,
0100
0000
0000
0000
,
0100
0000
0000
0000
,
0100
0000
0000
0000
,
0100
0000
0000
0000
,
0010
0000
0000
0000
,
0010
0000
0000
0000
,
0010
0000
0000
0000
,
0010
0000
0000
0000
,
1000
0000
1000
0000
,
0001
0000
0001
0000
,
0100
0000
0100
0000
,
0010
0000
0010
0000
,
1000
0000
1000
0000
,
0100
0000
0100
0000
,
0010
0000
0010
0000
,
0001
0000
0001
0000
,
1000
1000
1000
0000
,
0001
0001
0001
0000
,
0010
0010
0010
0000
,
0100
0100
0100
0000
,
1000
1000
0100
0000
,
0100
0100
0010
0000
,
0010
0010
0001
0000
,
0001
0001
0100
0000
,
2002
0000
0000
0000
,
0000
0000
0000
3003
;

//---------------dance-single - ----------------
#NOTES:
     dance-single:
     :
     Beginner:
     1:
     0.075,0.101,0.009,0.018,0.000,57.000,1.000,2.000,0.000,0.000,0.000,0.075,0.101,0.009,0.018,0.000,57.000,1.000,2.000,0.000,0.000,0.000:
0000
0000
0000
0000
,
0000
0000
0000
0000
,
0000
0000
0000
0000
,
0000
0000
0000
0000
,
0000
1000
0000
0000
,
0000
0001
0000
0000
,
0000
1000
0000
0000
,
0001
0000
0000
0000
,
0100
0000
0000
0000
,
0100
0000
0000
0000
,
0010
0000
0000
0000
,
0010
0000
0000
0000
,
1000
0000
0000
0000
,
1000
0000
0000
0000
,
0001
0000
0000
0000
,
0001
0000
0000
0000
,
0100
0000
0000
0000
,
0001
0000
0000
0000
,
0100
0000
0000
0000
,
0001
0000
0000
0000
,
1000
0000
0000
0000
,
0010
0000
0000
0000
,
1000
0000
0000
0000
,
0010
0000
0000
0000
,
0100
0000
0000
0000
,
0000
0000
0000
0000
,
0100
0000
0000
0000
,
0000
0000
0000
0000
,
0010
0000
0000
0000
,
0000
0000
0000
0000
,
0010
0000
0000
0000
,
0000
0000
0000
0000
,
0001
0000
0000
0000
,
1000
0000
0000
0000
,
0001
0000
0000
0000
,
1000
0000
0000
0000
,
0100
0000
0000
0000
,
0010
0000
0000
0000
,
0100
0000
0000
0000
,
0010
0000
0000
0000
,
1000
0000
1000
0000
,
1000
0000
1000
0000
,
0001
0000
0000
0000
,
0010
0000
0000
0000
,
0001
0000
0001
0000
,
0001
0000
0001
0000
,
1000
0000
0000
0000
,
0100
0000
0000
0000
,
1000
0000
1000
0000
,
1000
0000
1000
0000
,
1000
0000
0000
0000
,
0010
0000
0000
0000
,
0001
0000
0001
0000
,
0001
0000
0001
0000
,
0001
0000
0000
0000
,
0100
0000
0000
0000
,
2002
0000
0000
0000
,
0000
0000
0000
3003
;

//---------------dance-double - ----------------
#NOTES:
     dance-double:
     :
     Easy:
     3:
     0.110,0.101,0.009,0.044,0.000,82.000,1.000,5.000,0.000,0.000,0.000,0.110,0.101,0.009,0.044,0.000,82.000,1.000,5.000,0.000,0.000,0.000:
00000000
00000000
00000000
00000000
,
00000000
00000000
00000000
00000000
,
00000000
00000000
00000000
00000000
,
00000000
00000000
00000000
00000000
,
00000000
10000000
00000000
10000000
,
00000000
10000000
00000000
10000000
,
00000000
10000000
00000000
10000000
,
00020000
00000000
00000000
00030000
,
00100000
00000000
00100000
00000000
,
00001000
00000000
00001000
00000000
,
00010000
00000000
00010000
00000000
,
00000100
00000000
00000100
00000000
,
00001000
00000000
00001000
00000000
,
00000001
00000000
00000001
00000000
,
00000010
00000000
00000010
00000000
,
00000200
00000000
00000300
00000000
,
00001000
00000000
00001000
00000000
,
00000001
00000000
00000001
00000000
,
00000100
00000000
00000100
00000000
,
00000010
00000000
00000010
00000000
,
00010000
00000000
00010000
00000000
,
00001000
00000000
00001000
00000000
,
01000000
00000000
01000000
00000000
,
00200000
00000000
00300000
00000000
,
10000000
00000000
00000000
00000000
,
00000000
00000000
00000000
00000000
,
00010000
00000000
00000000
00000000
,
00000000
00000000
00000000
00000000
,
00001000
00000000
00000000
00000000
,
00000000
00000000
00000000
00000000
,
00000001
00000000
00000000
00000000
,
00000000
00000000
00000000
00000000
,
00000100
00000000
00000000
00000000
,
00000100
00000000
00000000
00000000
,
00001000
00000000
00000000
00000000
,
00001000
00000000
00000000
00000000
,
00010000
00000000
00000000
00000000
,
00010000
00000000
00000000
00000000
,
00100000
00000000
00000000
00000000
,
00100000
00000000
00000000
00000000
,
10000000
00000000
10000000
00000000
,
00010000
00000000
00010000
00000000
,
01000000
00000000
01000000
00000000
,
00100000
00000000
00100000
00000000
,
00001000
00000000
00001000
00000000
,
00000001
00000000
00000001
00000000
,
00000010
00000000
00000010
00000000
,
00000100
00000000
00000100
00000000
,
00001000
00000000
00000001
00000000
,
00001000
00000000
00000001
00000000
,
00000100
00000000
00000010
00000000
,
00000100
00000000
00001000
00000000
,
00010000
00000000
10000000
00000000
,
00010000
00000000
10000000
00000000
,
00100000
00000000
01000000
00000000
,
00100000
00000000
01000000
00000000
,
20020000
00000000
00000000
00000000
,
00000000
00000000
00000000
30030000
;

//---------------dance-double - ----------------
#NOTES:
     dance-double:
     :
     Medium:
     6:
     0.237,0.228,0.009,0.053,0.000,182.000,1.000,6.000,0.000,0.000,0.000,0.237,0.228,0.009,0.053,0.000,182.000,1.000,6.000,0.000,0.000,0.000:
00000000
00000000
00000000
00000000
,
00000000
00000000
00000000
00000000
,
00000000
00000000
00000000
00000000
,
00000000
00000000
00000000
00000000
,
10000000
00010000
10000000
00010000
,
01000000
00001000
01000000
00001000
,
00010000
00001000
00010000
00001000
,
00000020
00000000
00000030
00000000
,
00000001
00000001
00000100
00000100
,
00000001
00000001
00001000
00001000
,
00000100
00000100
00010000
00010000
,
00001000
00001000
00100000
00100000
,
00010000
00010000
01000000
01000000
,
00100000
00100000
10000000
10000000
,
00010000
00010000
00100000
00100000
,
00002000
00010000
00010000
00013000
,
00001000
00010000
00001000
00010000
,
00000100
00010000
00000100
00010000
,
00000100
00000010
00000100
00000010
,
00000100
00000001
00000100
00000001
,
00000100
00010000
00000100
00010000
,
00001000
01000000
00001000
01000000
,
00100000
01000000
00100000
01000000
,
20000000
01000000
01000000
31000000
,
00100000
00000000
00000000
00100000
00000000
00100000
00000000
00100000
,
00000000
00000000
00000000
00000000
,
10000000
00000000
00000000
10000000
00000000
10000000
00000000
10000000
,
00000000
10000000
00000000
00000000
00000000
00000000
00000000
00000000
,
01000000
00000000
00000000
01000000
00000000
01000000
00000000
01000000
,
00000000
00000000
00000000
00000000
,
00010000
00000000
00000000
00010000
00000000
00010000
00000000
00010000
,
00000000
00010000
00000000
00000000
00000000
00000000
00000000
00000000
,
00001000
00010000
00000000
00010000
,
00001000
00000100
00000000
00000100
,
00000010
00001000
00000000
00001000
,
00000001
00000010
00000000
00000010
,
00000100
00001000
00000000
00001000
,
00010000
01000000
00000000
01000000
,
00100000
00010000
00000000
00010000
,
20000000
00000000
00000000
30000000
,
00100000
10000000
01000000
10000000
,
00100000
00010000
00001000
00000100
,
00000010
00001000
00000001
00001000
,
00000100
00000010
00000001
00001000
,
00000100
00010000
00001000
00100000
,
01000000
00010000
00001000
00000010
,
00000001
00000100
00001000
00010000
,
00001000
00100000
10000000
00010000
,
01000000
01000000
10000000
10000000
,
00100000
00100000
00010000
00010000
,
00001000
00000100
00000010
00001000
,
00000001
00001000
00000100
00000010
,
00000001
00000001
00000100
00000100
,
00000010
00000010
00001000
00001000
,
00000100
00010000
00001000
01000000
,
00100000
10000000
00010000
01000000
,
20020000
00000000
00000000
00000000
,
00000000
00000000
00000000
30030000
;

//---------------dance-double - ----------------
#NOTES:
     dance-double:
     :
     Hard:
     9:
     0.255,0.354,0.070,0.035,0.070,192.000,8.000,4.000,0.000,0.000,0.000,0.255,0.354,0.070,0.035,0.070,192.000,8.000,4.000,0.000,0.000,0.000:
00000000
00000000
00000000
00000000
,
00000000
00000000
00000000
00000000
,
00000000
00000000
00000000
00000000
,
00000000
00000000
00000000
00000000
,
00010000
00100000
00001000
00000100
,
00010000
01000000
00001000
00000010
,
00001000
00000100
00010000
00100000
,
00011000
00000000
00000000
00000000
,
00010000
00000000
00000000
00001000
00000000
00000000
00000100
00000000
00000001
00000000
00000000
00001000
00000000
00000000
00000100
00000000
,
00000000
00000000
00000000
00000000
,
00001000
00000000
00000000
01000000
00000000
00000000
00100000
00000000
10000000
00000000
00000000
00010000
00000000
00000000
00100000
00000000
,
00000000
00000000
00000000
00000000
,
01000000
00000000
00000000
00100000
00000000
00000000
00010000
00000000
01000000
00000000
00000000
00001000
00000000
00000000
00010000
00000000
,
00000000
00000000
00000000
00000000
,
00010000
00000000
00000000
00001000
00000000
00000000
00000100
00000000
00000010
00000000
00000000
00001000
00000000
00000000
00000100
00000000
,
00000000
00000000
00000000
00000000
,
00001000
00000000
00000000
00001000
00000100
00000000
00000010
00000000
00000001
00000000
00000000
00000100
00000001
00000000
00001000
00000000
,
00000100
00010100
00010000
00011000
,
00001000
00000000
00000000
01000000
00010000
00000000
01000000
00000000
00100000
00000000
00000000
10000000
00010000
00000000
10000000
00000000
,
01000000
00110000
00001000
00011000
,
00010000
00000000
00000000
00100000
01000000
00000000
00010000
00000000
10000000
00000000
00000000
01000000
00100000
00000000
00010000
00000000
,
01000000
01010000
00010000
00011000
,
00001000
00000000
00000000
00001000
00000100
00000000
00000010
00000000
00001000
00000000
00000000
00000001
00000100
00000000
00000010
00000000
,
00002000
00000000
00000000
00003000
,
00000010
00000000
00000000
00000100
00000000
00001000
00000000
00000100
,
00000000
00000000
00000000
00000000
00000000
00000000
00000000
00010000
,
00010000
00000000
00000000
00100000
00000000
10000000
00000000
00010000
,
00000000
10000000
00000000
00000000
00000000
00000000
00000000
10000000
,
10000000
00000000
00000000
01000000
00000000
00100000
00000000
00010000
,
00000000
00000000
00000000
00000000
00000000
00000000
00000000
00100000
,
00100000
00000000
00000000
00010000
00000000
00001000
00000000
00000100
,
00000000
00000010
00000000
00000000
00000000
00000000
00000000
00001000
,
00001000
00000000
00000100
00001000
00000000
00000001
00000000
00000100
,
00000000
00000000
00010000
00000000
00000000
00000000
00010000
00010000
,
00100000
00000000
10000000
00010000
00000000
01000000
00000000
00010000
,
00000000
00100000
00000000
00000000
00001000
00000000
00000000
00001000
,
00001000
00000000
00010000
00001000
00000000
00000100
00000000
00000010
,
00000000
00000000
00010000
00000000
00000000
00000000
00001000
00010000
,
00001000
00000000
00001000
01000000
00000000
00100000
00000000
10000000
,
00000000
00020000
00000000
00000000
00000000
00000000
00030000
00000000
,
10000000
00000000
00000000
00100000
00000000
01000000
01000000
01000000
,
00000000
00100000
00100000
00100000
00000000
00010000
00000000
00001000
,
00000000
00000000
00000000
00000000
00000000
00010000
00000000
00000100
,
00000000
00000000
00000000
00000000
00000000
00000000
00001000
00000100
,
00000010
00000000
00000000
00000001
00000000
00000100
00000100
00000100
,
00000000
00000010
00000010
00000010
00000000
00001000
00000000
00000100
,
00000000
00000000
00000000
00000000
00000000
00001000
00000000
00010000
,
00000000
00000000
00000000
00000000
00000000
00000000
00001000
00010000
,
00001000
00000000
00000000
01000000
00000000
00100000
00100000
00100000
,
00000000
00010000
00010000
00010000
00000000
00001000
00000000
01000000
,
00000000
00000000
00000000
00000000
00000000
00100000
00000000
00010000
,
00000000
00000000
00000000
00000000
00000000
00000000
00001000
00010000
,
00001000
00000000
00000000
00000100
00000000
00000010
00000010
00000010
,
00000000
00001000
00001000
00001000
00000000
00000100
00000000
00010000
,
00000000
00000000
00000000
00010000
00000000
00001000
00000000
00100000
,
00000000
00000000
00000000
00100000
00000000
01000000
00000000
20020000
,
00000000
00000000
00000000
00000000
,
00000000
00000000
00000000
30030000
;

//---------------dance-double - ----------------
#NOTES:
     dance-double:
     :
     Challenge:
     10:
     0.358,0.405,0.070,0.753,0.070,192.000,8.000,86.000,0.000,0.000,0.000,0.358,0.405,0.070,0.753,0.070,192.000,8.000,86.000,0.000,0.000,0.000:
00000000
00000000
00000000
00000000
,
00000000
00000000
00000000
00000000
,
00000000
00000000
00000000
00000000
,
00000000
00000000
00000000
00000000
,
00020000
00130000
00002000
00003100
,
00020000
01030000
00002000
00003010
,
00002000
00003100
00020000
00130000
,
00011000
00000000
00000000
00000000
,
00020000
00000000
00000000
00001000
00030000
00000000
00000100
00000000
00000002
00000000
00000000
00001000
00000003
00000000
00000100
00000000
,
00000000
00000000
00000000
00000000
,
00002000
00000000
00000000
01000000
00003000
00000000
00100000
00000000
20000000
00000000
00000000
00010000
30000000
00000000
00100000
00000000
,
00000000
00000000
00000000
00000000
,
02000000
00000000
00000000
00100000
03000000
00000000
00010000
00000000
02000000
00000000
00000000
00001000
03000000
00000000
00010000
00000000
,
00000000
00000000
00000000
00000000
,
00020000
00000000
00000000
00001000
00030000
00000000
00000100
00000000
00000020
00000000
00000000
00001000
00000030
00000000
00000100
00000000
,
00000000
00000000
00000000
00000000
,
00001000
00000000
00000000
00001000
00000100
00000000
00000010
00000000
00000001
00000000
00000000
00000100
00000001
00000000
00001000
00000000
,
00000100
00010100
00010000
00011000
,
00001000
00000000
00000000
01000000
00010000
00000000
01000000
00000000
00100000
00000000
00000000
10000000
00010000
00000000
10000000
00000000
,
01000000
00110000
00001000
00011000
,
00010000
00000000
00000000
00100000
01000000
00000000
00010000
00000000
10000000
00000000
00000000
01000000
00100000
00000000
00010000
00000000
,
01000000
01010000
00010000
00011000
,
00001000
00000000
00000000
00001000
00000100
00000000
00000010
00000000
00001000
00000000
00000000
00000001
00000100
00000000
00000010
00000000
,
00002000
00000000
00000000
00003000
,
00000020
00000000
00000000
00000230
00000300
00002000
00003000
00000200
,
00000000
00000000
00000000
00000000
00000000
00000000
00000000
00010000
,
00020300
00000000
00030000
00200000
00300000
20000000
30000000
00020000
,
00030000
20000000
00000000
00000000
00000000
30000000
00000000
10000000
,
20000000
00000000
30000000
02000000
03000000
00200000
00300000
00020000
,
00000000
00000000
00000000
00000000
00000000
00000000
00000000
00100000
,
00230000
00000000
00300000
00020000
00030000
00002000
00003000
00000200
,
00000300
00000020
00000000
00000000
00000000
00000000
00000000
00001000
,
00002030
00000000
00003100
00002000
00000000
00003002
00000000
00000203
,
00000000
00000000
00010000
00000000
00000000
00000000
00010000
00010300
,
00200000
00000000
10300000
00020000
00000000
02030000
00000000
03020000
,
00000000
00230000
00001000
00000000
00000000
00000000
00000000
00001000
,
00302000
00000000
00013000
00002000
00000000
00003200
00000000
00000320
,
00000000
00000000
00010000
00000000
00000000
00000000
00001030
00010000
,
00001000
00000000
00001000
02000000
00000000
03200000
00000000
20300000
,
00000000
30020000
00000000
00000000
00000000
00000000
00030000
00000000
,
20000000
00000000
00000000
30200000
00000000
01000000
01000000
02300000
,
00000000
00100000
00100000
03200000
00000000
00320000
00000000
00032000
,
00000000
00000000
00000000
00000000
00000000
00023000
00000000
00030200
,
00000000
00000000
00000000
00000000
00000300
00000000
00001000
00000100
,
00000020
00000000
00000000
00000032
00000000
00000100
00000100
00000203
,
00000000
00000010
00000010
00000320
00000000
00002030
00000000
00003200
,
00000000
00000000
00000000
00000000
00000000
00002300
00000000
00023000
,
00000000
00000000
00000000
00000000
00000000
00000000
00031000
00010000
,
00002000
00000000
00000000
02003000
00000000
00100000
00100000
03200000
,
00000000
00010000
00010000
00320000
00000000
00032000
00000000
02003000
,
00000000
00000000
00000000
00000000
00000000
03200000
00000000
00320000
,
00000000
00000000
00000000
00000000
00030000
00000000
00001000
00010000
,
00002000
00000000
00000000
00003200
00000000
00000010
00000010
00000320
,
00000000
00001000
00001000
00002030
00000000
00003200
00000000
00020300
,
00000000
00030000
00000000
00020000
00000000
00032000
00000000
00203000
,
00000000
00300000
00000000
00200000
00000000
01300000
00000000
20020000
,
00000000
00000000
00000000
00000000
,
00000000
00000000
00000000
30030000
;
