#TITLE:This is SPARTA!!!;
#SUBTITLE:-Techno Remix-;
#ARTIST:300 feat. Funtastic Power!;
#TITLETRANSLIT:;
#SUBTITLETRANSLIT:;
#ARTISTTRANSLIT:;
#GENRE:;
#CREDIT:;
#BANNER:This Is SPARTA.png;
#BACKGROUND:This Is Sparta-bg.jpg;
#LYRICSPATH:;
#CDTITLE:;
#MUSIC:This Is SPARTA!!! (Techno Remix).ogg;
#OFFSET:0.410;
#SAMPLESTART:42.961;
#SAMPLELENGTH:11.940;
#SELECTABLE:YES;
#BPMS:0.000=139.980;
#STOPS:;
#BGCHANGES:;
#KEYSOUNDS:;

//---------------dance-single - Copied from----------------
#NOTES:
     dance-single:
     Copied from:
     Medium:
     6:
     0.371,0.306,0.103,0.037,0.030,333.000,14.000,5.000,0.000,0.000,0.000,0.371,0.306,0.103,0.037,0.030,333.000,14.000,5.000,0.000,0.000,0.000:
0000
0000
0000
0000
1000
0001
0000
1000
0000
0001
0000
0000
0000
0000
0000
0000
,
0000
0000
0000
0000
2000
0000
0000
0001
3000
0000
0000
0000
0000
0000
0000
0000
,
0000
2000
0000
3200
,
0000
0000
0000
0000
0000
0320
0000
0000
0000
0002
0000
0000
0000
0000
0000
0000
,
0000
0033
1000
0000
0001
0000
0001
0000
,
0100
0000
0010
0100
0010
0000
0001
0000
,
1000
0000
0001
0000
0100
0000
0010
0100
,
0010
1000
0001
0010
,
0100
1000
0100
0010
,
0011
0001
0100
0010
,
0110
0001
1000
0100
,
0011
0001
0100
0010
,
0101
0010
1000
0001
,
1100
0001
0100
0010
,
0010
0000
1000
0000
0001
0000
0100
0010
,
0100
0000
0001
0000
1000
0000
0100
1000
,
0100
0000
1000
0000
0001
0000
0010
0001
,
0010
0000
0001
0000
0100
0000
0010
1000
,
0010
0000
1000
0000
0001
0000
0001
0100
,
0001
0010
0100
0001
,
1000
0000
0100
0000
1000
0000
0001
1000
,
0001
0000
0001
0000
0100
0000
1000
0100
,
0001
0001
0001
1000
,
0001
0001
0100
0010
,
0010
1000
0001
0001
,
0100
0010
1000
1001
,
0000
0000
0001
0000
0100
0000
1000
0100
,
0001
0000
0001
0000
1000
0000
0001
0010
,
0001
0000
0001
0000
1000
0000
0010
0100
,
0001
0001
1000
0100
,
1000
0000
0001
0000
0100
0000
0010
0100
,
0010
0000
0001
0000
1000
0000
0001
1000
,
0001
0000
0001
0000
0100
0000
0010
0100
,
0010
0000
1000
0000
0001
0000
0001
0100
,
0001
0001
0100
0001
,
0100
0001
0100
0001
,
0100
0010
1000
0010
,
1000
0100
1000
0100
,
1000
0001
0010
0001
,
0100
0010
0100
0010
,
1000
0001
0100
0010
,
1000
1001
1100
0011
,
1100
0001
0100
0010
,
0100
0000
0001
0000
0100
0000
0010
1000
,
0100
0001
0100
0010
,
1000
0000
0001
0000
0100
0000
0100
0001
,
0010
0001
1000
0100
,
0010
0000
0001
0000
1000
0000
0100
1000
,
0010
0001
0100
0010
,
1000
0000
0001
0000
0100
0000
0010
1000
,
0100
0010
0001
0100
,
0001
0000
0001
0100
1100
0000
1000
0100
,
0001
0000
0001
0000
1000
0000
0100
1000
,
0001
0000
0001
0100
0010
0000
0010
1000
,
0001
0001
0100
0010
,
1000
0000
0001
1000
0001
0000
1000
0001
,
1000
0001
0100
0010
,
1000
0000
0001
1000
0001
0000
1000
0001
,
1000
0000
0010
0000
0100
0000
0001
0100
,
0001
0000
1000
0100
1000
0000
0001
0000
,
1000
0001
0100
0110
,
0001
1000
0100
1100
,
0001
0000
0100
0000
0010
0000
0100
1000
,
0100
0000
0010
0000
0100
0000
0001
0100
,
0001
0100
0001
0000
1000
0000
0100
0000
,
1100
0001
1000
0001
,
0100
0000
0010
0100
0010
0000
0001
0000
,
1000
0000
0100
1000
0100
0000
1000
0000
,
0001
0001
0100
0010
,
1000
0010
0100
0001
,
1000
0000
0001
0000
1000
0000
0001
0100
,
0010
0000
0010
0000
1000
0000
0001
1000
,
0001
0100
0010
1000
,
0001
0100
0010
1000
,
0001
1000
0001
1000
,
1000
0000
0000
0001
0000
1000
0000
0000
0000
0000
0000
0000
0000
0000
0000
0000
;

//---------------dance-single - Copied from----------------
#NOTES:
     dance-single:
     Copied from:
     Challenge:
     10:
     0.792,0.695,0.340,0.074,0.727,695.000,46.000,10.000,0.000,0.000,0.000,0.792,0.695,0.340,0.074,0.727,695.000,46.000,10.000,0.000,0.000,0.000:
0000
0000
0000
0000
1000
0001
0000
1000
0000
0001
0000
0000
0000
0000
0000
0000
,
0000
0000
0000
0000
2000
0000
0000
0001
3000
0000
0000
0000
0000
0000
0000
0000
,
0000
2000
0000
3200
,
0000
0000
0000
0000
0000
0320
0000
0000
0000
0002
0000
0000
0000
0000
0000
0000
,
0000
0000
0033
0000
1000
0100
0000
0100
0010
0000
0001
1000
0001
0000
1000
0000
,
1000
0000
0100
0010
0001
0000
1000
0000
0010
0000
0100
0010
0100
0000
0001
0000
,
1000
0000
0010
0000
0100
0010
0000
1000
0001
0000
0001
0010
0100
0000
0010
0000
,
0001
0000
0010
0001
0100
0010
0100
0000
0010
0000
1000
0001
1000
0000
0100
0010
,
0100
0100
1001
0000
0110
0000
1001
0000
,
0110
1100
0011
0110
,
0110
1010
0101
0110
,
1100
0011
1010
0101
,
1100
0110
0011
1100
,
0110
0011
1100
0110
,
0001
1000
0001
1000
0001
1000
0000
0100
0010
0000
0001
0010
0100
0000
1000
0000
,
0001
0000
0010
0100
0010
0100
0010
0000
0001
0000
1000
0010
0100
0000
0100
0010
,
0001
0000
0010
0000
1000
0001
0000
0010
0100
0000
1000
0100
0001
0000
0100
0000
,
1000
0000
0010
0100
0010
1000
0100
0000
0001
0000
0100
1000
0010
0000
0010
0100
,
0001
0000
0010
0000
0100
1000
0000
1000
0100
0000
0010
0001
0010
0000
0001
0000
,
1000
0000
0010
0100
0001
1000
0001
0000
1000
0000
0100
0010
0001
0000
1000
0001
,
1000
0000
0100
0000
0010
0001
0000
0001
1000
0000
0010
0100
0001
0000
1000
0000
,
0100
0000
1000
0001
1000
0001
0100
0000
1000
0000
0100
0001
0010
0000
0100
1000
,
0010
0000
0010
0000
1000
0100
0000
0000
0001
0000
0000
0000
1000
0000
0100
0000
,
0010
0001
0000
1000
1000
0000
2000
0000
,
3100
0000
0010
0000
0001
0000
1000
0100
,
0010
0001
0000
0010
0010
0000
0011
0000
,
1100
0000
0000
0000
1000
0100
0000
1000
0100
0000
0100
0010
0001
0000
0001
0000
,
1000
0000
1000
0100
0010
0001
1000
0000
0010
0000
1000
0100
0010
0000
0100
1000
,
0001
0000
0010
0000
0100
1000
0000
0001
0010
0000
0001
0010
0100
0000
1000
0000
,
0010
0000
0100
0001
0010
0100
1000
0000
0001
0000
0010
0100
1000
0000
0001
1000
,
0001
0000
1000
0000
0100
0010
0000
0001
0100
0000
0010
1000
0100
0000
0010
0000
,
0001
0000
1000
0100
1000
0100
1000
0000
0001
0000
1000
0010
1000
0000
1000
0100
,
1000
0000
1000
0000
1000
0100
0000
0100
0010
0000
0001
0010
0100
0000
1000
0000
,
0001
0000
0001
0010
0100
1000
0100
0000
0010
0000
0001
0010
0100
1000
0001
0000
,
1001
0000
0001
0000
1000
0100
0000
0010
0001
0000
1000
0000
0010
0100
0000
0010
,
0100
0000
0001
0000
0100
0010
0000
1000
0010
0000
1000
0000
0001
0010
0000
0100
,
0010
0000
0100
0000
1000
0001
0000
0100
0010
0000
0100
0000
0010
1000
0000
0001
,
1000
0000
0001
0000
0010
0100
0000
1000
0100
0000
1000
0000
0001
0100
0000
0010
,
0100
0000
0010
0000
0100
0001
0100
0000
0001
0000
1000
0000
0100
1000
0100
0000
,
1000
0000
0001
0000
0010
0001
0010
0000
0001
0000
1000
0000
0010
0100
0010
0000
,
0100
0000
0001
0000
1000
0100
1000
0000
0001
0010
0001
0000
1000
0010
1000
0000
,
0010
0100
0001
0000
0110
0000
0001
0000
0110
0000
1000
0000
0011
0000
0001
0000
,
0100
1000
0001
1000
0001
1000
0000
1000
0001
0000
0001
1000
0010
0000
0100
0000
,
0010
0000
1000
0100
0010
0100
1000
0000
0010
0000
0100
0010
0100
0000
0010
0100
,
0001
0000
1000
0000
1000
0010
0000
0010
0100
0000
0010
0100
0001
0000
0001
0000
,
0001
0000
0001
0010
0100
1000
0010
0000
0110
0000
0010
1000
0100
0000
0100
1000
,
0001
0000
1001
0000
1000
0010
0000
1000
0010
0000
0010
0100
0010
0000
0010
0000
,
0010
0000
0010
1000
0100
0010
0001
0010
0001
0000
0001
1000
0001
0000
0001
0100
,
0001
0000
0001
0000
1000
0100
0000
0100
0010
0000
0001
1000
0001
0000
1000
0000
,
1000
0000
1000
0100
0010
0001
0010
0000
0100
0000
0010
0001
0010
0000
0001
0010
,
0001
0000
1000
0000
0020
2030
3000
2000
3020
0030
0100
0010
0100
0000
0001
0000
,
0001
0000
1000
0000
0100
0010
0001
0000
0001
0000
0001
0010
0001
0000
0001
0010
,
0001
0000
1000
0000
0100
0010
0000
0001
1000
0000
0010
1000
0010
0000
1000
0000
,
0001
0000
1000
0100
1000
0001
1000
0000
0001
0000
1000
0010
1000
0000
0010
1000
,
0001
0000
1000
0000
0100
1000
0000
0001
1000
0000
0001
0100
0010
0000
0100
0000
,
0010
0000
1000
0100
1000
0001
1000
0000
0001
0000
0100
0010
0100
0000
0010
1000
,
0010
0000
1000
0000
0001
1000
0000
0100
1000
0000
0001
1000
0001
0000
0100
0000
,
0010
0000
0100
1000
0100
0010
1000
0000
0010
0000
1000
0100
1000
0000
0010
0001
,
0010
0000
1000
0000
0100
0010
0000
0001
0100
0000
1000
0100
0010
0000
1000
0000
,
0100
0000
0010
0001
1000
0001
1000
0000
0100
0000
0010
0001
0010
0000
0100
0010
,
0001
1000
0110
0010
0110
1000
1001
0001
,
1001
0001
0011
0010
0110
0100
1100
1000
,
1001
0000
1100
0000
0110
0000
0010
0001
,
0010
0000
0001
0000
0011
0000
0000
0000
1000
0000
0000
0000
0010
1000
0010
0000
,
0010
0000
1000
0000
0100
1000
0100
0010
0001
0010
0100
1000
0010
0100
0001
0010
,
0100
1000
0001
0000
0100
0010
0100
0000
0010
0000
1000
0100
1000
0000
0100
0000
,
0010
0001
0010
0001
0010
0100
0000
0100
1000
0000
1000
0010
1000
0000
0010
0000
,
1000
0000
0100
0010
0001
0000
0001
0000
0010
0000
0100
0000
1000
0000
0010
0000
,
0100
0000
1000
0000
0100
1000
0000
0100
0001
0000
0001
0010
0100
0000
1000
0000
,
1000
0000
0100
1000
0100
0000
0010
0000
0001
0000
0100
0000
1000
0000
0100
0000
,
0001
0000
0010
0000
0100
0010
0000
0010
0001
0000
0001
0100
0010
0000
0010
0000
,
0010
0000
1000
0100
1000
0000
0010
0000
0100
0000
0001
0000
0010
0000
0100
0000
,
1000
0000
0010
0000
0100
0010
0000
1000
0100
0000
0010
0001
0010
0000
0001
0000
,
0100
0000
0010
1000
0100
0000
0010
0000
0001
0000
0010
0000
1000
0000
0010
0000
,
0001
0100
0110
0000
1001
0000
0110
0000
,
1001
0000
0000
1000
0000
0000
1000
0000
0000
0000
1000
0000
0000
0000
0000
0001
0000
0000
0000
0000
0000
0000
0000
0000
0000
0000
0000
0000
0000
0000
0000
0000
0000
0000
0000
0000
0000
0000
0000
0000
0000
0000
0000
0000
0000
0000
0000
0000
;

//---------------dance-single - Copied from Copied f----------------
#NOTES:
     dance-single:
     Copied from Copied f:
     Hard:
     7:
     0.455,0.445,0.325,0.037,0.030,383.000,44.000,5.000,0.000,0.000,0.000,0.455,0.445,0.325,0.037,0.030,383.000,44.000,5.000,0.000,0.000,0.000:
0000
0000
0000
0000
1000
0001
0000
1000
0000
0001
0000
0000
0000
0000
0000
0000
,
0000
0000
0000
0000
2000
0000
0000
0001
3000
0000
0000
0000
0000
0000
0000
0000
,
0000
2000
0000
3200
,
0000
0000
0000
0000
0000
0320
0000
0000
0000
0002
0000
0000
0000
0000
0000
0000
,
0000
0033
1000
0000
0001
0000
0100
0010
,
0100
0000
0001
1000
0100
0000
0100
1000
,
0001
0000
0001
0000
0100
0000
0010
0100
,
0010
0000
0001
1000
0100
0000
0100
1000
,
0001
0010
0100
1001
,
0101
0010
1000
1001
,
1001
0001
0100
1010
,
1010
0100
1000
0011
,
0011
0001
0100
1010
,
1010
0001
0100
1010
,
0010
0000
1000
0000
0001
0000
0100
0010
,
0100
0000
0001
1000
0100
0000
0100
1000
,
0001
0000
0001
0000
0100
0000
0010
0100
,
0010
0000
1000
0001
1000
0000
0100
0010
,
0100
0000
1000
0000
0001
0000
0010
0100
,
0010
0000
1000
0001
1000
0000
0100
0010
,
0100
0000
1000
0000
0001
0000
0001
0100
,
1000
0000
1000
0100
0001
0000
0001
0100
,
1100
0010
0010
1000
,
0001
1000
0001
0100
,
0010
0000
0010
0000
0100
0000
0001
1000
,
0100
1000
0000
0001
1000
0000
1010
0000
,
0101
0000
0001
0000
0100
0000
0010
0100
,
0010
0000
1000
0100
1000
0000
0001
0010
,
0001
0000
0001
0010
1000
0000
1000
0010
,
0001
0000
0001
0000
1000
0000
0010
0100
,
0001
0000
0001
0000
0010
0000
0001
0100
,
1100
0000
1000
0100
0010
0000
0001
1000
,
0100
0000
0001
0000
1000
0000
0001
0010
,
0100
0000
0100
1000
0001
0000
0001
0100
,
0010
0000
0010
0000
0100
0000
1000
0001
,
1000
0000
0001
0000
0100
0000
0010
0100
,
0010
0000
0001
0000
1000
0000
0100
1000
,
0100
0000
0001
0000
0010
0000
0001
0010
,
0001
0000
1000
0001
1000
0010
0100
0010
,
0100
0001
1000
0001
1000
0100
0010
0100
,
0010
0001
1000
0001
0100
0010
0100
0010
,
1000
0001
0010
0100
1000
0001
1000
0001
,
1001
0001
0010
1000
,
0001
0000
0001
0100
0001
0000
1000
0100
,
1000
0000
0001
0000
0010
0000
0001
1000
,
0001
0000
0001
0100
0010
0000
0010
0100
,
1000
0000
1000
0000
0100
0000
0010
0100
,
0010
0000
0001
1000
0001
0000
0001
0100
,
0010
0000
0010
0000
1000
0000
0001
0010
,
1000
0000
1000
0010
0001
0000
0001
0100
,
1000
0100
0010
1000
,
0001
0000
0001
0100
1100
0000
1000
0100
,
0110
0001
1000
0100
,
0010
0000
0001
0010
0011
0000
0001
1000
,
1010
0000
0010
0000
0100
0000
0001
0100
,
0101
0000
1000
0100
1100
0000
0001
0100
,
0110
0000
0010
0000
1000
0000
0001
1000
,
1001
0000
1000
0001
1001
0000
0001
1000
,
1001
0000
0001
0000
0100
0000
0010
0100
,
1000
0000
1000
0100
0010
0000
0010
1000
,
0001
0001
0100
1100
,
0110
0001
1000
1001
,
0110
0000
0001
0000
0100
0000
0010
0100
,
1100
0000
1000
0000
0010
0000
0010
0100
,
0101
0000
0001
0000
1000
0000
0100
1000
,
1100
0000
0001
0000
0100
0000
0010
0100
,
0110
0000
0001
0000
1000
0000
0100
1000
,
1100
0000
0001
0000
0100
0000
0010
0100
,
0110
0000
0001
0000
0010
0000
0001
0010
,
0011
0000
0001
0000
1000
0000
0010
0100
,
0110
0000
1001
0000
0110
0000
0001
0100
,
1100
0000
0010
0000
1000
0000
0001
0100
,
0101
0000
0001
0000
1000
0000
0100
0010
,
0011
0000
0001
0000
0100
0000
0010
1000
,
1010
0001
0100
0010
,
1000
0000
0000
0001
0000
1000
0000
0000
0000
0000
0000
0000
0000
0000
0000
0000
;

//---------------dance-single - Copied from Copied f----------------
#NOTES:
     dance-single:
     Copied from Copied f:
     Easy:
     4:
     0.252,0.332,0.236,0.037,0.022,202.000,32.000,5.000,0.000,0.000,0.000,0.252,0.332,0.236,0.037,0.022,202.000,32.000,5.000,0.000,0.000,0.000:
0000
0000
0000
0000
1000
0001
0000
1000
0000
0001
0000
0000
0000
0000
0000
0000
,
0000
0000
0000
0000
2000
0000
0000
0001
3000
0000
0000
0000
0000
0000
0000
0000
,
0000
2000
0000
3200
,
0000
0000
0000
0000
0000
0320
0000
0000
0000
0002
0000
0000
0000
0000
0000
0000
,
0000
0033
1000
0000
0100
0000
1000
0000
,
1000
0001
0000
0100
,
0000
0010
0100
0001
,
1100
0001
0000
0100
,
0000
0010
0100
0110
,
0110
0010
1000
1001
,
1001
0001
0100
0110
,
0110
0010
1000
1001
,
1001
0001
0100
0110
,
0110
0010
1000
1100
,
1100
0001
0000
0100
,
0000
0010
0100
0010
,
0010
1000
0000
0001
,
0000
0100
0001
0100
,
0000
1000
0000
0010
,
0000
0100
1000
0100
,
0001
1000
0000
1000
,
0000
0010
0100
1000
,
0100
0010
0000
1000
,
0000
0001
0000
0100
,
0000
0010
0000
0100
,
0000
0001
0000
1000
,
0000
0100
1000
0001
,
0100
0010
0000
0100
,
0000
0001
1000
0100
,
1000
0010
0000
0100
,
0000
0001
0100
0010
,
1000
0100
0000
1000
,
0000
0001
0010
0100
,
1000
0001
0000
0001
,
0000
1000
0000
0001
,
0000
0100
0000
0010
,
0000
1000
0000
0100
,
0000
0010
0000
0001
,
0000
0100
0000
0010
,
0000
1100
0000
0101
,
0000
0110
0000
1010
,
0000
0001
1000
1001
,
1001
0100
0000
0001
,
0000
0100
0000
0010
,
0000
0010
1000
0100
,
0000
1000
0000
0001
,
0000
0010
0001
0100
,
0000
0010
0000
1000
,
0000
0100
1000
0001
,
0000
0100
0000
0010
,
0000
0110
0110
0110
,
0110
0010
0000
1000
,
0000
1001
1001
1001
,
1001
0001
0000
0100
,
0000
0010
0010
0010
,
0000
0100
0000
1100
,
0000
0010
0000
1100
,
0000
0001
0000
0101
,
0000
0010
0000
0010
,
0000
1000
0000
0100
,
0000
0001
0000
1000
,
0000
0001
0000
1001
,
0000
0001
0000
0100
,
0000
0010
0000
1000
,
0000
0100
0100
0100
,
0000
0010
0000
0001
,
0000
0001
0100
1000
,
0000
1000
0100
0010
,
0000
0010
1000
0100
,
0000
0100
0010
0001
,
0000
1000
0001
0000
,
0001
0000
1000
0000
,
0010
0100
0010
0100
,
0000
0001
0000
1000
,
0000
0001
1000
0001
,
1001
0000
0000
0000
;
