#TITLE:State of the Union;
#SUBTITLE:;
#ARTIST:Rise Against;
#TITLETRANSLIT:;
#SUBTITLETRANSLIT:;
#ARTISTTRANSLIT:;
#GENRE:;
#CREDIT:;
#BANNER:State of the Union.png;
#BACKGROUND:StateOfTheUnion.png;
#LYRICSPATH:;
#CDTITLE:;
#MUSIC:State of the Union.ogg;
#OFFSET:-0.052;
#SAMPLESTART:37.990;
#SAMPLELENGTH:13.180;
#SELECTABLE:YES;
#BPMS:0.000=132.110;
#STOPS:17.000=1.360
,30.000=0.220
,46.500=0.230
,100.000=0.230
,115.500=0.220
;
#BGCHANGES:;
#KEYSOUNDS:;

//---------------dance-single - ----------------
#NOTES:
     dance-single:
     :
     Hard:
     9:
     0.643,0.682,0.201,0.050,0.568,591.000,28.000,7.000,0.000,0.000,0.000,0.643,0.682,0.201,0.050,0.568,591.000,28.000,7.000,0.000,0.000,0.000:
0000
0000
1000
1000
0100
0100
0010
0010
,
0001
0001
0010
0010
0100
0100
1000
1000
,
0010
0010
0100
0100
0001
0001
1000
1000
,
0100
0100
0010
0010
0001
0001
0100
0100
,
0010
0000
0010
0000
1001
0000
0000
0000
1000
0000
0100
0010
0000
0001
1000
0000
,
0010
1000
0001
0010
0000
1000
0001
0000
1000
0100
1000
0100
0000
1000
0010
0000
,
0100
0001
1000
0100
0000
0010
0001
0000
0001
0000
0001
0000
1000
0000
1000
0000
,
0100
0000
0100
0000
0220
0000
0330
0000
1001
0000
1000
0100
0010
0001
0000
1000
,
0001
0000
1000
0100
1000
0001
0000
0001
1000
0000
1000
0001
0100
0010
0000
0010
,
0100
0000
1000
0100
0001
0200
0000
0000
0310
0000
1000
0100
0001
0100
0000
1000
,
0001
0000
0001
0100
0010
0100
0000
0001
1000
0000
0100
0000
0100
0000
0010
0000
,
0010
0001
0001
1001
0000
0110
1000
0001
,
0000
0001
0000
1000
0000
0100
0010
0100
,
0000
0000
1000
0000
0100
0010
0001
0010
0000
0100
1000
0000
0001
0000
1000
0000
,
0000
0001
0000
0010
0000
0100
1000
0010
,
0000
0000
0010
0000
1000
0010
0100
0001
1000
0100
0010
0000
0001
0000
1000
0000
,
0010
0100
0010
1000
0100
0001
0100
1000
,
0100
0000
0010
0000
0001
1000
0100
0010
0000
0001
1000
0000
0010
0000
0100
0000
,
0001
0010
0100
1000
0001
0010
1000
0010
,
0001
0000
1000
0000
0100
0000
0010
0001
0000
0010
0001
0000
1000
0000
0100
0010
,
0000
0001
1000
0000
0010
0000
0100
0001
0000
0010
0100
0000
1000
0100
1000
0100
,
0010
0001
0010
0000
1000
0001
1000
0001
0000
1000
0100
0000
0010
0001
1000
0010
,
0000
0100
0010
0000
0010
1000
0100
0010
0000
0001
0010
0000
0001
0010
0001
0200
,
0000
0000
0310
0000
1000
0100
0010
1000
0000
0010
0001
0000
0010
0001
1000
0100
,
0000
0010
0001
0000
0010
0000
0010
0000
0001
0000
0001
0000
0100
0000
0100
0000
,
0110
0000
1000
0100
0010
0001
0000
1000
0010
0000
0100
0010
1000
0100
0000
0100
,
0010
0000
0001
0100
0010
0001
0000
0010
1000
0000
1000
0100
0010
0100
0000
0100
,
1000
0000
1000
0001
0010
0100
0000
0100
0001
0000
0100
1000
0010
0100
0000
0100
,
0010
1000
1000
0100
0100
0010
0010
1001
,
1000
1000
0000
0100
0000
0010
0000
0001
,
0010
0000
0001
0000
0000
0000
1000
0000
0100
0010
0100
0010
0000
0010
0100
0000
,
1000
0001
0000
1000
0000
0001
0000
0001
,
0010
0000
0100
0000
0000
0000
1000
0000
0100
0010
0100
0010
0000
0001
1000
0000
,
0100
0010
0001
0010
0100
0010
0001
0010
,
0001
0000
1000
0000
0100
0000
1000
0000
0100
1000
0100
0010
0000
0001
0010
0000
,
0100
0100
1000
0100
0010
0100
1000
0010
,
0100
0000
0010
0000
0100
0000
0001
0000
1000
0100
1000
0100
0000
0100
0010
0000
,
0001
0010
0001
0010
0000
0010
0100
0000
1000
0100
0010
0001
0000
1000
0001
0000
,
1000
0100
1000
0100
0010
0001
0010
0001
1000
0100
0010
0001
0000
1000
0001
0000
,
1000
0100
0010
0100
0000
1000
0001
0000
1000
0010
0100
0001
0000
1000
0100
0000
,
0100
1000
0100
0010
0000
0001
1000
0000
1000
0010
0100
0001
0000
0001
0010
0000
,
0100
1000
0010
0100
0000
0100
0010
0000
1000
0000
1000
0000
0100
0000
0100
0000
,
0010
0000
0010
0000
1001
0000
0000
0000
1000
0100
0010
0001
0000
0001
1000
0000
,
0100
0010
0100
0010
0000
0001
1000
0000
1000
0100
0010
0001
0000
0001
1000
0000
,
1000
0100
0010
0002
0000
0000
1003
0000
0100
0010
0001
1000
0000
1000
0001
0000
,
0010
0100
1000
0100
0000
0010
0001
0000
0010
0000
0010
0000
0100
0000
0100
0000
,
1000
1000
0100
0100
0001
0001
0100
0100
,
1000
1000
0010
0010
0100
0100
1001
0000
,
1001
0000
1001
0000
0000
0100
1000
0100
,
0001
0100
1000
0100
0001
0100
1100
0000
,
1100
0000
1100
0000
0000
0010
0001
0010
,
1000
0010
0001
1000
0001
1000
1010
0000
,
1010
0000
1010
0000
0000
1000
0010
0100
,
0001
0000
0000
0000
0010
0000
0000
0000
0100
0000
0000
0000
1000
0000
0000
0000
0001
0000
0000
0000
1000
0000
0000
0000
1000
0000
0000
0000
0000
0000
0000
0010
,
0000
0000
0000
0000
0001
0000
0000
0000
0000
0000
1000
0000
0000
0000
0000
0010
0000
0000
0000
0000
0100
0000
0000
0000
1001
0000
0000
0000
0000
0000
0000
0000
,
1001
0000
1001
0000
0000
1000
0100
0010
,
0100
1000
0010
0100
0001
1000
0110
0000
,
0110
0000
0110
0000
0000
1000
0100
0010
,
0001
0100
1000
0100
0001
0001
1001
0000
,
0110
0000
1001
0000
0000
1000
0100
0010
,
0001
0000
0000
0000
1000
0000
0000
0000
0001
0000
0000
0000
1000
0000
0000
0000
0001
0000
0000
0000
0000
0000
0000
0000
1000
0000
0000
0000
0000
0000
0000
0100
,
0000
0000
0000
0000
0000
0010
0000
0000
0000
0000
0001
0000
0000
0000
0000
0100
0000
0000
0000
0000
0010
0000
0000
0000
1001
0000
0000
0000
0000
0000
0000
0000
,
1000
0000
0001
0000
0100
0000
0010
0100
,
0001
0100
1000
0100
0010
0100
0001
0000
,
0001
0000
1000
0000
0100
0000
1000
0001
,
1000
0010
0100
0001
0100
0010
0100
0000
,
0001
0000
1000
0000
0001
0000
0100
0010
,
0100
0000
1000
0000
0100
0000
0010
0000
0100
0000
0001
0000
1000
0000
0000
0100
,
0000
0000
0000
0010
0000
0000
0000
0000
0001
0000
0000
0000
0000
0000
1000
0000
0000
0000
0000
0100
0000
0000
0000
0000
0001
0000
0000
0000
0000
0000
0100
0000
,
0000
0000
0000
0000
0000
0000
0010
0000
0000
0000
0000
0000
0000
0000
0000
0000
0000
0100
0000
0000
0000
0000
0000
0000
0000
0000
0000
0000
0001
0000
0000
0000
0000
0000
0000
0000
0000
0000
1000
0000
0000
0000
0000
0000
0000
0000
0000
0000
0100
0000
0000
0000
0000
0000
0000
0000
0000
0000
0000
0000
1000
0000
0000
0000
,
0000
0000
0000
0001
0000
0000
0000
0000
0100
0000
0000
0000
0000
0000
0010
0000
0000
0000
0000
0100
0000
0000
0000
0000
2002
0000
0000
0000
0000
0000
0000
0000
,
0000
0000
0000
0000
,
0000
0000
0000
0000
,
3003
0000
0000
0000
;

//---------------dance-single - Copied from----------------
#NOTES:
     dance-single:
     Copied from:
     Medium:
     7:
     0.394,0.393,0.137,0.029,0.000,361.000,19.000,4.000,0.000,0.000,0.000,0.394,0.393,0.137,0.029,0.000,361.000,19.000,4.000,0.000,0.000,0.000:
0000
1000
0001
0100
,
0010
0100
0010
0000
1000
0000
0001
0000
,
0001
1000
0001
0000
0100
0000
0010
0000
,
0010
0100
0010
0000
0010
0000
1000
0000
,
0001
1001
0100
0010
,
0010
0100
0001
0000
0001
0000
1000
0000
,
0100
0010
0001
0000
1000
0000
1000
0000
,
0001
1000
0001
0000
1001
0010
0000
0010
,
0000
0010
0000
0100
0000
0001
0000
0100
,
0000
0010
0100
1000
0000
1000
0100
0010
,
0000
0010
0000
1000
0000
0001
0000
1000
,
0000
0001
1000
0001
0000
1001
0000
0000
,
0100
0000
0000
0010
,
0000
0000
1000
0000
0000
0000
0001
1000
,
0000
0001
0000
1000
,
0000
0000
0010
0100
0001
0100
1000
0100
,
0000
0010
0000
1000
,
0000
0000
0001
0010
0100
1000
0001
1000
,
0000
0010
0100
0001
,
0100
0000
1000
0000
0100
0000
0010
1000
,
0001
0000
0001
1000
0100
0010
0001
0000
,
1000
0000
0001
0100
0001
0100
0010
0100
,
0010
0000
0010
1000
0010
1000
0001
1000
,
0001
0000
0001
0100
0001
0100
0010
0100
,
0010
0000
0001
1000
0100
0010
0001
1000
,
0001
0001
1000
0010
0100
0010
0100
0001
,
0000
0001
1000
0100
0010
0001
1000
0100
,
0000
0010
0100
0001
0100
0010
0100
1000
,
0000
0010
1000
0001
1000
0001
0010
1100
,
0001
1000
0000
0010
0000
0100
0000
0001
,
0100
1000
0000
0010
1000
0001
1000
0100
,
0010
0001
0000
0001
1000
0010
0000
0010
,
0100
0001
0000
0001
0100
1000
0100
0010
,
1000
0001
0000
0001
0100
0010
0000
0010
,
0100
0001
0000
0001
1000
0100
0010
0001
,
1000
0100
0000
0001
1000
0010
0000
0010
,
0100
0001
0000
0001
0100
1000
0100
0010
,
1000
0000
0001
0000
0001
0100
0010
0000
,
1001
0000
0010
0000
0001
0100
1000
0100
,
0010
1000
0001
0000
0001
1000
0100
0010
,
0001
1000
0100
0000
0001
0100
0010
0100
,
0001
1000
0001
0000
0001
0100
0010
0100
,
1000
0100
0110
0000
0001
1000
0100
0000
,
0001
0000
1000
0000
0010
0100
0001
0000
,
1000
0000
0010
0000
0001
1000
0100
0000
,
0010
0000
0001
0000
0001
1000
0010
0100
,
0001
0100
0001
0000
0001
0100
0010
0100
,
1000
0000
1000
0100
0010
1000
1001
0000
,
1001
1001
0000
1000
,
0001
0100
0010
1001
,
1001
0000
1001
0000
0000
0000
0001
0100
,
0010
0001
1100
0001
,
0100
0000
0110
0000
0000
0000
0001
1000
,
0100
0001
1000
0002
,
0000
0000
0000
1003
,
0001
0100
0000
0010
,
0100
0000
0001
1000
0100
0000
0011
0000
,
1100
0011
0000
1000
,
0010
0000
0001
0100
1000
0100
0010
0000
,
1000
0000
1001
0000
0000
0000
0001
0100
,
0010
0100
0001
1000
0001
1000
0002
0000
,
0000
0000
0000
1003
,
0001
0000
0100
0000
0010
0000
0001
0100
,
0000
1000
0100
0000
0010
0100
0001
0000
,
0001
0000
1000
0000
0010
0000
0100
0001
,
0000
0001
0100
0000
0010
0100
0001
0000
,
1000
0000
0100
0000
0001
1000
0010
0000
,
0010
0100
0000
0100
0001
0000
0001
0000
,
1000
0010
0100
0001
,
0100
0010
1000
0001
,
0100
0010
1000
2002
,
0000
0000
0000
0000
,
0000
0000
0000
0000
,
0000
3003
0000
0000
0000
0000
0000
0000
0000
0000
0000
0000
0000
0000
0000
0000
0000
0000
0000
0000
0000
0000
0000
0000
0000
0000
0000
0000
0000
0000
0000
0000
0000
0000
0000
0000
0000
0000
0000
0000
0000
0000
0000
0000
0000
0000
0000
0000
0000
0000
0000
0000
0000
0000
0000
0000
0000
0000
0000
0000
0000
0000
0000
0000
0000
0000
0000
0000
0000
0000
0000
0000
0000
0000
0000
0000
0000
0000
0000
0000
0000
0000
0000
0000
0000
0000
0000
0000
0000
0000
0000
0000
0000
0000
0000
0000
0000
0000
0000
0000
0000
0000
0000
0000
0000
0000
0000
0000
0000
0000
0000
0000
0000
0000
0000
0000
0000
0000
0000
0000
0000
0000
0000
0000
0000
0000
0000
0000
0000
0000
0000
0000
0000
0000
0000
0000
0000
0000
0000
0000
0000
0000
0000
0000
0000
0000
0000
0000
0000
0000
0000
0000
0000
0000
0000
0000
0000
0000
0000
0000
0000
0000
0000
0000
0000
0000
0000
0000
0000
0000
0000
0000
0000
0000
0000
0000
0000
0000
0000
0000
0000
0000
0000
0000
0000
0000
0000
0000
0000
0000
0000
0000
;

//---------------dance-single - Copied from Copied f----------------
#NOTES:
     dance-single:
     Copied from Copied f:
     Easy:
     3:
     0.285,0.289,0.216,0.029,0.000,244.000,30.000,4.000,0.000,0.000,0.000,0.285,0.289,0.216,0.029,0.000,244.000,30.000,4.000,0.000,0.000,0.000:
0000
1000
0001
0100
,
0010
0010
1000
0001
,
0100
0100
0010
1000
,
0001
0100
0100
0100
,
0010
2000
0001
0000
,
0100
0000
0010
0000
,
1000
0000
0001
0100
,
0010
0000
1000
0000
1000
0000
0000
0100
,
0000
0010
0000
0010
0000
1000
0000
0001
,
0000
0100
0000
0010
0000
0010
0000
0100
,
0000
0001
0000
1000
0000
0100
0000
1000
,
0000
0001
0000
1000
0000
1000
0000
0000
,
0010
0000
0100
0000
,
0001
0000
0100
0010
,
0100
0000
0001
0000
,
1000
0000
0001
0100
,
0010
0010
1000
0001
,
0001
0100
0010
1001
,
0000
0010
0100
0001
,
1000
0100
0000
0001
,
0000
0100
0010
0100
,
0000
0001
1000
0000
,
0010
0100
0101
0000
,
0010
1000
1001
0000
,
0001
0100
0010
0100
,
1001
0000
0000
1000
0000
0000
0000
0001
,
0000
0100
0000
0110
0000
0000
0000
0001
,
0000
1000
0000
1100
0000
0000
0000
0001
,
0000
0100
0000
0010
0000
0100
0000
1001
,
0000
1000
0001
0100
,
0010
0010
1000
1001
,
0000
0000
0001
0100
,
0010
0000
1000
0000
0001
1000
0000
0001
,
0000
0000
0001
0100
,
0010
0010
1000
0001
,
0001
0000
0001
0100
,
0010
1000
1001
0100
,
1001
0010
1001
0100
,
1001
0010
0001
0100
,
0010
1000
0001
0100
,
1000
0100
0010
1000
,
0001
1000
0010
0100
,
0001
1000
1001
0001
,
0100
0010
0100
0001
,
1000
0100
0010
0001
,
1000
0010
0100
0001
,
1000
0001
0100
0010
,
1000
0001
1000
1001
,
1001
1001
0000
1000
,
0001
0100
0010
1001
,
1100
1001
0000
0001
,
0100
0010
1000
1010
,
0101
0011
0000
0010
,
0001
1000
0010
0200
,
0000
0000
0000
0000
0000
0300
0010
0000
,
0100
0001
0000
1000
,
0001
0100
0010
1001
,
0010
1001
0000
0010
,
0100
0001
1000
1010
,
0001
0101
0000
1000
,
0001
1000
0010
0020
,
0000
0000
0000
0130
,
0001
1000
0010
0100
,
0001
1000
0100
1100
,
0001
0100
0010
1000
,
0001
0010
0001
1001
,
0100
1000
0001
0100
,
0010
1000
1001
0001
,
0100
0010
1000
0001
,
0100
0010
1000
0001
,
0100
0010
1000
2002
,
0000
0000
0000
0000
,
0000
0000
0000
0000
,
0000
0000
3003
0000
0000
0000
0000
0000
0000
0000
0000
0000
0000
0000
0000
0000
0000
0000
0000
0000
0000
0000
0000
0000
0000
0000
0000
0000
0000
0000
0000
0000
0000
0000
0000
0000
0000
0000
0000
0000
0000
0000
0000
0000
0000
0000
0000
0000
0000
0000
0000
0000
0000
0000
0000
0000
0000
0000
0000
0000
0000
0000
0000
0000
0000
0000
0000
0000
0000
0000
0000
0000
0000
0000
0000
0000
0000
0000
0000
0000
0000
0000
0000
0000
0000
0000
0000
0000
0000
0000
0000
0000
0000
0000
0000
0000
0000
0000
0000
0000
0000
0000
0000
0000
0000
0000
0000
0000
0000
0000
0000
0000
0000
0000
0000
0000
0000
0000
0000
0000
0000
0000
0000
0000
0000
0000
0000
0000
0000
0000
0000
0000
0000
0000
0000
0000
0000
0000
0000
0000
0000
0000
0000
0000
0000
0000
0000
0000
0000
0000
0000
0000
0000
0000
0000
0000
0000
0000
0000
0000
0000
0000
0000
0000
0000
0000
0000
0000
0000
0000
0000
0000
0000
0000
0000
0000
0000
0000
0000
0000
0000
0000
0000
0000
0000
0000
0000
0000
0000
0000
0000
0000
;

//---------------dance-single - Copied from Copied from Copied f----------------
#NOTES:
     dance-single:
     Copied from Copied from Copied f:
     Beginner:
     2:
     0.163,0.153,0.036,0.000,0.000,154.000,5.000,0.000,0.000,0.000,0.000,0.163,0.153,0.036,0.000,0.000,154.000,5.000,0.000,0.000,0.000,0.000:
0000
1000
0000
0001
,
0000
0100
0000
0010
,
0000
1000
0000
0001
,
0000
0100
0000
0010
,
0000
1001
0000
0000
,
1000
0000
0001
0000
,
0100
0000
0010
0000
,
0100
0000
0000
0000
1001
0000
0000
1000
,
0000
0000
0000
0001
0000
0000
0000
0100
,
0000
0000
0000
0010
0000
0000
0000
1000
,
0000
0000
0000
0000
0000
0001
0000
0001
,
0000
0001
0000
0001
0000
0001
0000
0000
,
0001
0000
1000
0000
,
0001
0000
0100
0000
,
0010
0000
1000
0000
,
0001
0000
0100
0000
,
0001
0000
1000
0000
,
0010
0000
0100
0000
,
0001
0000
1000
0000
,
0001
0000
1000
0000
,
0001
0000
1000
1000
,
0000
0001
0000
0100
,
0000
0010
0000
1000
,
0000
0001
0000
0100
,
0000
0010
0010
0010
,
0010
0000
0000
0000
0000
1000
0000
0000
,
0000
0001
0000
0000
0000
0100
0000
0000
,
0000
0010
0000
0000
0000
1000
0000
0000
,
0000
0001
0000
0001
0000
0001
0000
0001
,
0000
0000
1000
0000
,
0001
0000
0100
0000
,
0010
0000
1000
0000
,
0001
0000
0100
0100
,
0100
0000
1000
0000
,
0010
0000
0100
0000
,
0001
0000
1000
0000
,
0010
0000
0100
0000
,
0100
0000
0100
0000
,
1001
0000
0010
0000
,
1000
0000
0001
0000
,
0100
0000
0010
0000
,
1000
0000
0001
0001
,
0001
0001
0000
0001
,
0000
0100
0000
0010
,
0000
1000
0000
0100
,
0000
0001
0000
0100
,
0000
0010
0000
0100
,
0000
0001
0000
1000
,
1000
1000
0000
0100
,
0000
0100
0000
0001
,
0001
0001
0000
0010
,
0000
1000
0000
0100
,
0100
0100
0000
0001
,
0000
0010
0010
0010
,
0000
0100
0000
0100
,
0000
0100
0000
1000
,
0000
1000
0000
0010
,
0000
0010
0000
0001
,
0000
0001
0000
0100
,
0100
0100
0000
1000
,
0000
0010
0000
1000
,
0000
1000
0000
1000
,
0000
0100
0000
0001
,
0000
1000
0000
0010
,
0000
0100
0000
0001
,
0000
1000
0000
1001
,
0000
0001
0000
0100
,
0000
0010
0000
1000
,
0000
0001
0000
0100
,
0000
0010
0000
1000
,
0000
0001
0000
1001
;
