#TITLE:Stargazer;
#SUBTITLE:(Reese Remix);
#ARTIST:Entity;
#TITLETRANSLIT:;
#SUBTITLETRANSLIT:;
#ARTISTTRANSLIT:;
#CREDIT:;
#BANNER:Stargazer (Reese Remix).png;
#BACKGROUND:;
#LYRICSPATH:;
#CDTITLE:;
#MUSIC:Stargazer (Reese Remix).ogg;
#OFFSET:-2.594;
#SAMPLESTART:97.010;
#SAMPLELENGTH:13.000;
#SELECTABLE:YES;
#BPMS:0.000=85.700,8.000=85.400,53.500=171.300,86.000=171.000,118.000=170.800,150.000=171.200,214.000=86.199,246.000=86.099,262.000=85.999;
#STOPS:53.500=1.220
,182.000=0.010
,182.500=0.010
,183.000=0.010
,183.500=0.010
;
#BGCHANGES:;

//---------------dance-single - ----------------
#NOTES:
     dance-single:
     :
     Hard:
     8:
     0.480,0.805,0.295,0.035,0.208: // measure 1
0000
0000
0000
0000
,  // measure 2
0000
0000
0000
0000
,  // measure 3
1000
0100
0010
0001
0010
0100
1000
0001
,  // measure 4
0000
0000
0000
0010
0100
0010
1000
0000
,  // measure 5
1000
0100
0010
0100
1000
0010
0100
0010
,  // measure 6
0000
0000
0000
1000
0001
0010
0100
0000
,  // measure 7
0001
1000
0001
1000
0010
1000
0100
1000
,  // measure 8
0000
0000
0000
0001
1000
0010
1000
0000
,  // measure 9
0010
0001
1000
0010
0100
0001
0010
0100
,  // measure 10
0000
0000
0000
1000
0001
1000
0001
0000
,  // measure 11
1000
0100
0001
1000
0010
0001
1000
0010
,  // measure 12
0000
0000
0000
1000
0010
0100
0001
0000
,  // measure 13
1000
0010
0100
0010
1000
0100
0010
0001
,  // measure 14
0000
0000
0000
0000
1000
0000
0000
1001
,  // measure 15
0000
0000
1100
0000
1000
0001
1000
0000
,  // measure 16
1000
0000
0010
0000
0100
0000
0000
1000
,  // measure 17
0000
0000
1001
0000
0001
0010
0100
0000
,  // measure 18
1000
0000
0010
0000
0100
0000
0000
0101
,  // measure 19
0000
0000
1001
0000
0010
1000
0010
0000
,  // measure 20
0010
0000
1000
0000
0100
0000
0000
0011
,  // measure 21
0000
0000
1001
0000
1000
0100
0010
0000
,  // measure 22
0001
0010
0100
0000
1000
0001
1000
0001
,  // measure 23
1000
0001
1000
0001
0010
0100
0010
0100
,  // measure 24
0010
0100
0010
0100
1000
0100
1000
0100
,  // measure 25
1000
0100
1000
0100
1000
0010
1000
0010
,  // measure 26
1000
0010
1000
0010
0100
0001
0100
0001
,  // measure 27
0100
0001
0100
0001
0010
0001
0010
0001
,  // measure 28
0010
0001
0010
0001
0010
0100
0010
0100
,  // measure 29
0010
0100
0010
0100
0020
0000
0000
0030
,  // measure 30
0110
0000
1001
0000
1000
0010
1000
0100
,  // measure 31
1000
0000
1001
0000
0010
0100
1000
0010
,  // measure 32
0100
0000
0110
0000
0010
1000
0001
0010
,  // measure 33
0100
0000
1001
0000
1000
0010
0100
0001
,  // measure 34
1000
0000
1100
0000
0010
0001
0100
1000
,  // measure 35
0100
0000
0110
0000
1000
0001
0010
0100
,  // measure 36
1000
0000
1010
0000
1000
0010
0001
0010
,  // measure 37
1000
0000
0000
0000
1000
0000
0000
0000
1100
0000
0000
0000
0010
0001
0010
0000
,  // measure 38
0100
0000
1000
0100
0000
0010
0001
0000
1000
0000
0100
0000
0010
0000
0001
0000
,  // measure 39
1000
0000
1001
0000
0010
1000
0100
0010
,  // measure 40
0001
0000
1001
0000
0010
1000
0010
0000
,  // measure 41
0001
0000
0011
0000
1000
0100
1000
0000
,  // measure 42
0001
0000
0110
0000
0010
1000
0100
0000
,  // measure 43
0010
0000
0011
0000
0100
1000
0010
0000
,  // measure 44
0100
0000
0110
0000
1000
0100
0001
0000
,  // measure 45
0010
0000
0000
0000
1100
0000
0000
0000
0010
0000
0000
0000
0010
0001
0010
0000
,  // measure 46
0100
0000
1000
0001
0000
1000
0001
0000
1001
0000
0000
0000
0000
0000
1001
0000
,  // measure 47
0000
0000
1100
0000
0010
1000
0100
0000
,  // measure 48
0011
0000
1100
0000
0110
0000
0000
0110
,  // measure 49
0000
0000
0110
0000
1000
0010
0100
0000
,  // measure 50
1000
0000
0100
0000
0011
0000
0000
0110
,  // measure 51
0000
0000
1100
0000
1000
0010
0100
0001
,  // measure 52
1000
0000
1000
0000
1100
0000
0000
0110
,  // measure 53
0000
0000
0011
0000
2002
0000
0000
3003
,  // measure 54
0110
1001
1100
1000
,  // measure 55
0010
0100
0010
1000
,  // measure 56
0100
0010
0001
1000
,  // measure 57
0010
0100
0001
0010
,  // measure 58
1000
0010
0001
1000
,  // measure 59
0010
0100
0010
1000
,  // measure 60
0100
0010
0001
0100
0010
0000
0001
0000
,  // measure 61
0010
1000
0100
0010
,  // measure 62
0001
0000
0000
0000
1000
0000
0000
0000
1000
0000
0100
0010
0000
0001
0010
0100
,  // measure 63
1000
0000
0010
0100
0000
0100
0001
0010
1000
0000
0010
0001
0000
1000
0010
0100
,  // measure 64
0001
0000
0001
0010
0000
0100
2000
0000
3100
0000
0100
0010
0000
0001
0010
0100
,  // measure 65
1000
0000
0010
0100
0000
0100
0001
0010
0100
0000
1000
0100
0000
1000
0100
1000
,  // measure 66
0100
0000
0010
0001
0000
1000
0002
0000
1003
0100
1000
0100
1000
0100
1000
0100
,  // measure 67
1000
0001
1000
0001
1000
0001
1000
0001
1000
0010
1000
0010
1000
0010
1000
0010
,  // measure 68
1000
0010
0100
0010
0100
0010
0100
0010
0100
0001
0100
0001
0100
0001
0100
0001
,  // measure 69
0100
0001
0010
0001
0010
0001
0010
0001
0010
0100
0010
0100
0010
0100
0010
0100
,  // measure 70
0010
0001
0010
0100
1000
0100
0110
0000
0000
0000
0000
0000
0000
0000
0000
0000
;

//---------------dance-single - Copied from----------------
#NOTES:
     dance-single:
     Copied from:
     Medium:
     5:
     0.322,0.415,0.204,0.000,0.000:
0000
0000
0000
0000
,
0000
0000
0000
0000
,
1000
0000
0010
0000
1000
0000
0001
1000
,
0000
0000
0000
0010
0000
0100
0010
0000
,
1000
0000
0001
0000
0001
0000
0100
0100
,
0000
0000
0000
0010
0000
1000
0001
0000
,
0100
0000
0010
0000
1000
0000
0001
0001
,
0000
0000
0000
0001
0000
0100
0010
0000
,
0010
0000
1000
0000
1000
0000
0001
0100
,
0000
0000
0000
0010
0000
1000
0001
0000
,
0001
0000
0010
0000
1000
0000
0100
1000
,
0000
0000
0000
0001
0000
0100
0010
0000
,
1000
0000
0010
0000
0001
0000
1000
0001
,
0000
0000
0000
0000
0010
0000
0000
1000
,
0000
0001
0100
0010
,
1000
0000
0001
0000
0100
0000
0000
0001
,
0000
0001
0001
1000
,
0100
0000
1000
0000
0010
0000
0000
0010
,
0000
0010
0010
1000
,
0001
0000
0100
0000
0010
0000
0000
0010
,
0000
0010
1000
0001
,
1000
0000
0001
0000
1000
0010
1000
0000
,
0001
0100
0001
0000
1000
0100
1000
0000
,
0001
0010
0001
0000
1000
0010
1000
0000
,
0001
0100
0001
0000
1000
0100
1000
0000
,
0001
0100
0001
0000
0010
0001
0100
0000
,
0010
1000
0100
0000
0010
0001
0100
0000
,
0100
0001
0010
0000
0100
1000
0010
0000
,
0100
0001
0010
0000
1001
0000
0000
0000
,
0010
1000
1001
0010
,
0100
0001
1001
0100
,
1000
0010
0101
0010
,
1000
0001
0011
0100
,
1000
0010
0101
0010
,
1000
0100
0011
0001
,
0100
0010
1010
0001
,
1000
0001
1001
0000
,
1001
0000
1001
0010
,
0100
0001
1100
0001
,
0100
0010
1001
0100
,
1000
0001
0101
0010
,
1000
0001
1100
0001
,
0100
0010
1001
0010
,
0100
0001
0011
0100
,
1000
0001
1001
0000
,
1001
0000
0000
0000
1001
0000
0000
0010
,
0000
1000
0001
0100
,
0010
0000
1000
0000
1100
0000
0000
0101
,
0000
1100
0001
0100
,
0010
0000
1000
0000
0010
0000
0000
0010
,
0000
0010
0001
0100
,
1000
0000
0100
0000
0010
0000
0000
0010
,
0000
0010
1001
0000
,
1001
1100
1100
1000
,
0010
0100
0010
1000
,
0100
0010
0001
1000
,
0010
0100
0001
0010
,
1000
0010
0001
1000
,
0010
0100
0010
1000
,
0100
0001
0010
0001
,
0010
1000
0100
0010
,
0001
1000
0010
1000
,
0100
1000
0100
0000
1000
0001
1000
0000
,
0010
0100
0010
0000
0110
0000
0010
0000
,
1000
0001
1000
0000
0001
0100
0001
0000
,
0001
1000
0100
0000
1000
0010
1000
0010
,
0100
0010
0100
0010
0100
0001
0100
0001
,
1000
0001
1000
0001
1000
0010
1000
0010
,
0100
0010
0100
0010
0100
0001
0100
0001
,
0100
0010
0100
1100
0000
0000
0000
0000
;

//---------------dance-single - Copied from Copied f----------------
#NOTES:
     dance-single:
     Copied from Copied f:
     Easy:
     3:
     0.209,0.220,0.056,0.014,0.000:
0000
0000
0000
0000
,
0000
0000
0000
0000
,
1000
1000
0010
0010
,
0000
0000
1000
1000
,
0000
0001
0001
0100
,
0000
0000
1000
0010
,
1000
0001
0100
0010
,
0000
0000
1000
0010
,
0001
0100
1000
0010
,
0000
0000
0001
1000
,
0010
0100
0001
1000
,
0000
0000
0001
0100
,
0000
0010
1000
0001
,
0000
0000
0000
0000
1000
0000
0000
1000
,
0000
1000
0000
0000
,
0010
0000
0010
0000
0010
0000
0000
0010
,
0000
0010
0000
0000
,
0001
0000
0001
0000
0001
0000
0000
0001
,
0000
0001
0000
0000
,
0100
0000
0100
0000
0100
0000
0000
0100
,
0000
0100
0000
0000
,
0010
0000
1000
1000
,
1000
0000
0001
0001
,
0001
0000
0100
0100
,
0100
0000
0010
0010
,
0010
0000
1000
1000
,
1000
0000
0001
0001
,
0001
0000
0100
0010
,
0100
0000
0001
0000
,
1000
1000
1000
0000
,
0010
0000
0001
0100
,
0001
0000
1000
0000
,
1000
0100
1000
0000
,
0001
0000
0010
0100
,
0010
0000
1000
0000
,
0001
0100
0001
0000
,
1000
0000
1001
0000
,
1001
0000
1001
0000
,
0010
0000
0100
0001
,
0100
0000
1000
0000
,
0100
1000
0100
0000
,
1000
0000
0001
0100
,
0001
0000
0010
0000
,
1000
0100
1000
0000
,
0001
0000
1001
0000
,
1001
0000
1001
0000
,
1000
0000
1000
0000
,
0010
0000
0000
0000
0010
0000
0000
0010
,
0000
0010
0000
0000
,
0001
0000
0001
0000
0001
0000
0000
0001
,
0000
0001
0000
0000
,
0100
0000
0100
0000
0100
0000
0000
0100
,
0000
0100
0100
0000
,
0010
1000
1001
0010
,
0001
1000
0001
0100
,
0100
0100
0010
1000
,
1000
1000
0100
0100
,
0100
0100
0010
0010
,
0010
0010
0001
0001
,
0001
0001
0100
0100
,
0100
0100
0010
0010
,
0010
0010
1000
1000
,
0001
0001
0100
0100
,
0010
0010
1000
1000
,
0100
0100
0010
0010
,
0001
0100
0010
0010
,
1000
1000
0100
0100
,
0010
0001
0100
0100
,
0010
0010
0001
0001
,
2002
0000
0000
3003
0000
0000
0000
0000
;
