#TITLE:Space Jam;
#SUBTITLE:;
#ARTIST:Quad City DJ's;
#TITLETRANSLIT:;
#SUBTITLETRANSLIT:;
#ARTISTTRANSLIT:;
#GENRE:;
#CREDIT:;
#BANNER:Space Jam.png;
#BACKGROUND:Space Jam-bg.png;
#LYRICSPATH:;
#CDTITLE:;
#MUSIC:Space Jam.ogg;
#OFFSET:-1.386;
#SAMPLESTART:37.990;
#SAMPLELENGTH:13.200;
#SELECTABLE:YES;
#BPMS:0.000=131.980;
#STOPS:;
#BGCHANGES:;
#KEYSOUNDS:;

//---------------dance-single - ----------------
#NOTES:
     dance-single:
     :
     Hard:
     8:
     0.603,0.597,0.710,0.212,0.277,404.000,87.000,26.000,0.000,0.000,0.000,0.603,0.597,0.710,0.212,0.277,404.000,87.000,26.000,0.000,0.000,0.000:
0000
0000
0000
0000
,
0000
0000
0000
0000
,
0000
0000
0000
0000
0000
0000
0000
0000
1001
0000
0000
0001
1000
0000
1001
0000
,
0000
0000
1000
0000
0100
1000
0001
1000
0100
0000
0000
0100
0010
0000
1001
0000
,
0000
0000
1000
0000
0010
0100
0010
1000
0100
0000
0010
0100
0000
0000
0110
0000
,
0000
0000
1000
0000
0100
0010
0001
1000
0001
0000
0000
1000
0001
0000
1001
0000
,
0000
0000
1100
0000
0010
1000
0100
0010
0001
0000
0001
0000
0010
0000
0100
0000
,
1001
0000
0000
1000
0010
0100
0010
1000
,
1100
0000
0000
0000
1000
0001
1000
0001
1000
0000
0100
0000
0010
0000
0001
0000
,
1001
0000
0000
0010
0000
0100
0010
0100
,
1001
0000
0000
0000
1000
0100
1000
0100
1000
0000
0000
0100
0000
0000
1000
0000
,
0000
0000
1000
0000
0000
0100
0000
0000
0010
0000
0000
0001
0000
0000
0001
0000
,
0000
0000
1000
0000
0000
0000
0010
0000
0100
0000
0000
0001
0000
0000
0001
0000
,
0000
0000
1000
0000
0000
0000
0100
0000
0010
0000
0000
0001
0000
0000
0001
0000
,
0000
1000
0000
0000
0110
0000
1001
1000
,
0100
1000
0100
0000
0010
0000
0000
0000
0011
0000
0000
0000
0110
0000
0100
0000
,
1000
0100
1000
0000
0001
0000
0000
0000
0110
0000
0000
0000
1100
0000
0001
0000
,
0010
0001
0010
0000
0110
0000
0000
0000
1100
0000
0000
0000
0011
0000
1000
0000
,
0100
0010
0001
0000
1001
0000
1000
0000
0100
0000
0010
0000
0001
0000
1000
0001
,
0000
1000
0000
0001
0000
0000
1000
0100
1000
0000
1001
0000
0110
0000
2000
0000
,
0002
0000
3003
0000
0110
0000
0000
0000
1000
0000
0100
0000
0001
0000
0100
1000
,
0000
0010
0000
0100
0000
0000
0000
0001
1000
0000
0010
0000
0100
0000
0001
1000
,
0000
0100
0000
0010
0000
0001
1000
0000
2002
0000
0000
0000
3003
0000
1000
0000
,
0100
0000
0010
0001
0000
0000
2000
0000
0002
0000
3003
0000
0000
0000
1000
0000
,
0100
0000
0010
0100
0000
0000
0000
0000
1001
0000
0100
0000
1100
0000
0001
0000
,
1001
0000
2000
0200
3300
0000
0000
0000
1001
0000
0010
0000
0110
0000
1000
0000
,
1001
0000
2000
0200
3300
0000
1000
0000
0010
0000
0010
0000
0010
0000
0010
0000
,
0100
0100
0100
0100
0001
0001
0001
0001
,
1000
0000
1000
0000
1000
0000
1000
0000
0000
0000
1000
0000
0100
0000
0000
0010
,
0001
0000
0001
1000
0000
0000
0000
0000
0110
0000
1000
0000
1100
0000
0010
0000
,
0110
0000
1000
0100
0000
0000
0100
0000
2000
0000
0002
0000
3003
0000
0000
0000
,
0110
0000
1000
0001
0000
0000
0000
0000
1100
0000
0010
0000
0101
0000
0010
0000
,
1100
0000
1000
0001
0000
0000
0000
0000
1000
0100
0000
0010
0000
0000
0001
0000
,
0010
0000
0100
1000
0000
0000
0100
0000
1100
0000
0000
0000
0011
0000
0000
0000
,
0110
0000
2000
0000
0002
0000
3003
0000
1000
0000
0000
0100
0000
0000
0010
0000
,
0000
0000
0000
0010
0001
0000
0000
0000
0010
0000
0000
0100
0000
0000
1010
0000
,
0000
0000
0101
0000
0000
0000
1100
0000
0110
0000
0000
0100
1000
0000
0001
0000
,
1000
0000
0010
0100
0010
0000
1000
0000
0100
0000
0000
0100
0010
0000
0001
0000
,
1000
0000
1000
0100
0010
0000
0001
0000
1001
0000
0000
0010
0100
0000
1000
0000
,
0000
0000
1000
0000
1001
0000
1000
0000
1100
0000
0000
1000
0100
0000
1100
0000
,
0000
0000
1010
0000
0000
0000
0000
0000
0110
0000
0000
0100
1000
0000
0100
0000
,
0000
0000
0010
0000
0000
0000
0010
0000
0100
0000
0000
0001
0100
0000
0010
0000
,
0000
0010
0000
0000
1000
0000
1100
0100
,
1001
0000
0110
1000
0011
0000
1100
0010
,
0101
0000
0110
0000
0000
1000
0010
0010
,
0100
0100
0001
0001
1000
1000
0010
0000
,
0010
1000
0100
0010
0011
0000
0011
0000
,
0000
0000
1000
0001
0011
0000
0001
1000
,
1010
0000
1000
0100
1100
0000
0202
0000
,
0000
0000
0303
1000
0100
1000
0010
0000
,
0000
0000
0000
0000
0000
0000
0000
0000
1001
0000
1000
0100
0000
0010
0000
0001
,
0000
1000
0100
0000
0010
0000
0100
0000
1000
0000
0000
0000
2000
0000
0000
0000
,
0002
0000
0000
0000
3003
0000
1000
0001
0000
0000
1001
0000
0000
0000
1000
0000
,
0010
0100
0110
0000
1001
0000
2000
0000
,
0020
0000
0000
0000
3030
0000
1000
0010
0000
0000
0100
0000
0010
0000
1000
0100
,
0010
0001
1001
0000
0110
0000
2000
0000
,
0200
0000
3300
1001
0000
0110
0000
1000
,
0010
0100
0110
0000
1010
0000
2010
0000
,
0001
0000
0000
0000
0200
0000
3000
0000
1300
0000
0000
1000
0000
0000
1000
0000
,
0000
1000
0010
0100
0101
0000
0010
1000
,
1100
0000
0000
0000
0000
1000
1001
0001
,
1001
0000
1000
0010
0110
0000
1000
0010
,
0101
0000
0000
1001
0000
1000
0010
0100
,
0001
0000
0000
1000
1100
0000
0010
0100
,
0110
0000
0000
1001
0000
1000
0100
0001
,
0101
0000
0000
1000
0110
0000
0010
1000
,
0110
0000
2000
0002
3003
0000
0000
0000
;

//---------------dance-single - Highflyer----------------
#NOTES:
     dance-single:
     Highflyer:
     Medium:
     6:
     0.371,0.379,0.212,0.163,0.000,272.000,26.000,20.000,0.000,0.000,0.000,0.371,0.379,0.212,0.163,0.000,272.000,26.000,20.000,0.000,0.000,0.000:
0000
0000
0000
0000
,
0000
0000
0000
0000
,
0000
0000
1000
0100
,
1100
0001
1000
0010
,
1010
0010
1000
0100
,
1100
0001
1000
0010
,
0101
0000
0001
0000
1000
0000
0010
1000
,
0100
0000
0001
0000
1000
0000
0010
0001
,
0100
0000
0010
0000
1000
0000
0001
1000
,
0001
0000
1000
0000
0010
0000
1000
0100
,
1000
0001
1000
0010
,
1000
0100
1000
0001
,
1000
0001
1001
0100
,
1000
0010
1001
0100
,
1000
0001
0010
1000
,
0100
1000
0001
0000
1000
0000
0010
0000
,
0001
1000
0010
0000
0100
0000
1000
0000
,
0001
0010
0100
0000
1000
0000
0001
0000
,
0001
1000
0001
0000
1000
0000
0100
0000
,
1000
0010
1000
0000
0100
1000
0100
1000
,
0001
0001
1000
0010
,
0010
1000
0100
0000
0001
0000
0010
0000
,
0100
1000
0001
0000
2002
0000
3003
0000
,
0010
1000
2200
3300
,
0001
1000
0010
1000
,
0100
1000
0001
0000
0001
0000
0010
0000
,
0001
1000
0010
0000
1001
0000
0100
0000
,
1001
0000
0010
0000
0001
1000
0100
0000
,
0001
1000
0010
0000
0001
0000
1000
0000
,
0100
1000
0001
0000
0001
0000
1000
0000
,
0010
0100
0010
0000
2020
0000
3030
0000
,
0001
0000
2200
3300
0001
0000
0010
0000
,
2002
3003
0010
1000
,
0100
1000
0001
1000
,
0010
1000
0100
0000
0001
0000
1000
0000
,
0010
0000
0010
1000
0100
0000
0100
0000
,
1000
0000
0001
0000
0010
0000
0100
1000
,
0001
0000
0100
0000
0010
1000
0100
0000
,
0010
0001
1001
1100
,
0000
0000
0001
0000
1000
0000
0010
1000
,
0100
1000
0001
1001
,
0000
0000
0000
0010
0001
0000
0000
0000
,
0000
0000
0000
0000
1000
0000
0100
1000
,
0010
0000
0010
1000
0100
0000
0001
0000
,
1000
1001
0000
0011
,
1000
0000
0100
0010
0001
0000
1001
0000
,
0010
1000
0100
0000
0001
0000
1100
0000
,
0000
0000
0001
0100
0010
0000
0010
1000
,
0100
0001
1000
2200
,
0000
0000
3300
0010
1000
0000
0000
0000
,
0000
0000
1001
0100
,
1000
0010
1000
0000
0100
0000
2002
0000
,
0000
0000
3003
0010
0000
0000
1000
0000
,
0100
1000
0001
0000
2002
0000
0000
0000
,
0000
3003
0000
0000
0010
0000
1000
0100
,
1000
0001
0220
0000
,
0000
0330
0000
0010
0000
0000
1000
0000
,
0100
1000
0001
0000
2002
0000
0000
0000
,
0000
3000
0003
0000
0010
0000
1000
0000
,
0100
0000
1000
0000
0001
0000
1000
0001
,
1000
0001
0100
0010
,
1000
0000
0010
1000
0100
0000
1000
0001
,
1000
0000
0010
0000
0100
0000
0001
1000
,
0100
0000
1000
0000
0001
0000
1000
0010
,
1000
0000
0100
0000
1000
0000
0001
1000
,
0100
0000
1000
0000
0001
0000
0010
0001
,
1000
0000
0100
1000
0000
0000
0000
0000
;

//---------------dance-single - Copied from Highflyer----------------
#NOTES:
     dance-single:
     Copied from Highflyer:
     Easy:
     3:
     0.203,0.243,0.212,0.016,0.000,146.000,26.000,2.000,0.000,0.000,0.000,0.203,0.243,0.212,0.016,0.000,146.000,26.000,2.000,0.000,0.000,0.000:
0000
0000
0000
0000
,
0000
0000
0000
0000
,
0000
0000
1000
0000
,
1001
0000
0010
0000
,
0101
0000
0010
0000
,
1100
0000
0001
0000
,
1001
0000
0010
0000
,
1100
0000
0001
0100
,
0110
0000
0000
0001
,
1100
0000
0001
0100
,
0110
0000
0001
0000
,
1000
0000
0100
0100
,
0100
0000
0010
0000
,
1000
0000
0001
0100
,
1000
0000
0010
0000
,
1000
1000
0001
0000
,
0001
0100
0010
0000
,
1000
1000
0000
0001
,
0000
1000
0010
0000
,
0100
1000
0000
0100
,
2002
3003
0001
1000
,
0100
1000
0000
0100
,
0001
1000
1001
0000
,
0001
0000
1100
0000
,
0010
0000
0101
0000
,
0010
0000
1100
0000
,
0001
0000
1000
0000
,
0010
0000
0100
0000
,
1000
0001
0000
1000
,
0000
0010
0000
1000
,
0100
0000
1000
0000
,
0001
1000
1000
0000
,
0010
0100
0001
0000
,
1000
0000
0100
0000
,
1000
0000
0010
0100
,
0001
0000
1000
0000
,
1001
0000
0010
0000
,
0100
1000
0001
0000
,
0010
0000
1001
1001
,
0000
0010
0000
1000
,
0101
0000
0001
1100
,
0000
0000
0010
0000
,
0000
0000
1001
0000
,
0100
0000
0010
0000
,
1001
1001
0000
0010
,
0000
0100
0000
1001
,
0000
0010
1000
0100
,
0000
0001
1000
0000
,
0001
0000
0010
1000
,
0000
0000
0100
0000
,
0000
0000
1000
0000
,
0010
0000
1001
0000
,
0000
0000
0001
0000
,
1000
0000
0110
0000
,
0000
0000
0001
0000
,
1000
0000
0110
0000
,
0000
0000
0001
0000
,
0010
0000
1100
0000
,
0000
0000
0010
0000
,
0100
0000
0001
1000
,
0001
0000
0010
0000
,
0100
0000
1000
0100
,
1000
0000
0001
0000
,
0100
0000
0010
1000
,
0010
0000
0100
0000
,
1000
0000
0010
0001
,
0010
0001
0000
0000
;
