#TITLE:Radio Song;
#SUBTITLE:;
#ARTIST:Superbus;
#TITLETRANSLIT:;
#SUBTITLETRANSLIT:;
#ARTISTTRANSLIT:;
#GENRE:;
#CREDIT:;
#BANNER:Radio Song.png;
#BACKGROUND:;
#LYRICSPATH:;
#CDTITLE:;
#MUSIC:Radio Song.ogg;
#OFFSET:-1.629;
#SAMPLESTART:37.990;
#SAMPLELENGTH:13.200;
#SELECTABLE:YES;
#BPMS:0.000=158.020;
#STOPS:;
#BGCHANGES:;
#KEYSOUNDS:;

//---------------dance-single - Guitar Hero Fret Mim----------------
#NOTES:
     dance-single:
     Guitar Hero Fret Mim:
     Hard:
     9:
     0.848,0.777,1.000,0.913,0.040,518.000,175.000,126.000,0.000,0.000,0.000,0.848,0.777,1.000,0.913,0.040,518.000,175.000,126.000,0.000,0.000,0.000:
0000
0000
0000
0000
,
1000
0001
0001
0001
0001
1000
1000
1000
,
1000
0010
0010
0010
0100
0001
0100
0001
,
0010
0100
0100
0100
0100
1000
1000
1000
,
0100
0010
0000
0000
0002
0000
0003
0000
1000
0000
0010
0000
2000
0000
3000
0000
,
0010
0100
0100
0100
0100
0001
0001
0001
,
0001
1000
1000
1000
0100
0010
0100
0010
,
0001
1000
1000
1000
1000
0010
0010
0010
,
1000
0100
0000
0000
0002
0000
0003
0000
0100
0000
1000
0000
0200
0000
0300
0000
,
0010
0001
0001
0001
0001
1000
1000
1000
,
1000
0010
0010
0010
0100
0001
0100
0001
,
1000
0100
0100
0100
0100
0010
0010
0010
,
0001
1000
0000
0000
0020
0000
0030
0000
1000
0000
0100
0000
0002
0000
0003
0000
,
0101
1100
1010
0101
,
1001
0110
1001
0110
,
0011
1010
0110
0011
,
1010
0110
1001
0101
,
1100
1001
0101
0011
,
1010
0110
0101
0101
,
0110
1001
1010
1100
,
0011
0000
0000
0000
,
0202
0000
0000
0000
0000
0000
0000
0303
0202
0000
0000
0000
0000
0000
0000
0303
0202
0000
0000
0000
0000
0000
0000
0303
0101
0000
0000
0000
0101
0000
0000
0000
,
2200
0000
0000
0000
0000
0000
0000
3300
1100
0000
0000
0000
2200
0000
0000
0000
0000
0000
0000
3300
1100
0000
0000
0000
1100
0000
0000
0000
1010
0000
0000
0000
,
0010
0000
0000
0000
0100
0000
0000
0000
0020
0000
0000
0000
0000
0000
0000
0030
0020
0000
0000
0000
0000
0000
0000
0030
0010
0000
0000
0000
0010
0000
0000
0000
,
0010
0000
1000
0000
2000
0000
0000
3000
2000
0000
0000
3000
2000
0000
0000
3000
,
2200
0000
0000
0000
0000
0000
0000
3300
2200
0000
0000
0000
0000
0000
0000
3300
2200
0000
0000
0000
0000
0000
0000
3300
1100
0000
0000
0000
1100
0000
0000
0000
,
0220
0000
0000
0000
0000
0000
0000
0330
0110
0000
0000
0000
0220
0000
0000
0000
0000
0000
0000
0330
0110
0000
0000
0000
0110
0000
0000
0000
0011
0000
0000
0000
,
0001
0000
0000
0000
0010
0000
0000
0000
0200
0000
0000
0000
0000
0000
0000
0300
0200
0000
0000
0000
0000
0000
0000
0300
0100
0000
0000
0000
0100
0000
0000
0000
,
2000
0000
0000
0000
0000
0000
0000
3000
0002
0000
0000
0000
0000
0000
0000
0003
1000
0000
0000
0000
0100
0000
0000
0000
2000
0000
0000
0000
0000
0000
0000
3000
,
1000
0001
0001
0001
0001
0100
0100
0100
,
0100
0010
0010
0010
1000
0100
1000
0100
,
0010
0001
0001
0001
0001
0100
0100
0100
,
0010
1000
0000
0000
0020
0000
0030
0000
0100
0000
0001
0000
0100
0000
0000
0000
,
0110
1010
1100
0011
,
0110
1010
0110
0011
,
1010
1100
0101
0011
,
1010
0110
1001
0011
,
0110
1100
0101
0110
,
1100
0110
0011
1010
,
1001
1010
0110
1001
,
0000
0000
0000
0000
,
0202
0000
0000
0000
0000
0000
0000
0303
0202
0000
0000
0000
0000
0000
0000
0303
0202
0000
0000
0000
0000
0000
0000
0303
0101
0000
0000
0000
0101
0000
0000
0000
,
2200
0000
0000
0000
0000
0000
0000
3300
1100
0000
0000
0000
2200
0000
0000
0000
0000
0000
0000
3300
1100
0000
0000
0000
1100
0000
0000
0000
1010
0000
0000
0000
,
0010
0000
0000
0000
0100
0000
0000
0000
0020
0000
0000
0000
0000
0000
0000
0030
0020
0000
0000
0000
0000
0000
0000
0030
0010
0000
0000
0000
0010
0000
0000
0000
,
0010
0000
1000
0000
2000
0000
0000
3000
2000
0000
0000
3000
2000
0000
0000
3000
,
2200
0000
0000
0000
0000
0000
0000
3300
2200
0000
0000
0000
0000
0000
0000
3300
2200
0000
0000
0000
0000
0000
0000
3300
1100
0000
0000
0000
1100
0000
0000
0000
,
0220
0000
0000
0000
0000
0000
0000
0330
0110
0000
0000
0000
0220
0000
0000
0000
0000
0000
0000
0330
0110
0000
0000
0000
0110
0000
0000
0000
0011
0000
0000
0000
,
0001
0000
0000
0000
0010
0000
0000
0000
0200
0000
0000
0000
0000
0000
0000
0300
0200
0000
0000
0000
0000
0000
0000
0300
0100
0000
0000
0000
0100
0000
0000
0000
,
2000
0000
0000
0000
0000
0000
0000
3000
0002
0000
0000
0000
0000
0000
0000
0003
1000
0000
0000
0000
0100
0000
0000
0000
2000
0000
0000
0000
0000
0000
0000
3000
,
2200
0000
0000
3300
2200
0000
0000
3300
2200
0000
0000
3300
1100
0000
1100
0000
,
0110
0000
0110
0000
0110
0000
1000
0100
1000
0000
0110
0000
0110
0000
0001
0000
,
0001
0000
0100
0000
0020
0000
0000
0030
0020
0000
0000
0030
0010
0000
0010
0000
,
0010
0000
1000
0000
2000
0000
0000
3000
2000
0000
0000
3000
2000
0000
3000
0000
,
2200
0000
0000
3300
2200
0000
0000
3300
2200
0000
0000
3300
1100
0000
1100
0000
,
0110
0000
0110
0000
0110
0000
1000
0100
1000
0000
0110
0000
0110
0000
0001
0000
,
0001
0000
0100
0000
0020
0000
0000
0030
0020
0000
0000
0030
0010
0000
0010
0000
,
0010
0000
1000
0000
2000
0000
0000
3000
2000
0000
0000
3000
2000
0000
3000
0000
,
1010
1010
1010
1010
0000
0000
0000
0000
,
0101
0101
0101
0101
0000
0000
0000
0000
,
0110
0110
0110
0110
0000
0000
0000
0000
,
2000
0000
0000
3000
0200
0000
0000
0300
0010
0000
0001
0000
0020
0000
0000
0030
,
0011
0011
0011
0011
0000
0000
0000
0000
,
1100
1100
1100
1100
0000
0000
0000
0000
,
1001
1001
1001
1001
0000
0000
0000
0000
,
2000
0000
0000
3000
0200
0000
0000
0300
0010
0000
0002
0000
0003
0000
0000
0000
,
1000
1000
1000
1000
0001
1000
1000
1000
,
0010
1000
1000
1000
0100
1000
0100
0100
,
1000
1000
1000
1000
0001
1000
1000
1000
,
0010
1000
1000
1000
0100
1000
0100
0100
,
1000
1000
1000
1000
0001
1000
1000
1000
,
0010
1000
1000
1000
0100
1000
0100
0100
,
1000
1000
1000
1000
0100
0100
0100
0100
,
0020
0000
0000
0000
0000
0000
0000
0030
,
0202
0000
0000
0000
0000
0000
0000
0303
0202
0000
0000
0000
0000
0000
0000
0303
0202
0000
0000
0000
0000
0000
0000
0303
0101
0000
0000
0000
0101
0000
0000
0000
,
2200
0000
0000
0000
0000
0000
0000
3300
1100
0000
0000
0000
2200
0000
0000
0000
0000
0000
0000
3300
1100
0000
0000
0000
1100
0000
0000
0000
1010
0000
0000
0000
,
0010
0000
0000
0000
0100
0000
0000
0000
0020
0000
0000
0000
0000
0000
0000
0030
0020
0000
0000
0000
0000
0000
0000
0030
0010
0000
0000
0000
0010
0000
0000
0000
,
0010
0000
1000
0000
2000
0000
0000
3000
2000
0000
0000
3000
2000
0000
0000
3000
,
2200
0000
0000
0000
0000
0000
0000
3300
2200
0000
0000
0000
0000
0000
0000
3300
2200
0000
0000
0000
0000
0000
0000
3300
1100
0000
0000
0000
1100
0000
0000
0000
,
0220
0000
0000
0000
0000
0000
0000
0330
0110
0000
0000
0000
0220
0000
0000
0000
0000
0000
0000
0330
0110
0000
0000
0000
0110
0000
0000
0000
0011
0000
0000
0000
,
0000
0000
0000
0000
0010
0000
0000
0000
0200
0000
0000
0000
0000
0000
0000
0300
0200
0000
0000
0000
0000
0000
0000
0300
0100
0000
0000
0000
0100
0000
0000
0000
,
0020
0000
0000
0030
0002
0000
0000
0003
0100
0000
0010
0000
0200
0000
0000
0300
,
0001
0000
0001
0000
0001
0000
0001
0000
0001
0000
0001
0000
0001
0000
1100
1100
,
1000
0000
1000
0000
1000
0000
1000
0100
1000
0000
1000
0000
1000
0000
1000
0000
,
1000
0100
0100
0100
0100
0100
0100
0100
,
0100
0010
0010
0010
0010
0010
0010
0010
,
0001
0000
0001
0000
0001
0000
0001
0000
0001
0000
0001
0000
0001
0000
1100
1100
,
1000
0000
1000
0000
1000
0000
1000
0100
1000
0000
1000
0000
1000
0000
1000
0000
,
0100
0100
0100
0100
0100
0100
0100
0100
,
0010
0001
0000
0000
0010
0000
0000
0000
0100
0000
1000
0000
0100
0000
0000
0000
,
1010
1010
1010
1010
0000
0000
0000
0000
;

//---------------dance-single - Highflyer----------------
#NOTES:
     dance-single:
     Highflyer:
     Challenge:
     9:
     0.707,0.907,0.420,0.014,0.141,623.000,58.000,2.000,0.000,0.000,0.000,0.707,0.907,0.420,0.014,0.141,623.000,58.000,2.000,0.000,0.000,0.000:
0000
0000
0000
0000
,
1000
0010
1000
0010
1000
0100
0010
0001
,
0100
1000
0100
0010
1000
0100
1000
0100
,
1000
0000
0001
0000
0100
0000
1000
0000
0100
0000
0010
0000
1000
0000
0001
1000
,
0100
0000
1000
0000
0001
1000
0010
0000
,
0010
0100
1000
0100
0010
1000
0100
0010
,
0001
0100
1000
0100
0010
1000
0100
0010
,
0001
0000
0100
0000
0010
0000
0100
0000
1000
0000
0100
0000
0010
0000
0100
0010
,
0100
0000
0010
0000
1000
0100
1000
0000
,
0001
0000
0100
0000
0010
0000
1000
0000
0100
0000
0010
0000
0001
0000
0100
0001
,
0100
0010
1000
0100
0010
0001
0100
1000
,
0100
0000
0010
0000
1000
0000
0100
0000
0010
0000
0001
0000
0100
0000
0010
0100
,
0001
0000
1000
0000
0100
1000
0100
0000
,
0001
0100
1000
0100
0110
0000
1010
0000
,
0100
1000
0001
0100
0101
0000
1001
0000
,
0100
1000
0001
0100
0010
1000
0200
0000
,
0300
1000
0001
0100
0010
0100
0010
0000
,
0010
1000
0100
0010
0011
0000
1100
0000
,
0001
0100
1000
0100
0110
0000
1001
0000
,
0001
0100
0010
0100
1000
0100
0010
0000
,
0010
1000
0100
1000
0001
0100
0001
0000
,
0001
0000
0100
0000
0010
0000
0010
1000
,
0100
0000
1000
0001
0000
0001
0100
1000
,
0100
0010
1000
0000
1100
0000
0001
0100
,
1000
0100
0010
0000
0110
0000
0001
0000
,
1000
0000
0100
1000
0001
0000
0001
0100
,
0010
0000
0010
1000
0000
1000
0100
0010
,
0001
0100
1000
0000
0110
0000
1001
0100
,
1000
0001
0100
0000
0110
0001
1000
0000
,
0100
0000
1000
0000
0001
0000
0100
0000
0010
0000
0100
0010
1000
0000
0100
0000
,
0010
0000
0001
0000
0100
0000
1000
0100
0010
0000
1000
0000
0001
0000
0010
0000
,
0100
1000
0001
0100
1000
0100
0010
0100
,
1001
0000
1100
0000
0001
0100
0010
0000
,
0001
1000
0010
1000
0101
0000
0110
0000
,
0010
1000
0100
0010
0011
0000
0101
0000
,
0000
1000
0100
0010
0001
0100
0101
0000
,
0000
0001
0100
0010
1000
0100
1100
0000
,
0001
0100
1000
0100
0110
0000
1001
0000
,
0100
1000
0001
0100
0010
0000
0110
0000
,
0000
0010
1000
0100
1000
0001
0010
0000
,
0010
0100
1000
0010
0100
0001
1000
0100
1000
0001
1000
0001
0100
0000
0010
0000
,
0010
0000
0100
0000
0001
0000
1000
0100
1000
0000
0001
0000
0100
0000
0010
1000
,
0001
0000
1000
0000
0100
0000
0010
0001
0010
0000
0001
0000
0100
0000
0010
0000
,
1000
0001
1000
0000
1100
0000
0001
0100
,
1000
0100
0010
0000
1000
0000
0000
0000
1001
0000
0000
0000
1100
0000
0000
0000
,
0001
0000
0100
0000
0010
0000
1000
0100
1000
0000
0001
0000
0100
0000
0001
1000
,
0001
0000
1000
0000
0100
0000
1000
0001
0010
0000
0001
0000
1000
0000
0100
0000
,
0001
1000
0010
0000
0101
0000
0010
1000
,
0001
0100
0001
0000
0101
0000
0001
0000
,
0001
0000
0100
0000
0010
0000
1000
0000
0100
0000
1000
0000
0001
0000
0100
0010
,
0100
0000
0001
0000
1000
0000
0100
0010
0001
0000
0010
0000
0001
0000
0100
0000
,
0010
0100
1000
0100
0010
0000
0010
1000
,
0100
0010
0001
0000
0011
0000
0101
0000
,
0010
0000
1000
0000
0100
0000
0010
0000
0001
0000
0100
0000
0010
0000
0100
0010
,
1000
0000
0100
0000
0010
0000
0001
0100
0001
0000
0100
0000
0010
0000
1000
0000
,
0100
0010
0001
0000
0101
0000
0010
1000
,
0100
1000
0001
0000
0100
0000
0001
0000
,
0001
0100
0001
0100
0001
0000
0001
0000
,
0001
1000
0100
1000
0100
0000
1000
0000
,
0100
1000
0001
0100
0010
0000
0010
0000
,
0010
0000
1000
0000
0100
1000
0100
0000
,
0100
1000
0001
0100
0010
0000
0010
0000
,
0010
1000
0100
0010
0001
0000
0001
0000
,
0001
0100
1000
0100
0010
0000
0010
0000
,
0010
0000
1000
0000
0001
0101
0000
0000
,
0010
1000
0100
1000
1001
0001
0100
0010
,
1001
0001
0100
0010
1001
0001
0110
0101
,
0010
1000
0001
1000
1100
0001
0100
0010
,
0101
0010
1000
0001
1100
0001
0110
0101
,
0010
0001
1000
0100
1001
0001
0100
0010
,
0101
0010
1000
0001
1100
0001
1010
1001
,
1000
0100
0010
0001
0100
0010
1000
0100
0010
0100
1000
0010
0100
0001
0010
0100
,
2000
0000
0000
0000
,
3001
0000
1000
0000
0010
0000
1000
0000
0001
0000
0100
0000
1000
0000
0100
0010
,
1000
0000
0001
0000
1000
0000
0100
0010
0001
0000
0100
0000
0010
0000
0100
0000
,
0001
1000
0100
0000
1001
0000
0010
0100
,
0001
1000
0100
0000
1001
0000
0101
0000
,
0010
0000
0000
0000
0010
0000
1000
0000
0100
0000
0010
0000
0001
0000
0100
0001
,
0100
0000
0010
0000
1000
0000
0100
0010
0001
0000
0100
0000
0010
0000
0100
0000
,
0001
1000
0100
0000
1001
0000
0001
0100
,
0010
1000
0001
0000
1001
0000
0101
0000
,
0010
0000
1000
0000
0100
0000
0010
0000
0001
0000
0100
0000
0010
0000
1000
0100
,
1000
0000
0001
0000
0100
0000
0010
0100
0010
0000
1000
0000
0001
0000
0010
0000
,
0100
1000
0001
0000
0101
0000
0010
1000
,
0100
0010
0001
0000
0011
0000
0101
0000
,
0110
0000
0000
0000
0010
0000
1000
0000
0100
0000
0010
0000
0001
0000
0100
0010
,
0100
0000
0010
0000
1000
0000
0100
0010
0001
0000
0100
0000
0010
0000
0100
0000
,
0001
1000
0100
0000
1000
0000
0001
0100
,
0010
1000
0001
0000
1000
0000
0001
0000
,
0001
0100
1000
0100
0000
0000
0000
0000
;

//---------------dance-single - Highflyer----------------
#NOTES:
     dance-single:
     Highflyer:
     Medium:
     7:
     0.425,0.389,0.159,0.000,0.000,389.000,22.000,0.000,0.000,0.000,0.000,0.425,0.389,0.159,0.000,0.000,389.000,22.000,0.000,0.000,0.000,0.000:
0000
0000
0000
0000
,
1000
0010
1000
0000
0001
0100
0001
0000
,
1000
0100
1000
0000
0001
0001
0001
0000
,
0001
0100
0001
0000
1000
0010
1000
0000
,
0001
0000
0000
0000
1000
0001
1000
0000
,
0001
0100
0001
0000
1000
0010
1000
0000
,
0100
1000
0100
0000
0001
0001
0001
0000
,
0001
0100
0001
0000
1000
0010
1000
0000
,
0100
1000
0001
0000
,
0001
0100
0001
0000
1000
0010
1000
0000
,
1000
0100
1000
0000
0001
0001
0001
0000
,
0001
0100
0001
0000
1000
0010
1000
0000
,
1000
0010
1001
0000
,
0001
0100
1010
0000
,
0001
0100
1100
0000
,
0001
0100
0010
1001
,
0000
0001
0100
0110
,
0010
1000
1100
1001
,
0001
0100
0110
1010
,
0000
0001
1000
1001
,
0000
0001
0100
0110
,
0000
0000
1000
0000
0001
0000
0001
0100
,
0001
0000
1000
0000
0100
0000
1000
0001
,
1000
0000
0010
0000
0100
0000
0001
0100
,
0001
1000
0100
0000
,
0000
0000
1000
0000
0001
0000
0100
0001
,
0100
0000
0010
0000
1000
0000
0100
1000
,
0100
1000
0001
0010
,
0100
0001
1000
0100
,
0001
0000
1000
0000
,
0010
1000
0010
0000
0001
0100
0001
0000
,
1000
0010
1000
0000
0100
1000
0100
0000
,
0001
0100
0010
0000
,
0010
1000
1001
0000
,
0001
0100
1010
0000
,
0001
0100
1010
0000
,
0100
1000
1001
0000
,
0001
0100
1010
0000
,
0010
0100
1001
0000
,
0100
1000
0001
0100
,
0010
0010
0010
0010
,
0010
1000
0010
0000
0100
0001
0100
0000
,
0010
1000
0100
0000
1000
0001
0100
0000
,
0001
1000
1100
0001
,
0100
0010
1010
0000
,
0001
0100
0001
0000
1000
0010
1000
0000
,
0100
1000
0100
1000
0000
0001
1000
0000
,
0010
0100
0001
0000
,
0001
1000
1100
0000
,
0001
0100
0001
0000
0001
1000
0100
0000
,
1000
1000
1000
0000
0001
0001
0001
0000
,
0001
0100
0001
0000
1000
0010
1000
0000
,
0100
0000
1000
0000
0001
0100
0001
0000
,
0010
1000
0010
0000
1000
0100
1000
0000
,
0001
0000
0100
0000
0010
1000
0010
0000
,
1000
0100
1000
0000
0001
0100
0001
0000
,
0010
0001
0010
0000
0100
1000
0100
0000
,
0001
0001
0001
0001
0000
0000
0000
0000
,
1000
1000
1000
1000
0000
0000
0000
0000
,
0010
0010
0010
0010
0000
0000
0000
0000
,
0100
0010
1001
0000
,
0100
0100
0100
0100
0000
0000
0000
0000
,
1000
1000
1000
1000
0000
0000
0000
0000
,
0010
0010
0010
0010
0000
0000
0000
0000
,
0100
0000
0001
0000
1000
0001
0000
0000
,
0001
0000
0100
0000
,
0010
0000
0000
0000
1000
0000
0001
1000
,
0000
0000
0001
0000
,
0100
0000
0000
0000
0010
0000
1000
0010
,
0000
0000
0001
0000
,
0100
0000
0000
0000
0010
0000
1000
0010
,
0000
0010
1000
0001
,
1001
0000
0000
0000
,
1000
0000
0010
0000
0100
0000
0001
0100
,
0001
0000
1000
0000
0100
0000
0010
0001
,
0010
0000
0001
0000
0100
0000
0010
1000
,
0010
1000
0100
0000
,
1000
0000
0001
0000
0100
0000
0010
1000
,
0010
0000
0100
0000
0001
0000
0010
0001
,
0010
0000
0100
0000
1000
0000
0010
1000
,
0010
0100
0001
0000
,
0001
0100
0001
0000
0100
0001
0100
0000
,
0010
1000
0010
0000
1000
0010
1000
0000
,
0010
1000
0100
0000
0010
0001
0100
0000
,
0100
0001
0010
0000
0100
1000
0010
0000
,
0100
0000
0001
0000
0100
0001
0100
0000
,
0010
1000
0010
0000
1000
0100
1000
0000
,
0001
0100
1000
0000
1000
0100
0001
0000
,
0001
0010
1000
0000
1000
0010
0001
0000
,
0001
1000
0001
1000
0000
0000
0000
0000
;

//---------------dance-single - Copied from Highflye----------------
#NOTES:
     dance-single:
     Copied from Highflye:
     Easy:
     2:
     0.234,0.259,0.225,0.000,0.000,195.000,31.000,0.000,0.000,0.000,0.000,0.234,0.259,0.225,0.000,0.000,195.000,31.000,0.000,0.000,0.000,0.000:
0000
0000
0000
0000
,
0000
0000
0001
0000
,
1000
0000
0010
0000
,
0100
0000
0001
0000
,
1000
0000
1000
0000
,
0010
0000
0100
0000
,
0001
0000
1000
0000
,
1000
0000
0100
0000
,
0100
0000
1000
0000
,
0100
0000
0001
0000
,
0001
0000
0100
0000
,
1000
0000
0010
0000
,
1000
0000
0001
0000
,
1001
0000
1001
0000
,
0110
0000
0110
0000
,
1001
0000
1001
0000
,
1001
0000
1100
0000
,
1001
0000
0110
0000
,
1010
0000
0101
0000
,
1001
0000
1100
0000
,
1001
0000
0000
0000
,
0010
0000
1000
0000
,
0001
0000
1000
0000
,
0100
0100
0100
0000
,
0010
0010
0010
0000
,
1000
0000
0001
0000
,
0100
0000
0010
0000
,
1000
1000
1000
0000
,
0001
0001
0001
0000
,
0100
0000
0100
0000
,
0010
0000
1000
0000
,
1000
0000
0001
0000
,
0100
0000
0010
0000
,
1001
0000
1001
0000
,
0110
0000
0110
0000
,
1001
0000
1001
0000
,
0110
0000
0110
0000
,
1001
0000
1001
0000
,
0110
0000
0110
0000
,
1001
0000
1001
0000
,
0110
0000
0000
0000
,
0010
0000
1000
0000
,
0001
0000
0100
0000
,
0010
0010
0010
0000
,
1000
1000
1000
0000
,
0001
0000
0100
0000
,
0010
0000
1000
0000
,
0001
0001
0001
0000
,
1000
1000
1000
0000
,
0010
0000
0100
0000
,
0001
0000
1000
0000
,
0100
0100
0100
0000
,
0010
0010
0010
0000
,
1000
0000
0001
0000
,
0100
0000
0010
0000
,
1000
1000
1000
0000
,
0001
0001
0001
0000
,
1000
1000
0000
0000
,
0001
0001
0000
0000
,
0100
0100
0000
0000
,
0010
0000
0010
0000
,
0010
0010
0000
0000
,
1000
1000
0000
0000
,
0001
0001
0000
0000
,
0100
0100
0100
0000
,
0010
0000
1000
0000
,
0001
0000
0100
0000
,
0010
0000
1000
0000
,
0001
0000
0100
0000
,
0010
0000
1000
0000
,
0100
0000
0010
0000
,
0001
0000
1000
0000
,
1001
0000
0000
0000
,
1000
0000
0001
0000
,
0100
0000
0010
0000
,
1000
1000
1000
0000
,
0001
0001
0001
0000
,
0100
0000
0010
0000
,
1000
0000
0100
0000
,
0010
0010
0010
0000
,
0001
0001
0001
0000
,
0100
0000
0010
0000
,
1000
0000
0100
0000
,
0010
0010
0010
0000
,
0100
0100
0100
0000
,
1000
0000
0001
0000
,
0100
0000
0010
0000
,
1000
1000
1000
0000
,
0001
0001
0001
0000
,
0010
0010
0000
0000
;
