#TITLE:Paradise and Dreams;
#SUBTITLE:;
#ARTIST:Ultrabeat;
#TITLETRANSLIT:;
#SUBTITLETRANSLIT:;
#ARTISTTRANSLIT:;
#GENRE:;
#CREDIT:;
#BANNER:Paradise And Dreams.png;
#BACKGROUND:rain.jpg;
#LYRICSPATH:;
#CDTITLE:;
#MUSIC:Paradise and Dreams.ogg;
#OFFSET:1.137;
#SAMPLESTART:37.990;
#SAMPLELENGTH:13.200;
#SELECTABLE:YES;
#BPMS:0.000=72.925,2.000=75.505,5.000=74.065,9.000=72.005,13.000=73.585,21.000=72.005,25.000=73.005,65.000=146.025;
#STOPS:;
#BGCHANGES:;
#KEYSOUNDS:;

//---------------dance-single - ----------------
#NOTES:
     dance-single:
     :
     Hard:
     7:
     0.329,0.377,0.211,0.127,0.100,186.000,20.000,12.000,0.000,0.000,0.000,0.329,0.377,0.211,0.127,0.100,186.000,20.000,12.000,0.000,0.000,0.000:
0000
0000
0000
0000
0000
0000
1001
0000
0000
0000
0000
0000
0000
0000
0000
0001
,
0000
0000
1000
0000
0001
0000
0000
0000
0000
0000
0000
0000
1000
0000
0001
0010
,
0000
0100
0100
0000
0000
0000
0000
1000
,
0100
0010
1000
0000
0000
0010
0001
0000
,
1000
0100
0001
0000
0000
0000
0000
0001
,
0100
0000
0010
0000
0001
0000
0000
0000
0000
0000
0000
0000
0001
0000
0010
0100
,
0000
1001
0100
0000
0000
0000
0000
0010
,
0011
0100
1100
0000
0000
1000
0001
0000
,
0011
1100
0001
0100
,
0010
0100
0001
1000
,
0010
0100
0001
1000
,
0100
0010
0001
1000
,
0010
0100
0001
1000
,
0010
0100
0001
1000
,
0010
0100
1000
0100
,
0010
1000
0001
1000
,
0001
0000
0000
0000
1001
0000
1000
0000
0010
0000
0000
0100
0000
0000
0001
0000
,
0100
0000
0000
0001
0000
0000
0001
0000
0100
0000
0000
0010
0000
0000
0010
0000
,
1000
0000
0000
1000
0000
0000
0001
0000
0100
0000
0000
0100
0000
0000
0010
0000
,
1000
0000
0000
1000
0000
0000
0001
0000
0100
0000
0000
0100
0000
0000
0010
0000
,
1000
0000
0000
1000
0000
0000
0100
0000
0010
0000
0000
0010
0000
0000
0001
0000
,
1000
0000
0000
0001
0000
0000
0100
0000
0010
0000
0000
0010
0000
0000
1000
0000
,
0100
0000
0000
0010
0000
0000
0001
0000
1000
0000
0000
0001
0000
0000
0100
0000
,
1000
0000
0000
0100
0000
0000
0001
0000
1000
0000
0000
0001
0000
0000
0010
0000
,
0100
0000
0000
1000
0000
0000
0001
0000
1000
0000
0000
0000
0001
0000
1000
0000
,
0100
0000
1001
0000
0001
0100
0010
0100
,
1000
0100
0110
0000
0010
0000
0010
1000
,
0000
0001
0000
1000
0000
0010
0000
0100
,
0000
0110
0000
0000
0001
0000
1000
0000
,
0001
0100
0000
0010
0000
1000
0000
0001
,
0000
1001
0000
0001
1000
0000
0010
0000
,
0100
0001
0000
1000
0000
0100
0000
1000
,
0000
1010
0000
0001
0100
0000
0010
0100
,
1100
0000
1000
0100
0110
0000
0010
0000
,
1000
0000
1001
0000
0100
0010
0100
0000
,
1000
0100
0000
0010
0000
1000
0000
0001
,
0000
2000
0000
0002
0000
3003
0001
1000
,
0000
0010
0000
0100
0000
0001
0000
1000
,
0100
2200
3300
2002
,
3003
0220
0330
2002
,
3003
0220
0000
0000
,
0000
0000
0000
0000
,
0330
0000
0000
0000
;

//---------------dance-single - Copied from----------------
#NOTES:
     dance-single:
     Copied from:
     Challenge:
     9:
     0.579,0.784,0.211,0.021,1.000,362.000,20.000,2.000,0.000,0.000,0.000,0.579,0.784,0.211,0.021,1.000,362.000,20.000,2.000,0.000,0.000,0.000:
0000
0000
0000
0000
0000
0000
1001
0000
0000
0000
0000
0000
0000
0000
0000
0011
,
0000
0000
1000
0000
0101
0000
0000
0000
0000
0000
0000
0000
1000
0000
0001
0010
,
0000
0010
0100
0000
0110
0000
0000
0000
0000
0000
0000
0000
0000
0000
1000
0000
,
1100
0010
1010
0000
0000
0010
0101
0000
,
1010
0100
0011
0000
0000
0000
0000
0001
,
1001
0000
0010
0000
0110
0000
0000
0000
0000
0000
0000
0000
0001
0000
0010
0100
,
0000
1000
0100
0000
0110
0000
0000
0000
0000
0000
0000
0000
0000
0000
0010
0000
,
0011
0100
1100
0000
0000
1000
1001
0000
,
0011
1000
0001
0100
,
0010
1010
0001
0100
,
0010
1010
0001
0100
,
0010
0110
1000
0001
,
0100
0000
0000
0000
0000
0000
0000
0000
0001
0000
1000
0000
0001
1000
0000
0001
0000
0000
0100
0000
0010
0100
0000
0010
0000
0000
1000
0000
0001
1000
0000
0100
,
1000
0000
1000
0000
0100
1000
0000
0001
0000
0000
0100
0000
0001
0100
0000
0010
0000
0000
0010
0000
1000
0001
0000
1000
0000
0000
0001
0000
1000
0100
0000
1000
,
0000
1000
0100
0000
0010
0001
0000
0010
0000
0000
0001
0000
1000
0010
0000
0010
0000
0000
0100
0000
0001
0100
0000
0100
0000
0100
0010
0000
1000
0010
0000
1000
,
0000
0000
0100
0000
1000
0100
0000
0010
0000
0000
0001
0000
1000
0001
0000
1000
0000
1000
0001
0000
0100
0001
0000
0100
0000
0100
0010
0000
0100
0010
0000
1000
,
0000
0000
0001
0000
1000
0001
0000
1000
0001
0000
0000
0000
1000
0000
0000
0000
0001
0000
0100
0000
0000
0000
0100
0000
0000
0000
0010
0000
0100
0000
0000
0000
,
0010
1000
0000
0001
0000
1000
0100
0000
1000
0100
0000
1000
0000
0001
0100
0000
,
0100
0010
0000
0010
0000
1000
0001
0000
0001
1000
0000
0100
0000
1000
0001
0000
,
0010
0001
0000
1000
0000
0100
1000
0000
0001
0100
0000
0010
0000
0100
0010
0000
,
1000
0001
0000
1000
0000
0100
0010
0000
0001
0010
0000
0001
0000
1000
0010
0000
,
0100
0010
0000
0100
0000
1000
0100
0000
0010
1000
0000
0100
0000
0010
0001
0000
,
0010
0001
0000
1000
0000
0001
0100
0000
0010
0100
0000
0010
0000
1000
0100
0000
,
0010
0001
0000
1000
0000
0001
0100
0000
0010
0100
0000
1000
0000
0100
0010
0000
,
0100
0010
0000
1000
0000
1000
0001
0000
0001
1000
0000
1000
0000
0100
0010
0000
,
0010
0001
0000
1000
0000
0010
0100
0000
0010
1000
0000
0010
0000
1000
0001
0000
,
1000
0001
0000
0100
0000
0010
0100
0000
0010
1000
0000
0100
0000
1000
0001
0000
,
0010
0001
0000
1000
0000
0100
1000
0000
0001
1000
0000
0001
0000
0100
0010
0000
,
0100
0010
0000
0100
0000
1000
0100
0000
0010
1000
0000
0010
0000
1000
0001
0000
,
0100
0001
0000
0100
0000
0010
1000
0000
0010
1000
0000
0001
0000
1000
0100
0000
,
1000
0001
0000
1000
0000
0001
0100
0000
0010
0100
0000
0010
0000
1000
0001
0000
,
1000
0100
0000
1000
0000
0001
0010
0000
0001
1000
0000
0100
0000
1000
0001
0000
,
0100
0001
0000
1000
0000
1000
0010
0000
0100
0010
0000
0100
0000
0001
0100
0000
,
0010
0100
0000
0010
0000
1000
0001
0000
1000
0100
0000
1000
0000
0001
0010
0000
,
0001
1000
0000
0100
0000
1000
0001
0000
0100
0001
0000
0100
0000
0010
0100
0000
,
0010
1000
0000
0001
0000
1000
0100
0000
1000
0001
0000
0010
0000
0001
1000
0000
,
0100
1000
0000
0100
0000
1000
0100
0000
1000
0100
0000
1000
0000
0001
1000
0000
,
0001
0100
0000
0010
0000
0100
0010
0000
1000
0001
0000
1000
0000
0100
0010
0000
,
0001
0010
0000
0001
0000
1000
0100
0000
1000
0000
0001
0100
0010
0000
0100
0000
,
1000
0000
0100
0010
1000
0000
0001
0000
1000
0000
0100
0010
0001
0000
1000
0000
,
0001
1000
2002
0000
0000
0000
0000
0000
,
0000
3003
0000
0000
;

//---------------dance-single - Copied from----------------
#NOTES:
     dance-single:
     Copied from:
     Medium:
     5:
     0.265,0.255,0.169,0.000,0.090,160.000,16.000,0.000,0.000,0.000,0.000,0.265,0.255,0.169,0.000,0.090,160.000,16.000,0.000,0.000,0.000,0.000:
0000
0000
0000
1001
0000
0000
0001
0000
,
0001
0000
0100
0000
0110
0000
0000
0000
0000
0000
0000
0000
0010
0000
0000
1000
,
0000
0001
0000
1000
0000
0001
0000
0000
0000
0000
0000
0000
0000
0000
0000
0000
,
0010
1000
0001
0000
0001
0100
0000
0100
,
0010
0100
0000
0000
1000
0000
0001
0000
,
0100
0010
0100
0000
0001
0000
1000
0000
,
0100
1000
0100
0000
0001
0000
0100
0000
,
0010
0010
0010
0000
1000
0000
0001
0000
,
0100
0010
1000
0001
,
0001
0100
0101
0000
0010
0000
1000
0000
,
0010
1000
1010
0000
0001
0000
0100
0000
,
0010
0100
0101
0000
1000
0000
0100
0000
,
0010
0100
1100
0000
1000
0000
0001
0000
,
0010
0100
0101
0000
1000
0000
0100
0000
,
0010
0001
0011
0000
1000
0000
0001
0000
,
0100
0010
1000
0001
,
0100
0000
0100
0000
0010
0000
0100
0001
,
0100
0000
0010
0000
1000
0000
0001
1000
,
0001
0000
0000
1000
0000
0000
0000
0000
0100
0000
0000
0010
0000
0000
0000
0000
,
0100
0000
0000
0001
0000
0000
0000
0000
1000
0000
0000
0001
0000
0000
0000
0000
,
1000
0000
0000
0001
0000
0000
0000
0000
0100
0000
0000
0010
0000
0000
0000
0000
,
0100
0000
0000
0001
0000
0000
0000
0000
1000
0000
0000
0100
0000
0000
0000
0000
,
1000
0000
0000
0001
0000
0000
0000
0000
0100
0000
0000
0010
0000
0000
0000
0000
,
0100
0000
0000
0001
0000
0000
0000
0000
1000
0000
0000
0100
0000
0000
0000
0000
,
1000
0000
0000
0001
0000
0000
0000
0000
0001
0000
0000
0000
0100
0000
0010
0000
,
0100
0001
0000
1000
,
0100
1100
0000
0001
,
0000
0100
0000
0010
0000
0100
0000
0001
,
0000
1100
0000
0000
0000
0000
0001
0000
,
0000
0100
0000
0010
0000
1000
0000
0001
,
0000
0101
0000
0000
0010
0000
0100
0000
,
0000
0001
0000
1000
0000
0100
0000
0010
,
0000
0011
0000
0000
1000
0000
0001
0000
,
0100
0010
0000
0010
,
0100
0101
0000
0010
,
0000
1000
0000
0001
0000
0100
0000
0010
,
0000
0101
0000
1010
0000
0000
0001
0000
,
0000
1000
0000
0001
0000
0100
0000
0010
,
0000
0010
0000
1000
,
0000
0001
0000
0100
,
0000
1001
0000
0000
;

//---------------dance-single - Copied from Copied from----------------
#NOTES:
     dance-single:
     Copied from Copied from:
     Easy:
     3:
     0.243,0.340,0.369,0.000,0.000,126.000,35.000,0.000,0.000,0.000,0.000,0.243,0.340,0.369,0.000,0.000,126.000,35.000,0.000,0.000,0.000,0.000:
0000
0000
0000
0110
0000
0000
0000
0000
,
1000
0001
0000
0010
,
0100
0010
0000
0000
,
1000
0001
0000
0100
,
0010
0100
0010
1000
,
0001
0001
0100
0010
,
0100
0110
0000
0000
,
1000
0100
0000
1000
,
0001
0101
0010
1010
,
0100
1100
0001
1001
,
0010
0110
0001
1001
,
0010
0110
0001
1001
,
0010
0101
0010
1100
,
0001
0001
0001
0000
1001
0000
0010
0000
,
0110
1001
1100
0011
,
1010
0101
0110
1010
,
0101
1000
0001
0100
,
0010
0100
0010
1000
,
0001
0001
0001
0100
,
0010
1000
0001
1000
,
0001
1001
0001
0100
,
0010
1000
0100
0010
,
0001
0011
0001
0100
,
0010
1000
0001
0100
,
0001
1001
0000
1000
,
0000
0001
0000
0100
,
0100
0100
0000
0001
,
0000
1000
0000
0000
0000
0000
0001
0000
,
0100
0110
0000
0010
,
0000
1000
0000
0001
,
0000
1001
0000
0100
,
0000
0010
0000
1000
,
0000
1001
0000
0100
,
0100
0100
0000
0010
,
0100
0101
0000
1000
,
0000
0001
0000
0100
,
0010
0110
0000
1000
,
0000
0001
0000
0100
,
0000
1010
0000
0101
,
0000
0011
0000
1100
,
0000
1001
0000
0000
;
