#TITLE:Paper Wings;
#SUBTITLE:;
#ARTIST:Rise Against;
#TITLETRANSLIT:;
#SUBTITLETRANSLIT:;
#ARTISTTRANSLIT:;
#GENRE:;
#CREDIT:;
#BANNER:Paper Wings.png;
#BACKGROUND:;
#LYRICSPATH:;
#CDTITLE:;
#MUSIC:Paper Wings.ogg;
#OFFSET:-8.578;
#SAMPLESTART:37.990;
#SAMPLELENGTH:13.180;
#SELECTABLE:YES;
#BPMS:0.000=200.100;
#STOPS:;
#BGCHANGES:;
#KEYSOUNDS:;

//---------------dance-single - ----------------
#NOTES:
     dance-single:
     :
     Hard:
     9:
     0.724,0.777,0.243,0.016,0.035,613.000,31.000,2.000,0.000,0.000,0.000,0.724,0.777,0.243,0.016,0.035,613.000,31.000,2.000,0.000,0.000,0.000:
0000
0000
0000
0000
,
1000
0100
1000
0000
0001
1000
0000
0100
,
0010
0000
0001
0010
0000
0100
1000
0000
,
0001
0010
0100
0000
1000
0100
0000
0010
,
0100
0000
0001
0100
0000
1000
0100
0000
,
0010
0100
0010
0000
0001
1000
0000
0010
,
0100
0000
0001
0010
0000
0100
1000
0000
,
1000
0001
0010
0000
0100
1000
0000
1000
,
0010
0000
0010
0100
0000
0100
0001
0000
,
0001
0010
0100
0000
1000
0010
0000
0010
,
0100
0000
0100
0010
0000
0010
1000
0000
,
1000
0100
0001
0000
0001
0100
0000
1000
,
0010
0000
0001
0010
0000
1000
0100
0000
,
0010
0100
0010
0000
0010
0010
0000
1000
,
1000
0000
0001
0001
0000
0100
0100
0000
,
0010
1000
0100
0000
0010
0001
0000
0001
,
1000
0000
1000
0001
0000
0010
0100
0000
,
0110
0000
1100
0000
1000
0001
1000
1001
,
0000
0000
1000
0000
0100
1000
0001
0000
,
1000
0100
0010
0001
0000
1000
0001
0010
,
0000
0010
0100
0000
0010
0100
0010
0001
,
0100
0000
0010
0000
1000
0100
1000
1100
,
0000
1000
0100
1000
0000
0010
1000
0000
,
1000
0100
0010
0000
0001
0100
0010
0100
,
0000
1000
0100
0000
0010
1000
0100
0000
,
0011
0000
1100
0000
1000
0001
1000
1001
,
0000
1100
0000
0010
1000
0100
1100
0000
,
1001
0000
1010
0000
1000
0100
0010
0011
,
0000
0010
0001
0000
1000
0100
1000
0000
,
1010
0000
1100
0000
1000
0010
1000
0100
,
0000
1000
0010
0000
0100
0010
0100
0000
,
0100
0001
0100
0000
0010
1000
0100
0000
,
0010
0001
0100
0010
1000
0100
0010
0001
,
0000
0001
0010
0000
0100
1000
0010
0000
,
0010
0100
0010
0000
0010
1000
0010
1000
,
0000
1000
0100
0000
0010
0001
0010
0000
,
0100
0010
0100
0000
0100
0010
0001
1000
,
0000
1000
0010
0000
0010
0100
0010
0000
,
1000
0000
0100
0000
0100
1000
0000
0000
0100
1000
0100
1000
0100
1000
0100
0000
,
1000
0010
1000
0010
0100
0001
0100
0010
,
0100
1000
0100
0010
0100
0010
1000
0001
,
1000
0100
1000
0100
1000
0001
0100
0010
,
0100
1000
0100
0010
1000
0010
1000
0001
,
0100
0001
0100
0010
1000
0001
0010
0100
,
1000
0001
0100
0010
0100
1000
0100
0010
,
1000
0010
1000
0001
0010
0001
0010
1000
,
0010
0001
0010
1000
0010
0001
0100
1000
,
0100
0010
1000
0001
0010
0100
1000
0001
,
0100
1000
0100
0001
0100
1000
0100
0001
,
0010
0001
0010
1000
0010
0001
0010
1000
,
0010
0001
0010
1000
0010
0001
0100
1000
,
0100
0010
1000
0001
0010
0001
1000
0100
,
0001
0100
0010
0100
0001
0100
1000
0100
,
1000
0010
0001
0010
1000
0100
0010
0001
,
1000
0100
0010
0001
0100
0010
1000
0100
,
0110
0000
0110
0000
1000
0100
1000
1100
,
0000
1000
0100
0010
0000
0001
0100
0010
,
0110
0000
1010
0000
1000
0100
1000
0100
,
0000
0100
1000
0000
1000
0010
0100
0001
,
0011
0000
0110
0000
1000
0100
1000
1100
,
0000
1000
0010
0000
0010
0100
0010
0000
,
1010
0000
1100
0000
0010
0001
0010
0001
,
0000
0001
0100
0000
0010
1000
0100
0000
,
0011
0000
1010
0000
1000
0100
1000
1100
,
0000
1000
0100
0000
0010
0001
0100
0010
,
1000
0000
0100
0000
0010
0001
0010
0001
,
0000
0100
0010
0000
0010
1000
0100
0000
,
0011
0000
0011
0000
1000
0100
1000
1100
,
0000
0100
0010
0000
0001
0100
0010
1000
,
0100
0000
1000
0000
0001
0100
0010
0000
,
0010
1000
0010
0100
0010
1000
0100
0010
,
0000
0001
0100
0000
0010
1000
0100
0000
,
0100
1000
0010
0000
0100
0010
1000
0100
,
0000
0010
0001
0000
0001
0100
0010
0000
,
0010
1000
0100
0000
0010
0001
0010
0100
,
0000
0010
1000
0000
1000
0010
0001
0000
,
0001
0000
0100
0000
0001
0100
0000
0000
0001
0100
0001
0100
0001
0100
0001
0100
,
0001
1000
0010
0100
0010
0100
0001
0100
,
1000
0100
0010
1000
0010
1000
0100
1000
,
0001
0100
0001
0100
0010
1000
0010
1000
,
0001
0100
0001
0100
0010
1000
0010
1000
,
0100
0010
0001
0010
0001
0100
0010
0100
,
0010
1000
0010
1000
0100
1000
0100
0010
,
0001
0010
0001
0100
1000
0100
0010
0001
,
0010
1000
0100
1000
0001
0010
0001
1000
,
0100
1000
0001
0100
0010
0100
0010
1000
,
0100
1000
0001
0100
0001
0010
0001
0100
,
0010
1000
0010
1000
0100
0010
0001
0010
,
0001
0100
0010
0100
0010
1000
0100
1000
,
0001
0100
0010
0100
1000
0100
0010
1000
,
0010
1000
0001
0010
0100
1000
0001
0100
,
0010
1000
0001
0010
1000
0001
0100
1000
,
0001
0100
0010
0100
0001
1000
0001
1000
,
2002
0000
0000
0000
,
0000
0000
0000
0000
,
0000
0000
0000
0000
,
0000
0000
0000
0000
,
0000
0000
0000
0000
,
0000
0000
0000
0000
,
3003
0000
0000
0000
;

//---------------dance-single - ----------------
#NOTES:
     dance-single:
     :
     Medium:
     5:
     0.327,0.388,0.063,0.173,0.000,262.000,8.000,22.000,0.000,0.000,0.000,0.327,0.388,0.063,0.173,0.000,262.000,8.000,22.000,0.000,0.000,0.000:
0000
0000
0000
0000
,
1000
0000
1000
0000
0000
0010
0000
0000
,
0100
0000
0000
0001
0000
0000
0001
0000
,
0001
0000
1000
0000
0000
1000
0000
0000
,
1000
0000
0000
1000
0000
0000
1000
0000
,
0010
0000
0010
0000
0000
0010
0000
0000
,
0010
0000
0000
0010
0000
0000
0010
0000
,
0100
0000
0100
0000
0000
0100
0000
0000
,
0100
0000
0000
0001
0000
0000
1000
0000
,
0100
0000
1000
0000
0000
0001
0000
0000
,
0100
0000
0000
1000
0000
0000
0100
0000
,
0010
0000
1000
0000
0000
0100
0000
0000
,
0010
0000
0000
0001
0000
0000
0001
0000
,
0001
0000
0100
0000
0000
1000
0000
0000
,
0100
0000
0000
0010
0000
0000
0010
0000
,
1000
0000
0100
0000
0000
0010
0000
0000
,
0001
0000
0000
0001
0000
0000
0100
0000
,
0110
0000
1010
0000
1001
0000
0000
0100
,
0000
1000
0000
0001
0000
0000
0000
0000
,
0001
0000
0000
0100
0000
0010
0000
1000
,
0000
0000
0000
0000
,
0001
0000
0100
0000
0010
0000
0000
0010
,
0000
1000
0000
0100
0000
0000
0000
0000
,
1000
0000
0001
0000
0100
0000
0000
0001
,
0000
1000
0000
0100
0000
1000
0000
0000
,
0001
0000
0100
0000
0010
0000
0000
0010
,
0000
1000
0000
0100
0000
0000
0000
0000
,
0010
0000
0001
0000
0100
0010
0000
0100
,
0000
0000
0000
0000
,
0001
0000
0100
0000
0010
0100
0000
0010
,
0000
1000
0000
0100
0000
1000
0000
1000
,
0002
0000
0000
0103
,
0010
0000
0000
0000
0010
0000
0000
1000
,
0000
0000
0000
0000
,
1000
0001
0000
0100
0000
0010
0000
1000
,
0000
0000
0000
0000
0000
0001
1000
0000
,
1000
0001
0000
0100
0000
0020
0000
0000
,
0000
0000
0000
0030
,
2000
0000
3000
0000
,
0001
0000
0100
0000
,
0010
0000
0000
1000
0000
0000
0100
0000
,
2000
0000
0000
3001
0000
0001
0000
0000
,
0001
0000
0000
0100
0000
0000
0010
0000
,
0020
0000
2030
0000
,
3200
0000
0000
0320
0000
0000
0031
0000
,
0200
0000
0000
0320
0000
0030
0010
0000
,
2000
3000
1000
0001
,
0100
0000
0000
0100
0000
0000
0100
0000
,
0010
0000
0000
0010
0000
0000
0010
0000
,
2000
0000
0000
0002
0000
3003
0001
0000
,
0100
0000
0000
0010
0000
0000
0010
0000
,
1000
0000
0000
0100
0000
0000
1000
0000
,
0001
0000
0000
0001
0000
0000
0001
0000
,
0100
0000
0000
0100
0000
0000
0100
0000
,
0010
0000
0000
0010
0000
0000
1000
0000
,
1001
0000
0110
0000
0001
1000
0000
1000
,
0000
0001
0000
1000
0000
0000
0000
0000
,
0001
0000
0100
0010
0000
1000
0000
0001
,
0000
0000
0000
0000
,
1001
0000
0110
0000
0001
1000
0000
0010
,
0000
0100
0000
0001
0000
1000
0000
0000
,
0100
0000
1000
0000
0001
0100
0000
0010
,
0000
1000
0000
0001
0000
0010
0000
0000
,
0001
0000
2000
0000
0000
3100
0000
1000
,
0000
0001
0000
0100
0000
0000
0000
0000
,
0010
0000
1000
0000
0001
0100
0000
0010
,
0000
0000
0000
0000
,
0001
0000
1000
0000
0100
0010
0000
0001
,
0000
0100
0000
0010
0000
1000
0000
0002
,
0000
0000
0000
0000
0000
0003
1000
0000
,
0010
0000
0000
0000
0010
0000
0000
0100
,
0000
0000
0000
0000
,
0001
1000
0000
0100
0000
1000
0000
0002
,
0000
0200
0000
0303
,
0020
0000
2000
0000
,
0030
0200
0000
0000
,
0000
0000
0000
0000
0000
3300
0000
0000
,
0001
0000
1000
0000
,
0010
0000
0000
0010
0000
0000
0100
0000
,
0001
0000
0001
0000
0000
1000
0000
0000
,
1000
0000
0000
0010
0000
0000
0010
0000
,
0100
0000
0100
0000
,
0001
0000
0000
0001
0000
0000
1000
0000
,
0100
0000
0000
0100
0000
0000
0010
0000
,
0001
0000
0001
0100
,
0010
0000
0000
0010
0000
0000
0010
0000
,
1000
0000
0000
0100
0000
0000
0100
0000
,
0010
0000
0000
0001
0000
0001
0000
0000
,
0001
0000
0000
0100
0000
0000
0010
0000
,
0010
0000
0000
1000
0000
0000
0100
0000
,
0010
0000
0000
0001
0000
0000
0001
0000
,
0100
0000
0000
0010
0000
0000
0010
0000
,
1000
0000
0000
0100
0000
0000
0010
0000
,
2002
0000
0000
0000
,
0000
0000
0000
0000
,
0000
0000
0000
0000
,
0000
0000
0000
0000
,
0000
0000
0000
0000
,
0000
0000
0000
0000
,
0000
3003
0000
0000
0000
0000
0000
0000
0000
0000
0000
0000
0000
0000
0000
0000
0000
0000
0000
0000
0000
0000
0000
0000
0000
0000
0000
0000
0000
0000
0000
0000
0000
0000
0000
0000
0000
0000
0000
0000
0000
0000
0000
0000
0000
0000
0000
0000
0000
0000
0000
0000
0000
0000
0000
0000
0000
0000
0000
0000
0000
0000
0000
0000
0000
0000
0000
0000
0000
0000
0000
0000
0000
0000
0000
0000
0000
0000
0000
0000
0000
0000
0000
0000
0000
0000
0000
0000
0000
0000
0000
0000
0000
0000
0000
0000
0000
0000
0000
0000
0000
0000
0000
0000
0000
0000
0000
0000
0000
0000
0000
0000
0000
0000
0000
0000
0000
0000
0000
0000
0000
0000
0000
0000
0000
0000
0000
0000
0000
0000
0000
0000
0000
0000
0000
0000
0000
0000
0000
0000
0000
0000
0000
0000
0000
0000
0000
0000
0000
0000
0000
0000
0000
0000
0000
0000
0000
0000
0000
0000
0000
0000
0000
0000
0000
0000
0000
0000
0000
0000
0000
0000
0000
0000
0000
0000
0000
0000
0000
0000
0000
0000
0000
0000
0000
0000
0000
0000
0000
0000
0000
0000
;

//---------------dance-single - Copied from----------------
#NOTES:
     dance-single:
     Copied from:
     Easy:
     2:
     0.169,0.272,0.055,0.078,0.000,134.000,7.000,10.000,0.000,0.000,0.000,0.169,0.272,0.055,0.078,0.000,134.000,7.000,10.000,0.000,0.000,0.000:
0000
0000
0000
0000
,
1000
1000
0000
0000
,
0010
0000
0000
0000
,
0100
0010
0000
0000
,
1000
0000
0000
0000
,
0010
0100
0000
0000
,
0100
0000
0000
0000
,
0001
1000
0000
0000
,
1000
0000
0000
0000
,
0010
0100
0000
0000
,
0001
0000
0000
0000
,
1000
0100
0000
0000
,
1000
0000
0000
0000
,
0001
0010
0000
0000
,
0010
0000
0000
0000
,
0001
0100
0000
0000
,
1000
0000
0000
0000
,
1001
1001
1001
0000
,
1000
0000
0000
0000
,
1000
0000
1000
0000
,
1000
0000
0000
0000
,
0001
0000
0001
0000
,
0001
0000
0000
0000
,
0100
0010
0100
0000
,
1000
0001
1000
0000
,
0100
0001
0100
0000
,
1000
0100
1000
0000
,
1000
1000
1000
0000
,
0001
0001
0001
0000
,
0100
0100
0100
0000
,
0010
0010
0010
0000
,
2000
0000
0000
0000
0000
0000
0000
3000
,
0002
0000
0000
0000
,
0203
0000
0000
0000
,
0320
0000
0000
0000
,
2030
0000
0000
0000
,
3002
0000
0000
0000
,
0203
0000
0000
0000
,
0320
0000
0000
0000
0000
0000
0000
0030
,
1000
0000
1000
0000
,
1000
0000
0010
0000
,
0010
0000
0100
0000
,
0100
0000
0010
0000
,
1000
0000
0000
0000
,
0001
0000
0000
0000
,
0100
0000
0010
0000
,
1000
0000
0000
0000
,
1000
0000
0000
0000
,
0001
0000
0000
0000
,
0100
0000
0000
0000
,
0010
0000
0000
0000
,
1000
0000
0100
0000
,
1000
0000
0000
0000
,
0001
0000
0100
0000
,
0001
0000
0000
0000
,
1001
1001
1001
0000
,
1000
0000
0000
0000
,
0001
0000
0000
0000
,
0100
0000
0000
0000
,
0010
0000
0000
0000
,
1000
0000
0000
0000
,
0001
0000
0000
0000
,
1000
0000
0000
0000
,
0010
0010
0000
0000
,
0100
0000
0000
0000
,
0010
0000
0000
0000
,
1000
0000
0000
0000
,
0001
0100
0000
0000
,
1000
0000
0000
0000
,
0001
0000
0000
0000
,
0010
0000
0000
0000
,
0100
0000
0000
0000
,
1000
0000
0000
0000
,
0001
0000
0000
0000
,
0100
0000
0010
0000
,
0000
0000
0100
0000
,
0000
0000
0000
0000
,
1000
0000
0000
0000
,
1000
0000
0000
0000
,
0001
0000
0000
0000
,
0100
0000
0000
0000
,
0010
0000
1000
0000
,
0100
0000
0000
0000
,
0010
0000
0001
0000
,
0001
0000
0000
0000
,
0100
0000
0000
0000
,
0010
0000
0000
0000
,
1000
1000
0000
0000
,
0000
0000
0000
0000
,
0001
0000
0000
0000
,
0100
0000
0000
0000
,
0010
0000
0000
0000
,
1000
0000
0000
0000
,
0220
0000
0000
0000
,
0000
0000
0000
0000
,
0000
0000
0000
0000
,
0000
0000
0000
0000
,
0000
0000
0000
0000
,
0000
0000
0000
0000
,
0330
0000
0000
0000
;
